osu file format v14

[General]
AudioFilename: audio.mp3
AudioLeadIn: 0
PreviewTime: -1
Countdown: 0
SampleSet: None
StackLeniency: 0.7
Mode: 2
LetterboxInBreaks: 0
WidescreenStoryboard: 0

[Editor]
DistanceSpacing: 1
BeatDivisor: 4
GridSize: 16
TimelineZoom: 1.8

[Metadata]
Title:Saki
TitleUnicode:Saki
Artist:Badis
ArtistUnicode:Badis
Creator:-Ken
Version:Rain
Source:
Tags:
BeatmapID:1819984
BeatmapSetID:871006

[Difficulty]
HPDrainRate:5
CircleSize:3.7
OverallDifficulty:8.8
ApproachRate:8.8
SliderMultiplier:1.8
SliderTickRate:2

[Events]
//Background and Video events
0,0,"saki.jpg",0,0
//Break Periods
//Storyboard Layer 0 (Background)
//Storyboard Layer 1 (Fail)
//Storyboard Layer 2 (Pass)
//Storyboard Layer 3 (Foreground)
//Storyboard Sound Samples

[TimingPoints]
681,500,4,2,1,40,1,0
3681,-100,4,2,1,30,0,0
4181,-66.6666666666667,4,2,1,40,0,0
4681,-66.6666666666667,4,2,1,55,0,0
13181,-66.6666666666667,4,2,1,35,0,0
16681,-66.6666666666667,4,2,1,55,0,1
21681,-52.6315789473684,4,2,1,55,0,1
24681,-52.6315789473684,4,2,1,55,0,0
25181,-66.6666666666667,4,2,1,55,0,0
26681,-66.6666666666667,4,2,2,55,0,0
27181,-66.6666666666667,4,2,1,55,0,0
28681,-66.6666666666667,4,2,2,55,0,0
33181,-66.6666666666667,4,2,1,55,0,0
40681,-66.6666666666667,4,2,1,25,0,0
41181,-66.6666666666667,4,2,1,25,0,0
42681,-66.6666666666667,4,2,2,25,0,0

[HitObjects]
144,288,681,6,0,P|80:240|112:192,1,135
240,176,1181,1,2,0:0:0:0:
80,144,1431,2,0,L|272:144,1,180
80,144,2181,6,0,L|80:240,1,90,2|0,0:0|0:0,0:0:0:0:
400,256,2681,2,0,P|464:224|384:160,1,180,8|0,0:0|0:0,0:0:0:0:
128,192,3431,1,0,0:0:0:0:
320,176,3681,6,0,L|320:128,1,45,0|2,3:3|3:3,3:3:0:0:
224,144,3931,2,0,L|224:96,1,45,0|2,3:3|3:3,3:3:0:0:
384,240,4181,5,0,0:0:0:0:
416,232,4243,1,0,0:0:0:0:
443,213,4306,1,0,0:0:0:0:
461,184,4368,1,0,0:0:0:0:
469,152,4431,1,0,0:0:0:0:
465,119,4493,1,0,0:0:0:0:
450,88,4556,1,0,0:0:0:0:
424,66,4618,1,0,0:0:0:0:
208,80,4681,5,2,0:0:0:0:
448,176,5181,6,0,L|464:272,1,67.5000025749208,2|0,0:0|0:0,0:0:0:0:
96,176,5681,6,0,L|80:272,1,67.5000025749208,2|0,0:0|0:0,0:0:0:0:
272,192,6056,5,0,0:0:0:0:
464,128,6181,1,2,0:0:0:0:
256,112,6431,1,0,0:0:0:0:
48,112,6681,6,0,L|48:384,1,270.000010299683,10|2,0:0|0:0,0:0:0:0:
176,384,7306,1,0,0:0:0:0:
160,320,7431,1,2,0:0:0:0:
288,320,7556,1,0,0:0:0:0:
288,320,7806,5,0,0:0:0:0:
160,304,7931,1,2,0:0:0:0:
192,240,8056,1,0,0:0:0:0:
48,256,8181,1,2,0:0:0:0:
80,192,8306,1,0,0:0:0:0:
464,176,8681,5,10,0:0:0:0:
192,128,9181,5,2,0:0:0:0:
320,128,9306,1,0,0:0:0:0:
48,224,9681,5,2,0:0:0:0:
176,224,9806,1,0,0:0:0:0:
400,224,10056,5,0,0:0:0:0:
176,224,10181,2,0,L|176:64,1,135.000005149842,2|0,0:0|0:0,0:0:0:0:
384,32,10681,6,0,P|432:96|304:192,1,270.000010299683,10|2,0:0|0:0,0:0:0:0:
192,192,11306,1,0,0:0:0:0:
314,196,11431,1,2,0:0:0:0:
192,192,11556,1,0,0:0:0:0:
192,192,11806,6,0,L|304:192,1,67.5000025749208,0|2,0:0|0:0,0:0:0:0:
128,128,12056,2,0,L|224:128,2,67.5000025749208,0|2|0,0:0|0:0|0:0,0:0:0:0:
464,176,12681,5,4,3:3:0:0:
90,266,13181,6,0,L|218:250,1,90.0000034332277,8|0,3:3|3:3,3:3:0:0:
240,240,13431,1,0,3:3:0:0:
180,255,13514,1,0,3:3:0:0:
151,223,13597,1,0,3:3:0:0:
157,180,13681,5,2,3:3:0:0:
288,160,13847,2,0,L|288:240,1,45.0000017166138,0|2,3:3|3:3,3:3:0:0:
112,256,14097,2,0,L|96:192,1,45.0000017166138,0|2,3:3|3:3,3:3:0:0:
224,144,14347,2,0,L|288:144,2,45.0000017166138,0|2|0,3:3|3:3|3:3,3:3:0:0:
160,144,14597,1,0,3:3:0:0:
416,144,14681,5,4,3:3:0:0:
112,256,15181,5,8,3:3:0:0:
240,256,15347,1,0,3:3:0:0:
293,231,15430,1,0,3:3:0:0:
306,172,15513,1,0,3:3:0:0:
271,126,15597,1,0,3:3:0:0:
160,128,15681,6,0,L|288:112,1,90.0000034332277,2|0,3:3|3:3,3:3:0:0:
336,96,15931,2,0,L|208:112,1,90.0000034332277,2|0,3:3|3:3,3:3:0:0:
336,96,16181,1,2,3:3:0:0:
395,121,16306,1,0,3:3:0:0:
404,185,16431,1,2,3:3:0:0:
355,226,16556,1,0,3:3:0:0:
80,224,16681,5,4,3:3:0:0:
432,288,17181,6,0,L|448:192,1,67.5000025749208,8|0,0:0|0:0,0:0:0:0:
192,208,17431,2,0,L|192:112,1,67.5000025749208
400,64,17681,2,0,P|448:128|384:176,1,135.000005149842,8|0,0:0|0:0,0:0:0:0:
320,192,18056,1,0,0:0:0:0:
424,166,18181,1,10,0:0:0:0:
320,192,18306,1,0,0:0:0:0:
208,208,18431,1,10,0:0:0:0:
320,192,18556,1,0,0:0:0:0:
48,224,18681,5,4,0:0:0:0:
400,224,19181,5,8,0:0:0:0:
512,224,19306,1,0,0:0:0:0:
400,224,19431,1,2,0:0:0:0:
512,224,19556,1,0,0:0:0:0:
32,240,19681,6,0,L|32:144,1,90.0000034332277,8|0,0:0|0:0,0:0:0:0:
176,144,19931,2,0,L|176:272,1,90.0000034332277,2|0,0:0|0:0,0:0:0:0:
320,160,20181,5,10,0:0:0:0:
267,83,20306,1,0,0:0:0:0:
186,39,20431,1,10,0:0:0:0:
94,36,20556,1,0,0:0:0:0:
480,192,20681,6,0,P|496:304|336:336,1,270.000010299683,4|8,0:0|0:0,0:0:0:0:
256,352,21306,1,0,0:0:0:0:
496,256,21431,2,0,L|416:256,1,67.5000025749208
111,271,21681,2,0,P|47:239|143:191,1,170.999995433807,8|0,0:0|0:0,0:0:0:0:
192,160,22056,1,0,0:0:0:0:
400,160,22181,6,0,L|512:160,1,85.4999977169037,10|0,0:0|0:0,0:0:0:0:
176,80,22431,2,0,L|320:80,1,85.4999977169037,10|0,0:0|0:0,0:0:0:0:
16,144,22681,1,4,0:0:0:0:
432,208,23181,6,0,L|320:208,1,85.4999977169037,8|0,0:0|0:0,0:0:0:0:
160,224,23431,2,0,L|32:224,1,85.4999977169037
432,192,23681,6,0,P|368:128|304:128,1,113.999996955872,8|0,0:0|0:0,0:0:0:0:
176,192,23931,6,0,P|240:128|304:128,1,113.999996955872,2|0,0:0|0:0,0:0:0:0:
416,112,24181,6,0,L|416:16,1,85.4999977169037,10|0,0:0|0:0,0:0:0:0:
208,80,24431,2,0,L|320:80,1,85.4999977169037,10|0,0:0|0:0,0:0:0:0:
48,80,24681,1,4,0:0:0:0:
48,80,25181,5,0,0:0:0:0:
104,143,25306,1,0,0:0:0:0:
126,225,25431,1,0,0:0:0:0:
110,308,25556,1,0,0:0:0:0:
58,375,25681,1,2,0:0:0:0:
352,304,26056,1,0,0:0:0:0:
160,256,26306,1,0,0:0:0:0:
352,240,26556,2,0,L|432:240,1,67.5000025749208,0|2,0:0|0:0,0:0:0:0:
192,192,27181,5,0,0:0:0:0:
176,176,27306,1,0,0:0:0:0:
160,160,27431,1,0,0:0:0:0:
144,144,27556,1,0,0:0:0:0:
304,112,27681,2,0,L|400:112,1,67.5000025749208,2|0,0:0|0:0,0:0:0:0:
272,112,27931,2,0,L|192:112,1,67.5000025749208,2|0,0:0|0:0,0:0:0:0:
352,64,28181,2,0,L|464:64,1,67.5000025749208,2|0,0:0|0:0,0:0:0:0:
208,48,28431,2,0,L|128:48,1,67.5000025749208,2|0,0:0|0:0,0:0:0:0:
432,64,28681,6,0,L|432:288,1,202.500007724762,2|2,0:0|0:0,0:0:0:0:
352,272,29181,6,0,L|256:272,1,67.5000025749208
160,272,29431,2,0,L|256:272,1,67.5000025749208
448,272,29681,6,0,L|448:128,1,135.000005149842,2|0,0:0|0:0,0:0:0:0:
64,208,30181,2,0,L|64:48,1,135.000005149842,2|0,0:0|0:0,0:0:0:0:
480,176,30681,6,0,L|480:352,1,135.000005149842,2|0,0:0|0:0,0:0:0:0:
160,256,31181,6,0,L|160:96,1,135.000005149842,2|0,0:0|0:0,0:0:0:0:
352,144,31556,2,0,L|352:0,1,135.000005149842,2|0,0:0|0:0,0:0:0:0:
96,128,31931,2,0,L|96:304,1,135.000005149842,2|0,0:0|0:0,0:0:0:0:
304,240,32306,2,0,L|464:240,1,135.000005149842,2|0,0:0|0:0,0:0:0:0:
96,192,32681,5,4,0:0:0:0:
304,160,33181,6,0,L|208:160,1,67.5000025749208,2|0,0:0|0:0,0:0:0:0:
480,96,33681,2,0,L|400:96,1,67.5000025749208,2|0,0:0|0:0,0:0:0:0:
144,112,34056,5,0,0:0:0:0:
352,128,34181,2,0,L|448:128,1,67.5000025749208,2|0,0:0|0:0,0:0:0:0:
192,64,34431,2,0,L|112:64,1,67.5000025749208,2|0,0:0|0:0,0:0:0:0:
400,64,34681,2,0,L|416:112,8,33.7500012874604,0|0|0|0|0|0|0|0|2,0:0|0:0|0:0|0:0|0:0|0:0|0:0|0:0|0:0,0:0:0:0:
288,112,35306,5,0,0:0:0:0:
352,160,35431,1,2,0:0:0:0:
224,176,35556,1,0,0:0:0:0:
224,176,35806,5,0,0:0:0:0:
352,160,35931,1,2,0:0:0:0:
288,112,36056,1,0,0:0:0:0:
416,96,36181,1,2,0:0:0:0:
352,48,36306,1,0,0:0:0:0:
64,240,36681,6,0,L|352:240,1,270.000010299683,2|2,0:0|0:0,0:0:0:0:
416,240,37306,5,0,0:0:0:0:
48,224,37681,1,2,0:0:0:0:
128,224,37806,1,0,0:0:0:0:
288,192,38056,5,0,0:0:0:0:
512,192,38181,1,2,0:0:0:0:
304,192,38431,1,0,0:0:0:0:
496,144,38681,6,0,L|400:96,1,67.5000025749208,2|0,0:0|0:0,0:0:0:0:
352,96,38931,2,0,L|240:96,1,67.5000025749208
192,96,39181,5,2,0:0:0:0:
320,96,39306,1,0,0:0:0:0:
192,96,39431,1,2,0:0:0:0:
320,96,39556,1,0,0:0:0:0:
320,96,39806,5,0,0:0:0:0:
192,96,39931,2,0,L|192:192,1,67.5000025749208,2|0,0:0|0:0,0:0:0:0:
320,96,40181,2,0,L|320:176,1,67.5000025749208,2|0,0:0|0:0,0:0:0:0:
128,192,40681,1,4,0:0:0:0:
384,304,41181,5,0,0:0:0:0:
435,261,41306,1,0,0:0:0:0:
459,199,41431,1,0,0:0:0:0:
451,132,41556,1,0,0:0:0:0:
411,78,41681,1,2,0:0:0:0:
224,128,41931,6,0,L|192:64,5,67.5000025749208
336,64,42681,5,6,0:0:0:0:
144,240,43181,6,0,L|144:144,1,67.5000025749208
256,192,43431,2,0,L|256:96,1,67.5000025749208
144,240,43681,2,0,P|224:160|272:144,2,135.000005149842,2|0|0,0:0|0:0|0:0,0:0:0:0:
224,240,44306,1,0,0:0:0:0:
304,224,44431,1,0,0:0:0:0:
384,208,44556,1,0,0:0:0:0:
256,288,44681,5,6,0:0:0:0:
32,256,45181,5,0,0:0:0:0:
29,189,45306,1,0,0:0:0:0:
58,129,45431,1,0,0:0:0:0:
113,90,45556,1,0,0:0:0:0:
179,82,45681,1,2,0:0:0:0:
368,144,45931,5,0,0:0:0:0:
400,96,46056,1,0,0:0:0:0:
368,144,46181,1,0,0:0:0:0:
400,96,46306,1,0,0:0:0:0:
368,144,46431,1,0,0:0:0:0:
400,96,46556,1,0,0:0:0:0:
256,96,46681,5,6,0:0:0:0:
448,272,47181,6,0,L|448:160,1,67.5000025749208
352,192,47431,2,0,L|320:128,1,67.5000025749208,0|0,0:0|0:0,0:0:0:0:
448,160,47681,2,0,L|448:16,1,135.000005149842,2|0,0:0|0:0,0:0:0:0:
304,240,48181,1,2,0:0:0:0:
256,240,48306,1,0,0:0:0:0:
272,192,48431,1,2,0:0:0:0:
224,192,48556,1,2,0:0:0:0:
