osu file format v14

[General]
AudioFilename: audio.mp3
AudioLeadIn: 0
PreviewTime: -1
Countdown: 1
SampleSet: None
StackLeniency: 0.7
Mode: 0
LetterboxInBreaks: 0
WidescreenStoryboard: 0

[Editor]
DistanceSpacing: 0.8
BeatDivisor: 4
GridSize: 32
TimelineZoom: 0.8000001

[Metadata]
Title:besedka
TitleUnicode:besedka
Artist:BadMouse
ArtistUnicode:BadMouse
Creator:goodbro 89320
Version:Hard
Source:VK
Tags:
BeatmapID:1940851
BeatmapSetID:929268

[Difficulty]
HPDrainRate:5
CircleSize:4
OverallDifficulty:5
ApproachRate:9
SliderMultiplier:1.39999990463257
SliderTickRate:1

[Events]
//Background and Video events
0,0,"RBx-XIj6WNk.jpg",0,0
//Break Periods
2,103051,109108
//Storyboard Layer 0 (Background)
//Storyboard Layer 1 (Fail)
//Storyboard Layer 2 (Pass)
//Storyboard Layer 3 (Foreground)
//Storyboard Sound Samples

[TimingPoints]
-5.29784250077945,428.571428571429,4,1,0,100,1,0

[Colours]
Combo1 : 117,149,106
Combo2 : 128,128,128
Combo3 : 128,128,64
Combo4 : 89,99,102

[HitObjects]
211,69,13708,6,0,B|398:123|382:118,1,139.999990463257
423,140,14351,1,0,0:0:0:0:
320,193,14566,2,0,B|186:191|246:193,1,69.9999952316285
243,191,14994,1,0,0:0:0:0:
157,269,15208,2,0,B|117:187|123:196,1,69.9999952316285
124,203,15637,1,0,0:0:0:0:
72,120,15851,1,0,0:0:0:0:
169,82,16066,1,0,0:0:0:0:
272,78,16280,1,0,0:0:0:0:
272,78,16494,2,0,B|329:151|322:142,1,69.9999952316285
321,322,17137,5,0,0:0:0:0:
211,301,17351,1,0,0:0:0:0:
175,195,17566,1,0,0:0:0:0:
175,195,17780,2,0,L|156:97,1,69.9999952316285
260,69,18423,6,0,B|332:69|332:69,1,69.9999952316285
399,68,18851,2,0,L|395:200,1,104.999992847443
391,176,19494,2,0,B|285:246|318:193,1,104.999992847443
260,208,20137,1,0,0:0:0:0:
165,342,20566,2,0,B|55:275|61:201|81:137|121:80|184:41|300:37,1,466.666634877523
382,82,22280,2,0,B|441:171|434:239|409:286|372:317|316:329|272:340|197:357,1,419.999971389771
112,315,23994,2,0,B|74:262|82:208|119:182|200:178|265:211|292:240|261:275|240:321|190:327|187:328|168:337|163:338,1,384.999973773957
151,164,25708,1,0,0:0:0:0:
317,152,26137,1,0,0:0:0:0:
309,254,26566,1,0,0:0:0:0:
302,262,26780,1,0,0:0:0:0:
289,277,26994,5,0,0:0:0:0:
330,164,27423,2,0,P|288:237|285:237,1,69.9999952316285
212,241,27851,2,0,P|215:169|217:168,1,69.9999952316285
241,106,28280,2,0,B|328:114|331:118|333:119,1,69.9999952316285
376,215,28708,2,0,P|328:271|326:271,1,69.9999952316285
195,293,29137,2,0,P|152:233|153:231,1,69.9999952316285
137,163,29566,2,0,P|192:113|194:114,1,69.9999952316285
306,100,29994,2,0,P|362:154|362:156,1,69.9999952316285
390,234,30423,1,0,0:0:0:0:
305,298,30851,5,0,0:0:0:0:
150,251,31066,1,0,0:0:0:0:
255,150,31280,1,0,0:0:0:0:
354,166,31494,1,0,0:0:0:0:
382,215,31708,1,0,0:0:0:0:
296,304,31923,2,0,P|247:251|248:244,1,69.9999952316285
261,153,32351,1,0,0:0:0:0:
231,73,32566,2,0,B|139:68|137:70|137:69,1,69.9999952316285
77,151,32994,2,0,P|82:226|85:228,1,69.9999952316285
199,275,33423,1,0,0:0:0:0:
316,192,33637,1,0,0:0:0:0:
230,109,33851,1,0,0:0:0:0:
314,55,34281,6,0,P|388:98|388:99,1,69.9999952316285
372,130,34709,1,0,0:0:0:0:
354,163,34923,1,0,0:0:0:0:
316,200,35138,1,0,0:0:0:0:
109,235,35351,2,0,L|99:155,1,69.9999952316285
132,67,35780,2,0,L|210:69,1,69.9999952316285
332,86,36208,2,0,P|384:147|385:148,1,69.9999952316285
327,255,36637,1,0,0:0:0:0:
194,286,36851,1,0,0:0:0:0:
201,144,37065,1,0,0:0:0:0:
74,169,37280,1,0,0:0:0:0:
270,69,37708,6,0,L|341:91,1,69.9999952316285
359,173,38137,2,0,P|305:239|301:242,1,69.9999952316285
237,237,38566,1,0,0:0:0:0:
190,206,38780,1,0,0:0:0:0:
161,167,38994,1,0,0:0:0:0:
153,104,39208,1,0,0:0:0:0:
408,76,39423,1,0,0:0:0:0:
354,239,39637,1,0,0:0:0:0:
205,179,39851,1,0,0:0:0:0:
305,115,40066,1,0,0:0:0:0:
210,56,40280,2,0,B|137:74|141:73,1,69.9999952316285
103,144,40708,1,0,0:0:0:0:
217,121,41137,5,0,0:0:0:0:
223,142,41244,1,0,0:0:0:0:
230,173,41351,1,0,0:0:0:0:
234,197,41458,1,0,0:0:0:0:
241,230,41566,2,0,P|250:267|266:308,1,69.9999952316285
263,298,41994,1,0,0:0:0:0:
335,250,42208,1,0,0:0:0:0:
365,179,42423,1,0,0:0:0:0:
264,126,42637,1,0,0:0:0:0:
219,72,42851,2,0,B|110:95|44:120|41:302|199:353,1,419.999971389771
300,164,44566,5,0,0:0:0:0:
302,186,44673,1,0,0:0:0:0:
306,215,44780,1,0,0:0:0:0:
303,240,44887,1,0,0:0:0:0:
283,266,44995,2,0,L|192:246,1,69.9999952316285
144,195,45423,1,0,0:0:0:0:
238,97,45851,1,0,0:0:0:0:
366,122,46066,1,0,0:0:0:0:
337,272,46280,2,0,L|215:265,1,104.999992847443
163,258,46708,2,0,L|159:149,1,104.999992847443
176,69,47137,2,0,L|299:68,1,104.999992847443
352,124,47673,1,0,0:0:0:0:
112,133,47993,5,0,0:0:0:0:
128,268,48208,1,0,0:0:0:0:
272,229,48422,1,0,0:0:0:0:
103,91,48851,2,0,L|190:93,1,69.9999952316285
202,108,49280,1,0,0:0:0:0:
368,124,49708,2,0,L|370:198,1,69.9999952316285
254,248,50137,1,0,0:0:0:0:
268,109,50351,1,0,0:0:0:0:
129,145,50566,1,0,0:0:0:0:
309,237,50994,5,0,0:0:0:0:
94,318,51423,2,0,P|94:262|94:262,4,34.9999976158143
97,224,52066,1,0,0:0:0:0:
192,220,52280,1,0,0:0:0:0:
99,71,52494,2,0,L|186:70,1,69.9999952316285
271,75,52923,2,0,B|356:90|403:138|408:189|385:254|351:288|274:328|262:309,1,349.999976158143
74,115,54209,5,0,0:0:0:0:
148,220,54423,1,0,0:0:0:0:
241,101,54637,1,0,0:0:0:0:
326,212,54851,1,0,0:0:0:0:
95,95,55066,6,0,L|94:174,1,69.9999952316285
95,224,55494,2,0,L|188:224,1,69.9999952316285
241,225,55923,2,0,L|240:135,1,69.9999952316285
340,99,56351,1,0,0:0:0:0:
368,224,56566,1,0,0:0:0:0:
205,210,56780,1,0,0:0:0:0:
172,138,56994,1,0,0:0:0:0:
72,220,57423,1,0,0:0:0:0:
83,269,57637,5,0,0:0:0:0:
105,309,57851,1,0,0:0:0:0:
121,326,58066,1,0,0:0:0:0:
210,295,58280,2,0,L|257:234,1,69.9999952316285
232,157,58708,1,0,0:0:0:0:
88,162,58923,1,0,0:0:0:0:
170,68,59137,1,0,0:0:0:0:
307,76,59351,1,0,0:0:0:0:
226,188,59566,1,0,0:0:0:0:
349,273,59780,1,0,0:0:0:0:
207,326,59994,1,0,0:0:0:0:
109,260,60209,1,0,0:0:0:0:
160,133,60423,5,0,0:0:0:0:
265,92,60637,2,0,L|335:93,3,69.9999952316285
399,184,61494,2,0,L|336:250,1,69.9999952316285
348,240,61923,1,0,0:0:0:0:
259,262,62137,1,0,0:0:0:0:
154,249,62351,1,0,0:0:0:0:
101,193,62566,1,0,0:0:0:0:
90,124,62780,1,0,0:0:0:0:
161,84,62994,1,0,0:0:0:0:
233,119,63208,1,0,0:0:0:0:
374,173,63423,5,0,0:0:0:0:
361,269,63637,1,0,0:0:0:0:
254,284,63851,1,0,0:0:0:0:
143,257,64066,1,0,0:0:0:0:
125,168,64280,1,0,0:0:0:0:
195,100,64494,1,0,0:0:0:0:
297,131,64708,1,0,0:0:0:0:
403,183,64923,1,0,0:0:0:0:
330,263,65137,2,0,L|295:269,16,34.9999976158143
256,192,66958,12,0,68244,0:0:0:0:
103,113,68566,6,0,L|250:113,1,139.999990463257
301,289,69423,1,0,0:0:0:0:
301,289,69851,2,0,L|132:294,1,139.999990463257
82,252,70494,1,0,0:0:0:0:
77,171,70708,1,0,0:0:0:0:
139,108,70923,1,0,0:0:0:0:
243,108,71137,1,0,0:0:0:0:
343,140,71351,2,0,P|348:255|348:255,3,69.9999952316285
228,250,72208,1,0,0:0:0:0:
125,242,72423,1,0,0:0:0:0:
117,122,72637,1,0,0:0:0:0:
180,100,72851,1,0,0:0:0:0:
237,95,73066,1,0,0:0:0:0:
333,121,73280,2,0,L|338:264,1,139.999990463257
304,306,73923,1,0,0:0:0:0:
181,281,74137,1,0,0:0:0:0:
239,160,74351,1,0,0:0:0:0:
108,166,74566,1,0,0:0:0:0:
185,60,74780,1,0,0:0:0:0:
383,100,74994,5,0,0:0:0:0:
385,220,75208,1,0,0:0:0:0:
387,334,75423,2,0,L|237:336,1,139.999990463257
196,318,76066,1,0,0:0:0:0:
131,231,76280,1,0,0:0:0:0:
242,160,76494,1,0,0:0:0:0:
117,127,76708,1,0,0:0:0:0:
218,63,76923,1,0,0:0:0:0:
356,71,77137,2,0,L|369:240,1,139.999990463257
294,258,77780,1,0,0:0:0:0:
176,193,77994,1,0,0:0:0:0:
278,111,78208,1,0,0:0:0:0:
132,67,78423,2,0,P|67:197|68:195,1,139.999990463257
63,237,79066,1,0,0:0:0:0:
188,88,79280,6,0,L|183:169,1,69.9999952316285
177,237,79708,2,0,L|261:244,1,69.9999952316285
321,253,80137,2,0,L|325:172,1,69.9999952316285
304,87,80566,2,0,L|383:87,1,69.9999952316285
444,164,80994,1,0,0:0:0:0:
407,248,81208,1,0,0:0:0:0:
284,267,81423,2,0,L|206:267,3,69.9999952316285
157,120,82280,1,0,0:0:0:0:
290,119,82494,1,0,0:0:0:0:
291,269,82708,1,0,0:0:0:0:
154,268,82923,1,0,0:0:0:0:
154,268,83137,1,0,0:0:0:0:
212,194,83351,1,0,0:0:0:0:
415,88,83566,5,0,0:0:0:0:
417,209,83780,1,0,0:0:0:0:
420,335,83994,1,0,0:0:0:0:
420,335,84208,2,0,L|321:337,1,69.9999952316285
196,340,84636,1,0,0:0:0:0:
62,338,84851,1,0,0:0:0:0:
120,239,85066,2,0,L|123:162,1,69.9999952316285
168,97,85494,1,0,0:0:0:0:
283,84,85708,1,0,0:0:0:0:
351,182,85923,1,0,0:0:0:0:
289,298,86137,6,0,L|203:299,1,69.9999952316285
117,300,86566,2,0,L|117:226,1,69.9999952316285
146,138,86994,1,0,0:0:0:0:
203,110,87208,1,0,0:0:0:0:
383,111,87423,1,0,0:0:0:0:
415,161,87637,1,0,0:0:0:0:
357,291,87851,1,0,0:0:0:0:
303,300,88066,1,0,0:0:0:0:
135,218,88280,2,0,L|133:146,1,69.9999952316285
250,140,88708,2,0,L|252:219,1,69.9999952316285
236,311,89137,5,0,0:0:0:0:
352,282,89351,1,0,0:0:0:0:
391,159,89566,1,0,0:0:0:0:
305,110,89780,2,0,L|208:113,1,69.9999952316285
128,135,90208,1,0,0:0:0:0:
111,244,90423,1,0,0:0:0:0:
195,291,90637,1,0,0:0:0:0:
288,224,90851,1,0,0:0:0:0:
405,177,91066,2,0,L|378:98,1,69.9999952316285
305,82,91494,1,0,0:0:0:0:
173,100,91708,1,0,0:0:0:0:
94,258,91923,5,0,0:0:0:0:
200,160,92137,1,0,0:0:0:0:
234,307,92351,1,0,0:0:0:0:
332,188,92566,1,0,0:0:0:0:
348,320,92780,1,0,0:0:0:0:
449,244,92994,1,0,0:0:0:0:
401,126,93208,1,0,0:0:0:0:
266,209,93423,1,0,0:0:0:0:
272,98,93637,2,0,L|188:91,1,69.9999952316285
126,117,94066,2,0,L|68:183,1,69.9999952316285
160,238,94494,6,0,L|156:326,1,69.9999952316285
346,320,94923,2,0,L|342:235,1,69.9999952316285
274,157,95351,2,0,L|199:155,2,69.9999952316285
126,62,95994,2,0,B|68:122|61:197|70:260|123:285|192:304|272:295|339:283,1,419.999971389771
248,173,97494,1,0,0:0:0:0:
349,98,97708,1,0,0:0:0:0:
434,214,97923,1,0,0:0:0:0:
289,307,98137,1,0,0:0:0:0:
289,307,98351,2,0,L|194:303,1,69.9999952316285
124,258,98780,1,0,0:0:0:0:
129,148,98994,1,0,0:0:0:0:
221,68,99208,6,0,L|281:105,1,69.9999952316285
390,62,99637,2,0,L|452:117,1,69.9999952316285
450,220,100066,2,0,L|356:253,1,69.9999952316285
231,265,100494,1,0,0:0:0:0:
189,300,100709,1,0,0:0:0:0:
66,220,100923,1,0,0:0:0:0:
88,167,101137,1,0,0:0:0:0:
158,81,101351,2,0,L|244:82,1,69.9999952316285
303,128,101780,1,0,0:0:0:0:
350,224,101994,1,0,0:0:0:0:
101,121,102208,2,0,L|90:209,1,69.9999952316285
237,118,102637,2,0,L|235:200,1,69.9999952316285
361,107,109708,5,0,0:0:0:0:
362,186,109923,1,0,0:0:0:0:
365,278,110137,1,0,0:0:0:0:
239,281,110566,1,0,0:0:0:0:
150,175,110994,1,0,0:0:0:0:
181,126,111101,1,0,0:0:0:0:
221,119,111208,1,0,0:0:0:0:
265,122,111316,1,0,0:0:0:0:
303,142,111423,1,0,0:0:0:0:
334,178,111530,1,0,0:0:0:0:
348,235,111637,1,0,0:0:0:0:
312,286,111744,1,0,0:0:0:0:
250,287,111851,1,0,0:0:0:0:
192,281,111958,1,0,0:0:0:0:
107,278,112066,1,0,0:0:0:0:
107,278,112280,2,0,L|106:193,1,69.9999952316285
97,116,112708,2,0,L|240:101,1,139.999990463257
236,101,113244,1,0,0:0:0:0:
242,106,113351,2,0,L|287:106,4,34.9999976158143
124,115,113994,5,0,0:0:0:0:
95,217,114208,1,0,0:0:0:0:
159,304,114423,1,0,0:0:0:0:
263,275,114637,1,0,0:0:0:0:
350,215,114851,2,0,L|388:105,1,104.999992847443
286,93,115494,2,0,L|137:93,1,139.999990463257
86,153,116244,2,0,L|83:300,1,139.999990463257
181,303,116887,2,0,L|275:304,3,69.9999952316285
328,247,117744,1,0,0:0:0:0:
316,166,117958,1,0,0:0:0:0:
183,173,118173,1,0,0:0:0:0:
206,113,118387,1,0,0:0:0:0:
233,42,118601,2,0,L|339:63,1,104.999992847443
448,109,119137,2,0,B|457:200|437:287|365:319|270:331|53:340|71:334,1,489.999966621399
145,250,120851,2,0,B|475:132|455:219|383:251|288:263|222:82|143:156,1,524.999964237214
90,78,122673,2,0,B|178:63|246:109|220:202|163:273|66:258|43:178|37:104|49:104,1,384.999973773957
226,95,124280,5,0,0:0:0:0:
318,131,124494,2,0,L|317:209,1,69.9999952316285
249,269,124923,1,0,0:0:0:0:
155,277,125137,1,0,0:0:0:0:
78,215,125351,1,0,0:0:0:0:
135,93,125566,1,0,0:0:0:0:
269,197,125780,1,0,0:0:0:0:
314,78,125994,1,0,0:0:0:0:
423,157,126208,2,0,L|417:246,1,69.9999952316285
362,284,126637,1,0,0:0:0:0:
263,142,126851,5,0,0:0:0:0:
246,176,126958,1,0,0:0:0:0:
223,198,127066,1,0,0:0:0:0:
194,234,127173,1,0,0:0:0:0:
171,257,127280,1,0,0:0:0:0:
152,272,127387,1,0,0:0:0:0:
121,180,127708,2,0,L|173:125,1,69.9999952316285
302,107,128137,2,0,L|357:168,1,69.9999952316285
339,249,128566,1,0,0:0:0:0:
203,325,128780,1,0,0:0:0:0:
234,171,128994,1,0,0:0:0:0:
101,240,129208,1,0,0:0:0:0:
86,128,129423,2,0,L|155:91,1,69.9999952316285
259,73,129851,2,0,L|352:96,1,69.9999952316285
110,182,130280,5,0,0:0:0:0:
111,232,130494,1,0,0:0:0:0:
112,271,130708,1,0,0:0:0:0:
85,113,131137,2,0,B|234:104|233:104,1,139.999990463257
224,104,131780,1,0,0:0:0:0:
396,112,131994,2,0,L|359:247,1,139.999990463257
228,273,132637,1,0,0:0:0:0:
139,262,132851,1,0,0:0:0:0:
105,176,133066,1,0,0:0:0:0:
128,97,133280,2,0,L|211:82,1,69.9999952316285
342,97,133708,5,0,0:0:0:0:
340,142,133816,1,0,0:0:0:0:
341,175,133923,1,0,0:0:0:0:
336,201,134030,1,0,0:0:0:0:
336,241,134137,1,0,0:0:0:0:
248,295,134351,1,0,0:0:0:0:
146,211,134566,1,0,0:0:0:0:
88,133,134780,2,0,L|154:75,1,69.9999952316285
246,71,135208,2,0,L|322:100,1,69.9999952316285
311,95,135637,1,0,0:0:0:0:
360,155,135851,1,0,0:0:0:0:
366,201,136066,1,0,0:0:0:0:
268,300,136280,1,0,0:0:0:0:
167,188,136494,1,0,0:0:0:0:
92,303,136708,1,0,0:0:0:0:
54,184,136923,1,0,0:0:0:0:
138,62,137137,1,0,0:0:0:0:
256,192,137458,12,0,143137,0:0:0:0:
