osu file format v14

[General]
AudioFilename: audio.mp3
AudioLeadIn: 0
PreviewTime: 152899
Countdown: 0
SampleSet: Soft
StackLeniency: 0.7
Mode: 3
LetterboxInBreaks: 0
SpecialStyle: 0
WidescreenStoryboard: 1
SamplesMatchPlaybackRate: 1

[Editor]
Bookmarks: 438,3720,11220,18720,33720,48720,56220,63720,78720,93720,108720,123720,138720,153720,183720,198720,209970
DistanceSpacing: 0.8
BeatDivisor: 4
GridSize: 32
TimelineZoom: 1.5

[Metadata]
Title:Chasing Clouds
TitleUnicode:Chasing Clouds
Artist:Bad Computer & Danyka Nadeau
ArtistUnicode:Bad Computer & Danyka Nadeau
Creator:AverageBoi
Version:Normal
Source:
Tags:english electronic dance progressive future french house single mcs1015 monstercat instinct vol. 6 roblox rocket league 2020
BeatmapID:4006514
BeatmapSetID:1938132

[Difficulty]
HPDrainRate:7
CircleSize:4
OverallDifficulty:7
ApproachRate:5
SliderMultiplier:1.4
SliderTickRate:1

[Events]
//Background and Video events
0,0,"chasing.jpg",0,0
//Break Periods
//Storyboard Layer 0 (Background)
//Storyboard Layer 1 (Fail)
//Storyboard Layer 2 (Pass)
//Storyboard Layer 3 (Foreground)
//Storyboard Layer 4 (Overlay)
//Storyboard Sound Samples
Sample,34188,0,"snare-predrop-low_pass.wav",20
Sample,35126,0,"snare-predrop-low_pass.wav",30
Sample,36063,0,"snare-predrop-low_pass.wav",40
Sample,37001,0,"snare-predrop-low_pass.wav",50
Sample,37470,0,"cowbell-low_pass_2.wav",50
Sample,37938,0,"snare-predrop-low_pass.wav",50
Sample,38407,0,"cowbell-low_pass_2.wav",70
Sample,38876,0,"snare-predrop-low_pass.wav",60
Sample,39345,0,"cowbell-low_pass_1.wav",70
Sample,39813,0,"snare-predrop-low_pass.wav",70
Sample,40282,0,"cowbell.wav",70
Sample,40751,0,"snare-predrop-low_pass.wav",80
Sample,41220,0,"cowbell-high_pass_1.wav",70
Sample,41688,0,"snare-predrop-high_pass.wav",40
Sample,42157,0,"cowbell-high_pass_1.wav",80
Sample,42626,0,"snare-predrop-high_pass.wav",40
Sample,43095,0,"cowbell-high_pass_2.wav",70
Sample,43563,0,"snare-predrop-high_pass.wav",50
Sample,44032,0,"cowbell-high_pass_2.wav",80
Sample,44501,0,"snare-predrop-high_pass.wav",60
Sample,44970,0,"cowbell-high_pass_2.wav",70
Sample,45438,0,"snare-predrop-high_pass.wav",60
Sample,45907,0,"cowbell-high_pass_2.wav",70
Sample,52938,0,"snare-drop.wav",90
Sample,53876,0,"snare-drop.wav",90
Sample,54813,0,"snare-drop.wav",90
Sample,60438,0,"snare-drop.wav",90
Sample,61376,0,"snare-drop.wav",90
Sample,67938,0,"snare-drop.wav",90
Sample,68876,0,"snare-drop.wav",90
Sample,69813,0,"snare-drop.wav",90
Sample,75438,0,"snare-drop.wav",90
Sample,76376,0,"snare-drop.wav",90
Sample,77313,0,"snare-drop.wav",90
Sample,112470,0,"LR_NBell_D#5.wav",40
Sample,119970,0,"LR_NBell_D#5.wav",40
Sample,126063,0,"vibraphone4_C#6.wav",80
Sample,127001,0,"vibraphone6_G#5.wav",80
Sample,130751,0,"vibraphone2_F5.wav",80
Sample,133563,0,"vibraphone4_C#6.wav",80
Sample,134501,0,"vibraphone6_G#5.wav",80
Sample,136376,0,"vibraphone1_C6.wav",80
Sample,139188,0,"snare-predrop-low_pass.wav",20
Sample,140126,0,"snare-predrop-low_pass.wav",30
Sample,141063,0,"snare-predrop-low_pass.wav",40
Sample,142001,0,"snare-predrop-low_pass.wav",20
Sample,142470,0,"cowbell-low_pass_2.wav",50
Sample,142938,0,"snare-predrop-low_pass.wav",50
Sample,143407,0,"cowbell-low_pass_2.wav",70
Sample,143876,0,"snare-predrop-low_pass.wav",50
Sample,144345,0,"cowbell-low_pass_1.wav",70
Sample,144813,0,"snare-predrop-low_pass.wav",70
Sample,145282,0,"cowbell.wav",70
Sample,145751,0,"snare-predrop-low_pass.wav",70
Sample,146220,0,"cowbell-high_pass_1.wav",70
Sample,146688,0,"snare-predrop-high_pass.wav",40
Sample,147157,0,"cowbell-high_pass_1.wav",80
Sample,147626,0,"snare-predrop-high_pass.wav",40
Sample,148095,0,"cowbell-high_pass_2.wav",70
Sample,148563,0,"snare-predrop-high_pass.wav",50
Sample,149032,0,"cowbell-high_pass_2.wav",80
Sample,149501,0,"snare-predrop-high_pass.wav",60
Sample,149970,0,"cowbell-high_pass_2.wav",70
Sample,150438,0,"snare-predrop-high_pass.wav",60
Sample,150907,0,"cowbell-high_pass_2.wav",70
Sample,157938,0,"snare-drop.wav",90
Sample,158876,0,"snare-drop.wav",90
Sample,159813,0,"snare-drop.wav",90
Sample,165438,0,"snare-drop.wav",90
Sample,166376,0,"snare-drop.wav",90
Sample,172938,0,"snare-drop.wav",90
Sample,173876,0,"snare-drop.wav",90
Sample,174813,0,"snare-drop.wav",90
Sample,180438,0,"snare-drop.wav",90
Sample,181376,0,"snare-drop.wav",90
Sample,187938,0,"snare-drop.wav",90
Sample,188876,0,"snare-drop.wav",90
Sample,189813,0,"snare-drop.wav",90
Sample,195438,0,"snare-drop.wav",90
Sample,196376,0,"snare-drop.wav",90
Sample,202938,0,"snare-drop.wav",90
Sample,203876,0,"snare-drop.wav",90
Sample,204813,0,"snare-drop.wav",90

[TimingPoints]
-30,468.75,4,2,1,30,1,0
48720,-100,4,2,1,30,0,1
78251,-100,4,2,1,30,0,0
153720,-100,4,2,1,30,0,1
183251,-100,4,2,1,30,0,0
183720,-100,4,2,1,30,0,1
209501,-100,4,2,1,30,0,0

[HitObjects]
320,192,3720,128,0,3954:0:0:0:0:
320,192,4188,128,0,4540:0:0:0:0:
192,192,4540,1,0,0:0:0:0:
448,192,4774,128,0,5048:0:0:0:0:
320,192,5048,1,0,0:0:0:0:
64,192,5438,128,0,6063:0:0:0:0:
320,192,6532,128,0,6884:0:0:0:0:
64,192,6884,1,0,0:0:0:0:
192,192,7118,1,0,0:0:0:0:
320,192,7352,1,0,0:0:0:0:
448,192,7587,128,0,7938:0:0:0:0:
192,192,7938,1,0,0:0:0:0:
64,192,8212,128,0,9110:0:0:0:0:
192,192,11220,1,0,0:0:0:0:
64,192,11571,1,0,0:0:0:0:
320,192,11688,1,0,0:0:0:0:
448,192,12040,1,0,0:0:0:0:
192,192,12235,1,0,0:0:0:0:
320,192,12509,1,0,0:0:0:0:
64,192,12704,128,0,13485:0:0:0:0:
64,192,13798,1,0,0:0:0:0:
192,192,14032,1,0,0:0:0:0:
320,192,14266,1,0,0:0:0:0:
192,192,14423,1,0,0:0:0:0:
320,192,14735,1,0,0:0:0:0:
448,192,15048,128,0,15438:0:0:0:0:
192,192,15438,128,0,15907:0:0:0:0:
64,192,15907,128,0,16376:0:0:0:0:
320,192,16376,1,0,0:0:0:0:
192,192,16610,128,0,17079:0:0:0:0:
448,192,17079,1,0,0:0:0:0:
64,192,18016,1,0,0:0:0:0:
192,192,18251,1,0,0:0:0:0:
320,192,18485,1,0,0:0:0:0:
448,192,18720,128,0,19188:0:0:0:0:
192,192,19188,1,0,0:0:0:80:snap_back.wav
320,192,19423,1,0,0:0:0:0:
64,192,19540,1,0,0:0:0:0:
192,192,19657,1,0,0:0:0:0:
320,192,19891,1,0,0:0:0:0:
448,192,20126,128,0,20595:0:0:0:80:snap_back.wav
192,192,20829,1,0,0:0:0:0:
320,192,21063,1,0,0:0:0:80:snap_back.wav
192,192,21180,1,0,0:0:0:0:
448,192,21532,1,0,0:0:0:0:
448,192,21766,1,0,0:0:0:0:
64,192,22001,1,0,0:0:0:80:snap_back.wav
320,192,22235,1,0,0:0:0:0:
192,192,22352,1,0,0:0:0:0:
64,192,22470,128,0,22938:0:0:0:0:
320,192,22938,1,0,0:0:0:80:snap_back.wav
192,192,23173,1,0,0:0:0:0:
320,192,23290,1,0,0:0:0:0:
448,192,23407,1,0,0:0:0:0:
64,192,23641,1,0,0:0:0:0:
192,192,23876,1,0,0:0:0:80:snap_back.wav
448,192,24110,1,0,0:0:0:0:
320,192,24227,1,0,0:0:0:0:
192,192,24345,128,0,24813:0:0:0:0:
320,192,24579,1,0,0:0:0:0:
64,192,24813,1,0,0:0:0:80:snap_back.wav
320,192,24930,1,0,0:0:0:0:
448,192,25048,1,0,0:0:0:0:
192,192,25282,1,0,0:0:0:0:
320,192,25516,1,0,0:0:0:0:
64,192,25751,1,0,0:0:0:80:snap_back.wav
192,192,25985,1,0,0:0:0:0:
448,192,26220,128,0,26688:0:0:0:0:
192,192,26688,1,0,0:0:0:80:snap_back.wav
320,192,26923,1,0,0:0:0:0:
64,192,27040,1,0,0:0:0:0:
192,192,27157,1,0,0:0:0:0:
320,192,27391,1,0,0:0:0:0:
448,192,27626,128,0,28329:0:0:0:80:snap_back.wav
320,192,27860,128,0,28329:0:0:0:0:
64,192,28329,1,0,0:0:0:0:
320,192,28563,1,0,0:0:0:80:snap_back.wav
192,192,28680,1,0,0:0:0:0:
448,192,29032,1,0,0:0:0:0:
448,192,29266,1,0,0:0:0:0:
320,192,29501,1,0,0:0:0:80:snap_back.wav
192,192,29735,1,0,0:0:0:0:
64,192,29970,128,0,30321:0:0:0:0:
320,192,30321,1,0,0:0:0:0:
192,192,30438,1,0,0:0:0:80:snap_back.wav
320,192,30673,1,0,0:0:0:0:
448,192,30907,1,0,0:0:0:0:
64,192,31141,1,0,0:0:0:0:
192,192,31376,1,0,0:0:0:80:snap_back.wav
320,192,31610,1,0,0:0:0:0:
192,192,31845,128,0,32313:0:0:0:0:
448,192,32079,1,0,0:0:0:0:
64,192,32313,1,0,0:0:0:80:snap_back.wav
320,192,32430,1,0,0:0:0:0:
192,192,32782,1,0,0:0:0:0:
64,192,33251,1,0,0:0:0:80:punch_the_snare.wav
448,192,33251,1,0,0:0:0:70:noise_crash.wav
64,192,33720,128,0,33954:0:0:0:30:future_bass_kick-low_pass_1.wav
192,192,34188,128,0,34423:0:0:0:30:future_bass_kick-low_pass_1.wav
448,192,34657,128,0,35126:0:0:0:40:future_bass_kick-low_pass_1.wav
320,192,34891,128,0,35126:0:0:0:0:
192,192,35126,128,0,35360:0:0:0:40:future_bass_kick-low_pass_1.wav
64,192,35360,128,0,35595:0:0:0:0:
448,192,35595,128,0,35829:0:0:0:50:future_bass_kick-low_pass_1.wav
320,192,36063,128,0,36298:0:0:0:50:future_bass_kick-low_pass_1.wav
64,192,36532,128,0,37001:0:0:0:60:future_bass_kick-low_pass_1.wav
192,192,36766,128,0,37001:0:0:0:60:clap-low_pass.wav
320,192,37001,128,0,37470:0:0:0:60:future_bass_kick-low_pass_1.wav
448,192,37235,128,0,37470:0:0:0:0:
192,192,37470,128,0,37704:0:0:0:50:future_bass_kick-low_pass_2.wav
64,192,37938,128,0,38173:0:0:0:60:future_bass_kick-low_pass_2.wav
448,192,38407,128,0,38876:0:0:0:70:future_bass_kick-low_pass_2.wav
64,192,38641,128,0,38876:0:0:0:0:
192,192,38876,128,0,39110:0:0:0:70:future_bass_kick-low_pass_2.wav
320,192,39110,128,0,39345:0:0:0:0:
448,192,39345,128,0,39579:0:0:0:70:future_bass_kick-low_pass_2.wav
192,192,39813,128,0,40048:0:0:0:70:future_bass_kick-low_pass_2.wav
64,192,40282,128,0,40751:0:0:0:70:future_bass_kick-low_pass_2.wav
448,192,40516,128,0,40751:0:0:0:70:clap-low_pass.wav
320,192,40751,128,0,40985:0:0:0:70:future_bass_kick-low_pass_2.wav
192,192,40985,128,0,41220:0:0:0:0:
64,192,41220,128,0,41454:0:0:0:60:future_bass_kick-high_pass_1.wav
192,192,41688,128,0,41923:0:0:0:60:future_bass_kick-high_pass_1.wav
448,192,42157,128,0,42626:0:0:0:60:future_bass_kick-high_pass_1.wav
320,192,42391,128,0,42626:0:0:0:0:
192,192,42626,128,0,42860:0:0:0:70:future_bass_kick-high_pass_1.wav
64,192,42860,128,0,43095:0:0:0:0:
448,192,43095,128,0,43329:0:0:0:70:future_bass_kick-high_pass_1.wav
320,192,43563,128,0,43798:0:0:0:70:future_bass_kick-high_pass_1.wav
64,192,44032,128,0,44266:0:0:0:70:future_bass_kick-high_pass_1.wav
192,192,44266,128,0,44501:0:0:0:60:clap-high_pass.wav
320,192,44501,128,0,44970:0:0:0:70:future_bass_kick-high_pass_1.wav
448,192,44735,128,0,44970:0:0:0:0:
192,192,44970,128,0,45204:0:0:0:60:future_bass_kick-high_pass_2.wav
64,192,45438,128,0,45673:0:0:0:60:future_bass_kick-high_pass_2.wav
448,192,45907,128,0,46376:0:0:0:60:future_bass_kick-high_pass_2.wav
64,192,46141,128,0,46376:0:0:0:0:
320,192,46376,128,0,46610:0:0:0:70:clap.wav
192,192,46610,128,0,46845:0:0:0:0:
448,192,46845,128,0,47079:0:0:0:70:clap.wav
192,192,47079,128,0,47313:0:0:0:0:
64,192,47313,128,0,47548:0:0:0:70:clap.wav
320,192,47548,128,0,47782:0:0:0:0:
192,192,47782,128,0,48016:0:0:0:70:clap.wav
448,192,48016,128,0,48251:0:0:0:0:
320,192,48251,1,0,0:0:0:30:noise_crash.wav
64,192,48720,128,0,49188:0:0:0:80:future_bass_kick.wav
448,192,48720,128,0,49188:0:0:0:0:
192,192,49188,1,0,0:0:0:80:future_bass_kick.wav
320,192,49188,1,0,0:0:0:90:snare-drop.wav
320,192,49579,1,0,0:0:0:0:
64,192,49657,1,0,0:0:0:80:future_bass_kick.wav
192,192,49657,1,0,0:0:0:0:
192,192,50126,128,0,50595:0:0:0:80:future_bass_kick.wav
320,192,50126,128,0,50595:0:0:0:90:snare-drop.wav
64,192,50595,1,0,0:0:0:80:future_bass_kick.wav
448,192,50595,1,0,0:0:0:0:
192,192,50829,1,0,0:0:0:0:
320,192,51063,1,0,0:0:0:80:future_bass_kick.wav
448,192,51063,1,0,0:0:0:90:snare-drop.wav
192,192,51220,1,0,0:0:0:0:
64,192,51532,128,0,52001:0:0:0:80:future_bass_kick.wav
448,192,51532,128,0,52001:0:0:0:0:
192,192,52001,1,0,0:0:0:80:future_bass_kick.wav
320,192,52001,1,0,0:0:0:90:snare-drop.wav
192,192,52235,1,0,0:0:0:0:
64,192,52470,1,0,0:0:0:80:future_bass_kick.wav
448,192,52470,1,0,0:0:0:0:
192,192,52938,1,0,0:0:0:80:future_bass_kick.wav
320,192,53173,1,0,0:0:0:60:snare-drop_2.wav
448,192,53173,1,0,0:0:0:0:
64,192,53407,1,0,0:0:0:80:future_bass_kick.wav
192,192,53641,1,0,0:0:0:30:snare-drop_2.wav
64,192,53876,1,0,0:0:0:80:future_bass_kick.wav
320,192,54110,1,0,0:0:0:60:snare-drop_2.wav
448,192,54110,1,0,0:0:0:0:
64,192,54345,1,0,0:0:0:80:future_bass_kick.wav
192,192,54345,1,0,0:0:0:0:
320,192,54579,1,0,0:0:0:0:
448,192,54813,1,0,0:0:0:80:future_bass_kick.wav
64,192,55048,1,0,0:0:0:60:snare-drop_2.wav
192,192,55048,1,0,0:0:0:0:
320,192,55282,1,0,0:0:0:80:future_bass_kick.wav
64,192,55516,1,0,0:0:0:30:snare-drop_2.wav
192,192,55751,1,0,0:0:0:80:future_bass_kick.wav
448,192,55751,1,0,0:0:0:90:snare-drop.wav
64,192,56220,128,0,56688:0:0:0:80:future_bass_kick.wav
448,192,56220,128,0,56688:0:0:0:0:
192,192,56688,1,0,0:0:0:80:future_bass_kick.wav
320,192,56688,1,0,0:0:0:90:snare-drop.wav
192,192,57079,1,0,0:0:0:0:
64,192,57157,1,0,0:0:0:80:future_bass_kick.wav
320,192,57157,1,0,0:0:0:0:
192,192,57626,128,0,58095:0:0:0:80:future_bass_kick.wav
320,192,57626,128,0,58095:0:0:0:90:snare-drop.wav
64,192,58095,1,0,0:0:0:80:future_bass_kick.wav
448,192,58095,1,0,0:0:0:0:
320,192,58329,1,0,0:0:0:0:
192,192,58563,1,0,0:0:0:80:future_bass_kick.wav
448,192,58563,1,0,0:0:0:90:snare-drop.wav
64,192,58720,1,0,0:0:0:0:
64,192,59032,128,0,59501:0:0:0:80:future_bass_kick.wav
448,192,59032,128,0,59501:0:0:0:0:
192,192,59501,1,0,0:0:0:80:future_bass_kick.wav
320,192,59501,1,0,0:0:0:90:snare-drop.wav
192,192,59735,1,0,0:0:0:0:
64,192,59970,1,0,0:0:0:80:future_bass_kick.wav
448,192,59970,1,0,0:0:0:0:
192,192,60438,1,0,0:0:0:80:future_bass_kick.wav
320,192,60673,1,0,0:0:0:60:snare-drop_2.wav
448,192,60673,1,0,0:0:0:0:
64,192,60907,1,0,0:0:0:80:future_bass_kick.wav
192,192,61141,1,0,0:0:0:30:snare-drop_2.wav
64,192,61376,1,0,0:0:0:80:future_bass_kick.wav
320,192,61610,1,0,0:0:0:60:snare-drop_2.wav
448,192,61610,1,0,0:0:0:0:
64,192,61845,1,0,0:0:0:80:future_bass_kick.wav
192,192,61845,128,0,62313:0:0:0:0:
64,192,62079,128,0,62313:0:0:0:0:
320,192,62313,128,0,62782:0:0:0:80:future_bass_kick.wav
448,192,62313,1,0,0:0:0:90:snare-drop.wav
448,192,62548,128,0,62782:0:0:0:60:snare-drop_2.wav
64,192,62782,1,0,0:0:0:80:future_bass_kick.wav
192,192,62782,1,0,0:0:0:0:
320,192,63016,1,0,0:0:0:30:snare-drop_2.wav
64,192,63251,1,0,0:0:0:80:future_bass_kick.wav
448,192,63251,1,0,0:0:0:90:snare-drop.wav
64,192,63720,128,0,64188:0:0:0:80:future_bass_kick.wav
448,192,63720,128,0,64188:0:0:0:0:
192,192,64188,1,0,0:0:0:80:future_bass_kick.wav
320,192,64188,1,0,0:0:0:90:snare-drop.wav
192,192,64579,1,0,0:0:0:0:
320,192,64657,1,0,0:0:0:80:future_bass_kick.wav
448,192,64657,1,0,0:0:0:0:
192,192,65126,128,0,65595:0:0:0:80:future_bass_kick.wav
320,192,65126,128,0,65595:0:0:0:90:snare-drop.wav
64,192,65595,1,0,0:0:0:80:future_bass_kick.wav
448,192,65595,1,0,0:0:0:0:
320,192,65829,1,0,0:0:0:0:
64,192,66063,1,0,0:0:0:80:future_bass_kick.wav
192,192,66063,1,0,0:0:0:90:snare-drop.wav
320,192,66220,1,0,0:0:0:0:
64,192,66532,128,0,67001:0:0:0:80:future_bass_kick.wav
448,192,66532,128,0,67001:0:0:0:0:
192,192,67001,1,0,0:0:0:80:future_bass_kick.wav
320,192,67001,1,0,0:0:0:90:snare-drop.wav
320,192,67235,1,0,0:0:0:0:
64,192,67470,1,0,0:0:0:80:future_bass_kick.wav
448,192,67470,1,0,0:0:0:0:
320,192,67938,1,0,0:0:0:80:future_bass_kick.wav
64,192,68173,1,0,0:0:0:60:snare-drop_2.wav
192,192,68173,1,0,0:0:0:0:
448,192,68407,1,0,0:0:0:80:future_bass_kick.wav
320,192,68641,1,0,0:0:0:30:snare-drop_2.wav
448,192,68876,1,0,0:0:0:80:future_bass_kick.wav
64,192,69110,1,0,0:0:0:60:snare-drop_2.wav
192,192,69110,1,0,0:0:0:0:
320,192,69345,1,0,0:0:0:80:future_bass_kick.wav
448,192,69345,1,0,0:0:0:0:
192,192,69579,1,0,0:0:0:0:
64,192,69813,1,0,0:0:0:80:future_bass_kick.wav
320,192,70048,1,0,0:0:0:60:snare-drop_2.wav
448,192,70048,1,0,0:0:0:0:
192,192,70282,1,0,0:0:0:80:future_bass_kick.wav
448,192,70516,1,0,0:0:0:30:snare-drop_2.wav
64,192,70751,1,0,0:0:0:80:future_bass_kick.wav
320,192,70751,1,0,0:0:0:90:snare-drop.wav
64,192,71220,128,0,71688:0:0:0:80:future_bass_kick.wav
448,192,71220,128,0,71688:0:0:0:0:
192,192,71688,1,0,0:0:0:80:future_bass_kick.wav
320,192,71688,1,0,0:0:0:90:snare-drop.wav
320,192,72079,1,0,0:0:0:0:
192,192,72157,1,0,0:0:0:80:future_bass_kick.wav
448,192,72157,1,0,0:0:0:0:
192,192,72626,128,0,73095:0:0:0:80:future_bass_kick.wav
320,192,72626,128,0,73095:0:0:0:90:snare-drop.wav
64,192,73095,1,0,0:0:0:80:future_bass_kick.wav
448,192,73095,1,0,0:0:0:0:
192,192,73329,1,0,0:0:0:0:
64,192,73563,1,0,0:0:0:80:future_bass_kick.wav
320,192,73563,1,0,0:0:0:90:snare-drop.wav
448,192,73720,1,0,0:0:0:0:
64,192,74032,128,0,74501:0:0:0:80:future_bass_kick.wav
448,192,74032,128,0,74501:0:0:0:0:
192,192,74501,1,0,0:0:0:80:future_bass_kick.wav
320,192,74501,1,0,0:0:0:90:snare-drop.wav
320,192,74735,1,0,0:0:0:0:
64,192,74970,1,0,0:0:0:80:future_bass_kick.wav
448,192,74970,1,0,0:0:0:0:
320,192,75438,1,0,0:0:0:80:future_bass_kick.wav
64,192,75673,1,0,0:0:0:60:snare-drop_2.wav
192,192,75673,1,0,0:0:0:0:
448,192,75907,1,0,0:0:0:80:future_bass_kick.wav
320,192,76141,1,0,0:0:0:30:snare-drop_2.wav
448,192,76376,1,0,0:0:0:80:future_bass_kick.wav
64,192,76610,1,0,0:0:0:60:snare-drop_2.wav
192,192,76610,1,0,0:0:0:0:
320,192,76845,1,0,0:0:0:80:future_bass_kick.wav
448,192,76845,1,0,0:0:0:0:
192,192,77079,1,0,0:0:0:0:
64,192,77313,1,0,0:0:0:80:future_bass_kick.wav
320,192,77548,1,0,0:0:0:60:snare-drop_2.wav
448,192,77548,1,0,0:0:0:0:
192,192,77782,1,0,0:0:0:80:future_bass_kick.wav
448,192,78016,1,0,0:0:0:30:snare-drop_2.wav
64,192,78251,1,0,0:0:0:80:future_bass_kick.wav
320,192,78251,1,0,0:0:0:90:snare-drop.wav
320,192,78720,1,0,0:0:0:0:
192,192,78954,1,0,0:0:0:0:
448,192,79188,1,0,0:0:0:0:
64,192,79423,1,0,0:0:0:0:
192,192,79735,128,0,80048:0:0:0:0:
448,192,80048,128,0,80360:0:0:0:0:
320,192,80360,1,0,0:0:0:0:
192,192,80595,1,0,0:0:0:0:
64,192,81298,1,0,0:0:0:0:
320,192,81532,128,0,81845:0:0:0:0:
448,192,81845,1,0,0:0:0:0:
192,192,82001,128,0,82313:0:0:0:0:
64,192,82313,1,0,0:0:0:0:
320,192,82470,128,0,83016:0:0:0:0:
192,192,83016,128,0,83485:0:0:0:0:
448,192,83485,128,0,83876:0:0:0:0:
320,192,83876,1,0,0:0:0:0:
64,192,84110,128,0,84813:0:0:0:0:
192,192,85126,1,0,0:0:0:0:
320,192,85282,128,0,85595:0:0:0:0:
64,192,85595,1,0,0:0:0:0:
448,192,85751,128,0,86063:0:0:0:0:
192,192,86063,1,0,0:0:0:0:
320,192,86298,1,0,0:0:0:0:
64,192,86532,1,0,0:0:0:0:
192,192,86766,128,0,87235:0:0:0:0:
448,192,87235,128,0,87548:0:0:0:0:
320,192,87548,1,0,0:0:0:0:
192,192,87743,128,0,88095:0:0:0:0:
64,192,88798,1,0,0:0:0:0:
320,192,89032,1,0,0:0:0:0:
192,192,89266,1,0,0:0:0:0:
448,192,89501,1,0,0:0:0:0:
320,192,89735,1,0,0:0:0:0:
192,192,89970,128,0,90282:0:0:0:0:
64,192,90282,1,0,0:0:0:0:
320,192,90438,1,0,0:0:0:0:
448,192,90673,1,0,0:0:0:0:
64,192,90907,128,0,91220:0:0:0:0:
192,192,91220,1,0,0:0:0:0:
448,192,91454,128,0,92430:0:0:0:0:
64,192,93485,1,0,0:0:0:0:
192,192,93720,1,0,0:0:0:30:LR_NBell_D#5.wav
448,192,93720,128,0,94071:0:0:0:0:
320,192,94071,128,0,94423:0:0:0:0:
64,192,94423,1,0,0:0:0:0:
192,192,94657,128,0,95126:0:0:0:0:
320,192,95126,1,0,0:0:0:0:
64,192,95477,1,0,0:0:0:0:
320,192,95595,1,0,0:0:0:50:LR_NBell_F5.wav
448,192,95595,128,0,95946:0:0:0:0:
192,192,95946,128,0,96298:0:0:0:0:
320,192,96298,1,0,0:0:0:0:
64,192,96532,128,0,97001:0:0:0:0:
320,192,97001,1,0,0:0:0:0:
192,192,97352,1,0,0:0:0:0:
64,192,97470,1,0,0:0:0:40:LR_NBell_D#5.wav
448,192,97470,128,0,97821:0:0:0:0:
320,192,97821,128,0,98173:0:0:0:0:
64,192,98173,1,0,0:0:0:0:
192,192,98407,128,0,98759:0:0:0:0:
320,192,98759,128,0,99110:0:0:0:0:
64,192,99110,128,0,99462:0:0:0:0:
192,192,99462,1,0,0:0:0:0:
320,192,99696,1,0,0:0:0:0:
448,192,99930,1,0,0:0:0:0:
320,192,100165,128,0,100634:0:0:0:0:
192,192,100634,1,0,0:0:0:0:
64,192,100985,1,0,0:0:0:0:
192,192,101220,1,0,0:0:0:30:LR_NBell_D#5.wav
448,192,101220,128,0,101571:0:0:0:0:
320,192,101571,128,0,101923:0:0:0:0:
64,192,101923,1,0,0:0:0:0:
192,192,102157,128,0,102626:0:0:0:0:
320,192,102626,1,0,0:0:0:0:
64,192,102977,1,0,0:0:0:0:
320,192,103095,1,0,0:0:0:50:LR_NBell_F5.wav
448,192,103095,128,0,103446:0:0:0:0:
192,192,103446,128,0,103798:0:0:0:0:
320,192,103798,1,0,0:0:0:0:
64,192,104032,128,0,104501:0:0:0:0:
320,192,104501,1,0,0:0:0:0:
192,192,104852,1,0,0:0:0:0:
64,192,104970,1,0,0:0:0:40:LR_NBell_D#5.wav
448,192,104970,128,0,105321:0:0:0:0:
320,192,105321,128,0,105673:0:0:0:0:
64,192,105673,1,0,0:0:0:0:
192,192,105907,128,0,106259:0:0:0:0:
320,192,106259,128,0,106610:0:0:0:0:
64,192,106610,1,0,0:0:0:0:
448,192,106845,128,0,107079:0:0:0:0:
320,192,107079,128,0,107430:0:0:0:0:
64,192,107430,128,0,107782:0:0:0:0:
192,192,107782,128,0,108251:0:0:0:0:
320,192,108251,128,0,108720:0:0:0:0:
64,192,108720,1,0,0:0:0:40:future_bass_kick-low_pass_2.wav
448,192,108720,128,0,109188:0:0:0:30:LR_NBell_D#5.wav
192,192,109188,1,0,0:0:0:40:future_bass_kick-low_pass_2.wav
64,192,109657,1,0,0:0:0:40:future_bass_kick-low_pass_2.wav
192,192,110126,1,0,0:0:0:40:future_bass_kick-low_pass_2.wav
320,192,110360,1,0,0:0:0:0:
192,192,110595,1,0,0:0:0:40:future_bass_kick-low_pass_2.wav
448,192,110595,1,0,0:0:0:50:LR_NBell_F5.wav
448,192,110829,1,0,0:0:0:0:
320,192,111063,128,0,111532:0:0:0:40:future_bass_kick-low_pass_2.wav
192,192,111532,128,0,112001:0:0:0:40:future_bass_kick-low_pass_2.wav
64,192,111766,128,0,112001:0:0:0:0:
448,192,112001,1,0,0:0:0:40:future_bass_kick-low_pass_2.wav
320,192,112235,128,0,113173:0:0:0:0:
192,192,112470,1,0,0:0:0:40:future_bass_kick-low_pass_2.wav
64,192,112821,1,0,0:0:0:0:
192,192,113173,1,0,0:0:0:0:
64,192,113524,1,0,0:0:0:0:
320,192,113876,1,0,0:0:0:40:future_bass_kick-low_pass_2.wav
192,192,114227,1,0,0:0:0:0:
448,192,114579,1,0,0:0:0:0:
320,192,114930,1,0,0:0:0:0:
320,192,115282,1,0,0:0:0:40:future_bass_kick-low_pass_2.wav
192,192,115634,1,0,0:0:0:0:
192,192,115985,1,0,0:0:0:0:
64,192,116220,1,0,0:0:0:40:future_bass_kick-low_pass_2.wav
448,192,116220,128,0,116571:0:0:0:30:LR_NBell_D#5.wav
320,192,116571,1,0,0:0:0:0:
192,192,116923,1,0,0:0:0:0:
64,192,117274,1,0,0:0:0:0:
320,192,117626,1,0,0:0:0:40:future_bass_kick-low_pass_2.wav
320,192,117860,1,0,0:0:0:0:
192,192,118095,1,0,0:0:0:40:future_bass_kick-low_pass_2.wav
448,192,118095,128,0,118446:0:0:0:50:LR_NBell_F5.wav
64,192,118446,1,0,0:0:0:0:
320,192,118563,1,0,0:0:0:40:future_bass_kick-low_pass_2.wav
192,192,118798,1,0,0:0:0:0:
320,192,119032,1,0,0:0:0:40:future_bass_kick-low_pass_2.wav
192,192,119149,1,0,0:0:0:0:
64,192,119266,128,0,119501:0:0:0:0:
320,192,119501,1,0,0:0:0:40:future_bass_kick-low_pass_2.wav
448,192,119735,128,0,120673:0:0:0:0:
64,192,119970,1,0,0:0:0:40:future_bass_kick-low_pass_2.wav
192,192,120321,1,0,0:0:0:0:
64,192,120673,1,0,0:0:0:0:
320,192,121024,1,0,0:0:0:0:
192,192,121376,1,0,0:0:0:20:future_bass_kick-low_pass_2.wav
64,192,121727,1,0,0:0:0:0:
448,192,122079,1,0,0:0:0:0:
320,192,122430,1,0,0:0:0:0:
192,192,122782,1,0,0:0:0:0:
64,192,123134,1,0,0:0:0:0:
448,192,123485,1,0,0:0:0:0:
320,192,123720,128,0,124540:0:0:0:80:vibraphone1_C6.wav
192,192,124188,1,0,0:0:0:80:snap_back.wav
448,192,124540,1,0,0:0:0:0:
192,192,125126,1,0,0:0:0:80:snap_back.wav
64,192,125360,1,0,0:0:0:60:vibraphone2_F5.wav
448,192,125595,1,0,0:0:0:80:vibraphone3_D#6.wav
192,192,125829,1,0,0:0:0:0:
320,192,126063,1,0,0:0:0:80:snap_back.wav
64,192,126180,1,0,0:0:0:0:
320,192,126532,128,0,126766:0:0:0:80:vibraphone1_C6.wav
192,192,126766,128,0,127001:0:0:0:80:vibraphone5_A#5.wav
64,192,127001,128,0,127235:0:0:0:80:snap_back.wav
320,192,127235,128,0,128290:0:0:0:80:vibraphone5_A#5.wav
192,192,127470,1,0,0:0:0:0:
448,192,127938,1,0,0:0:0:80:snap_back.wav
192,192,128290,1,0,0:0:0:0:
192,192,128876,1,0,0:0:0:80:snap_back.wav
64,192,129110,128,0,129813:0:0:0:100:piano_F6+8va_delay.wav
320,192,129579,1,0,0:0:0:0:
192,192,129813,1,0,0:0:0:80:snap_back.wav
448,192,130048,1,0,0:0:0:80:vibraphone6_G#5.wav
320,192,130282,128,0,130751:0:0:0:80:vibraphone1_C6.wav
64,192,130751,128,0,131220:0:0:0:80:snap_back.wav
192,192,131220,128,0,132040:0:0:0:80:vibraphone1_C6.wav
448,192,131688,1,0,0:0:0:80:snap_back.wav
64,192,132040,1,0,0:0:0:0:
320,192,132626,1,0,0:0:0:80:snap_back.wav
448,192,132860,1,0,0:0:0:60:vibraphone2_F5.wav
64,192,133095,1,0,0:0:0:80:vibraphone3_D#6.wav
320,192,133329,1,0,0:0:0:0:
192,192,133563,1,0,0:0:0:80:snap_back.wav
448,192,133680,1,0,0:0:0:0:
192,192,134032,128,0,134266:0:0:0:80:vibraphone1_C6.wav
448,192,134266,128,0,134501:0:0:0:80:vibraphone5_A#5.wav
320,192,134501,128,0,134735:0:0:0:80:snap_back.wav
192,192,134735,128,0,135790:0:0:0:80:vibraphone5_A#5.wav
448,192,134970,1,0,0:0:0:0:
64,192,135438,1,0,0:0:0:80:snap_back.wav
448,192,135790,1,0,0:0:0:0:
320,192,136376,1,0,0:0:0:80:snap_back.wav
192,192,136610,128,0,137313:0:0:0:80:vibraphone6_G#5.wav
64,192,137079,1,0,0:0:0:0:
448,192,137313,1,0,0:0:0:80:snap_back.wav
320,192,137430,1,0,0:0:0:0:
192,192,137782,1,0,0:0:0:0:
64,192,138251,1,0,0:0:0:80:punch_the_snare.wav
448,192,138251,1,0,0:0:0:70:noise_crash.wav
320,192,138720,128,0,141532:0:0:0:30:future_bass_kick-low_pass_1.wav
192,192,139188,1,0,0:0:0:30:future_bass_kick-low_pass_1.wav
64,192,139657,1,0,0:0:0:40:future_bass_kick-low_pass_1.wav
192,192,140126,1,0,0:0:0:40:future_bass_kick-low_pass_1.wav
448,192,140595,1,0,0:0:0:50:future_bass_kick-low_pass_1.wav
192,192,141063,1,0,0:0:0:50:future_bass_kick-low_pass_1.wav
64,192,141532,1,0,0:0:0:60:future_bass_kick-low_pass_1.wav
192,192,141766,1,0,0:0:0:60:clap-low_pass.wav
320,192,142001,1,0,0:0:0:60:future_bass_kick-low_pass_1.wav
64,192,142235,1,0,0:0:0:0:
192,192,142352,1,0,0:0:0:0:
448,192,142470,128,0,143173:0:0:0:50:future_bass_kick-low_pass_2.wav
320,192,142938,1,0,0:0:0:60:future_bass_kick-low_pass_2.wav
192,192,143173,128,0,143876:0:0:0:0:
64,192,143407,1,0,0:0:0:70:future_bass_kick-low_pass_2.wav
320,192,143876,128,0,144579:0:0:0:70:future_bass_kick-low_pass_2.wav
448,192,144345,1,0,0:0:0:70:future_bass_kick-low_pass_2.wav
64,192,144579,128,0,145282:0:0:0:70:cowbell-low_pass_1.wav
192,192,144813,1,0,0:0:0:70:future_bass_kick-low_pass_2.wav
448,192,145282,128,0,145516:0:0:0:70:future_bass_kick-low_pass_2.wav
320,192,145516,128,0,145751:0:0:0:70:clap-low_pass.wav
192,192,145751,128,0,145985:0:0:0:70:future_bass_kick-low_pass_2.wav
64,192,145985,128,0,146220:0:0:0:0:
448,192,146220,128,0,146454:0:0:0:60:future_bass_kick-high_pass_1.wav
320,192,146454,1,0,0:0:0:70:cowbell-high_pass_1.wav
320,192,146688,128,0,147860:0:0:0:60:future_bass_kick-high_pass_1.wav
192,192,147157,1,0,0:0:0:60:future_bass_kick-high_pass_1.wav
64,192,147626,1,0,0:0:0:70:future_bass_kick-high_pass_1.wav
192,192,147860,128,0,149266:0:0:0:0:
448,192,148095,1,0,0:0:0:70:future_bass_kick-high_pass_1.wav
320,192,148563,1,0,0:0:0:70:future_bass_kick-high_pass_1.wav
448,192,149032,1,0,0:0:0:70:future_bass_kick-high_pass_1.wav
64,192,149266,128,0,149501:0:0:0:60:clap-high_pass.wav
448,192,149501,128,0,149735:0:0:0:70:future_bass_kick-high_pass_1.wav
320,192,149735,1,0,0:0:0:0:
320,192,149970,1,0,0:0:0:60:future_bass_kick-high_pass_2.wav
192,192,150204,1,0,0:0:0:70:cowbell-high_pass_2.wav
192,192,150438,128,0,151376:0:0:0:60:future_bass_kick-high_pass_2.wav
64,192,150907,1,0,0:0:0:60:future_bass_kick-high_pass_2.wav
320,192,151376,128,0,152782:0:0:0:70:clap.wav
192,192,151845,1,0,0:0:0:70:clap.wav
448,192,152313,128,0,152782:0:0:0:70:clap.wav
64,192,153720,128,0,154188:0:0:0:80:future_bass_kick.wav
448,192,153720,128,0,154188:0:0:0:0:
192,192,154188,1,0,0:0:0:80:future_bass_kick.wav
320,192,154188,1,0,0:0:0:90:snare-drop.wav
320,192,154579,1,0,0:0:0:0:
64,192,154657,1,0,0:0:0:80:future_bass_kick.wav
192,192,154657,1,0,0:0:0:0:
192,192,155126,128,0,155595:0:0:0:80:future_bass_kick.wav
320,192,155126,128,0,155595:0:0:0:90:snare-drop.wav
64,192,155595,1,0,0:0:0:80:future_bass_kick.wav
448,192,155595,1,0,0:0:0:0:
192,192,155829,1,0,0:0:0:0:
320,192,156063,1,0,0:0:0:80:future_bass_kick.wav
448,192,156063,1,0,0:0:0:90:snare-drop.wav
192,192,156220,1,0,0:0:0:0:
64,192,156532,128,0,157001:0:0:0:80:future_bass_kick.wav
448,192,156532,128,0,157001:0:0:0:0:
192,192,157001,1,0,0:0:0:80:future_bass_kick.wav
320,192,157001,1,0,0:0:0:90:snare-drop.wav
192,192,157235,1,0,0:0:0:0:
64,192,157470,1,0,0:0:0:80:future_bass_kick.wav
448,192,157470,1,0,0:0:0:0:
192,192,157938,1,0,0:0:0:80:future_bass_kick.wav
320,192,158173,1,0,0:0:0:60:snare-drop_2.wav
448,192,158173,1,0,0:0:0:0:
64,192,158407,1,0,0:0:0:80:future_bass_kick.wav
192,192,158641,1,0,0:0:0:30:snare-drop_2.wav
64,192,158876,1,0,0:0:0:80:future_bass_kick.wav
320,192,159110,1,0,0:0:0:60:snare-drop_2.wav
448,192,159110,1,0,0:0:0:0:
64,192,159345,1,0,0:0:0:80:future_bass_kick.wav
192,192,159345,1,0,0:0:0:0:
320,192,159579,1,0,0:0:0:0:
448,192,159813,1,0,0:0:0:80:future_bass_kick.wav
64,192,160048,1,0,0:0:0:60:snare-drop_2.wav
192,192,160048,1,0,0:0:0:0:
320,192,160282,1,0,0:0:0:80:future_bass_kick.wav
64,192,160516,1,0,0:0:0:30:snare-drop_2.wav
192,192,160751,1,0,0:0:0:80:future_bass_kick.wav
448,192,160751,1,0,0:0:0:90:snare-drop.wav
64,192,161220,128,0,161688:0:0:0:80:future_bass_kick.wav
448,192,161220,128,0,161688:0:0:0:0:
192,192,161688,1,0,0:0:0:80:future_bass_kick.wav
320,192,161688,1,0,0:0:0:90:snare-drop.wav
192,192,162079,1,0,0:0:0:0:
64,192,162157,1,0,0:0:0:80:future_bass_kick.wav
320,192,162157,1,0,0:0:0:0:
192,192,162626,128,0,163095:0:0:0:80:future_bass_kick.wav
320,192,162626,128,0,163095:0:0:0:90:snare-drop.wav
64,192,163095,1,0,0:0:0:80:future_bass_kick.wav
448,192,163095,1,0,0:0:0:0:
320,192,163329,1,0,0:0:0:0:
192,192,163563,1,0,0:0:0:80:future_bass_kick.wav
448,192,163563,1,0,0:0:0:90:snare-drop.wav
64,192,163720,1,0,0:0:0:0:
64,192,164032,128,0,164501:0:0:0:80:future_bass_kick.wav
448,192,164032,128,0,164501:0:0:0:0:
192,192,164501,1,0,0:0:0:80:future_bass_kick.wav
320,192,164501,1,0,0:0:0:90:snare-drop.wav
192,192,164735,1,0,0:0:0:0:
64,192,164970,1,0,0:0:0:80:future_bass_kick.wav
448,192,164970,1,0,0:0:0:0:
192,192,165438,1,0,0:0:0:80:future_bass_kick.wav
320,192,165673,1,0,0:0:0:60:snare-drop_2.wav
448,192,165673,1,0,0:0:0:0:
64,192,165907,1,0,0:0:0:80:future_bass_kick.wav
192,192,166141,1,0,0:0:0:30:snare-drop_2.wav
64,192,166376,1,0,0:0:0:80:future_bass_kick.wav
320,192,166610,1,0,0:0:0:60:snare-drop_2.wav
448,192,166610,1,0,0:0:0:0:
64,192,166845,1,0,0:0:0:80:future_bass_kick.wav
192,192,166845,128,0,167313:0:0:0:0:
64,192,167079,128,0,167313:0:0:0:0:
320,192,167313,128,0,167782:0:0:0:80:future_bass_kick.wav
448,192,167313,1,0,0:0:0:90:snare-drop.wav
448,192,167548,128,0,167782:0:0:0:60:snare-drop_2.wav
64,192,167782,1,0,0:0:0:80:future_bass_kick.wav
192,192,167782,1,0,0:0:0:0:
320,192,168016,1,0,0:0:0:30:snare-drop_2.wav
64,192,168251,1,0,0:0:0:80:future_bass_kick.wav
448,192,168251,1,0,0:0:0:90:snare-drop.wav
64,192,168720,128,0,169188:0:0:0:80:future_bass_kick.wav
448,192,168720,128,0,169188:0:0:0:0:
192,192,169188,1,0,0:0:0:80:future_bass_kick.wav
320,192,169188,1,0,0:0:0:90:snare-drop.wav
192,192,169579,1,0,0:0:0:0:
320,192,169657,1,0,0:0:0:80:future_bass_kick.wav
448,192,169657,1,0,0:0:0:0:
192,192,170126,128,0,170595:0:0:0:80:future_bass_kick.wav
320,192,170126,128,0,170595:0:0:0:90:snare-drop.wav
64,192,170595,1,0,0:0:0:80:future_bass_kick.wav
448,192,170595,1,0,0:0:0:0:
320,192,170829,1,0,0:0:0:0:
64,192,171063,1,0,0:0:0:80:future_bass_kick.wav
192,192,171063,1,0,0:0:0:90:snare-drop.wav
320,192,171220,1,0,0:0:0:0:
64,192,171532,128,0,172001:0:0:0:80:future_bass_kick.wav
448,192,171532,128,0,172001:0:0:0:0:
192,192,172001,1,0,0:0:0:80:future_bass_kick.wav
320,192,172001,1,0,0:0:0:90:snare-drop.wav
320,192,172235,1,0,0:0:0:0:
64,192,172470,1,0,0:0:0:80:future_bass_kick.wav
448,192,172470,1,0,0:0:0:0:
320,192,172938,1,0,0:0:0:80:future_bass_kick.wav
64,192,173173,1,0,0:0:0:60:snare-drop_2.wav
192,192,173173,1,0,0:0:0:0:
448,192,173407,1,0,0:0:0:80:future_bass_kick.wav
320,192,173641,1,0,0:0:0:30:snare-drop_2.wav
448,192,173876,1,0,0:0:0:80:future_bass_kick.wav
64,192,174110,1,0,0:0:0:60:snare-drop_2.wav
192,192,174110,1,0,0:0:0:0:
320,192,174345,1,0,0:0:0:80:future_bass_kick.wav
448,192,174345,1,0,0:0:0:0:
192,192,174579,1,0,0:0:0:0:
64,192,174813,1,0,0:0:0:80:future_bass_kick.wav
320,192,175048,1,0,0:0:0:60:snare-drop_2.wav
448,192,175048,1,0,0:0:0:0:
192,192,175282,1,0,0:0:0:80:future_bass_kick.wav
448,192,175516,1,0,0:0:0:30:snare-drop_2.wav
64,192,175751,1,0,0:0:0:80:future_bass_kick.wav
320,192,175751,1,0,0:0:0:90:snare-drop.wav
64,192,176220,128,0,176688:0:0:0:80:future_bass_kick.wav
448,192,176220,128,0,176688:0:0:0:0:
192,192,176688,1,0,0:0:0:80:future_bass_kick.wav
320,192,176688,1,0,0:0:0:90:snare-drop.wav
320,192,177079,1,0,0:0:0:0:
192,192,177157,1,0,0:0:0:80:future_bass_kick.wav
448,192,177157,1,0,0:0:0:0:
192,192,177626,128,0,178095:0:0:0:80:future_bass_kick.wav
320,192,177626,128,0,178095:0:0:0:90:snare-drop.wav
64,192,178095,1,0,0:0:0:80:future_bass_kick.wav
448,192,178095,1,0,0:0:0:0:
192,192,178329,1,0,0:0:0:0:
64,192,178563,1,0,0:0:0:80:future_bass_kick.wav
320,192,178563,1,0,0:0:0:90:snare-drop.wav
448,192,178720,1,0,0:0:0:0:
64,192,179032,128,0,179501:0:0:0:80:future_bass_kick.wav
448,192,179032,128,0,179501:0:0:0:0:
192,192,179501,1,0,0:0:0:80:future_bass_kick.wav
320,192,179501,1,0,0:0:0:90:snare-drop.wav
320,192,179735,1,0,0:0:0:0:
64,192,179970,1,0,0:0:0:80:future_bass_kick.wav
448,192,179970,1,0,0:0:0:0:
320,192,180438,1,0,0:0:0:80:future_bass_kick.wav
64,192,180673,1,0,0:0:0:60:snare-drop_2.wav
192,192,180673,1,0,0:0:0:0:
448,192,180907,1,0,0:0:0:80:future_bass_kick.wav
320,192,181141,1,0,0:0:0:30:snare-drop_2.wav
448,192,181376,1,0,0:0:0:80:future_bass_kick.wav
64,192,181610,1,0,0:0:0:60:snare-drop_2.wav
192,192,181610,1,0,0:0:0:0:
320,192,181845,1,0,0:0:0:80:future_bass_kick.wav
448,192,181845,128,0,182313:0:0:0:0:
320,192,182079,128,0,182313:0:0:0:0:
64,192,182313,128,0,182782:0:0:0:80:future_bass_kick.wav
192,192,182313,1,0,0:0:0:90:snare-drop.wav
192,192,182548,128,0,182782:0:0:0:60:snare-drop_2.wav
320,192,182782,1,0,0:0:0:80:future_bass_kick.wav
448,192,182782,1,0,0:0:0:0:
192,192,183016,1,0,0:0:0:30:snare-drop_2.wav
64,192,183251,1,0,0:0:0:80:future_bass_kick.wav
448,192,183251,1,0,0:0:0:90:snare-drop.wav
64,192,183720,128,0,184188:0:0:0:80:future_bass_kick.wav
320,192,183720,128,0,184188:0:0:0:0:
192,192,184188,1,0,0:0:0:80:future_bass_kick.wav
448,192,184188,1,0,0:0:0:90:snare-drop.wav
320,192,184579,1,0,0:0:0:0:
64,192,184657,1,0,0:0:0:80:future_bass_kick.wav
192,192,184657,1,0,0:0:0:0:
192,192,185126,128,0,185595:0:0:0:80:future_bass_kick.wav
448,192,185126,128,0,185595:0:0:0:90:snare-drop.wav
64,192,185595,1,0,0:0:0:80:future_bass_kick.wav
320,192,185595,1,0,0:0:0:0:
192,192,185829,1,0,0:0:0:0:
320,192,186063,1,0,0:0:0:80:future_bass_kick.wav
448,192,186063,1,0,0:0:0:90:snare-drop.wav
192,192,186220,1,0,0:0:0:0:
64,192,186532,128,0,187001:0:0:0:80:future_bass_kick.wav
448,192,186532,128,0,187001:0:0:0:0:
192,192,187001,128,0,187235:0:0:0:80:future_bass_kick.wav
320,192,187001,1,0,0:0:0:90:snare-drop.wav
64,192,187470,1,0,0:0:0:80:future_bass_kick.wav
448,192,187470,1,0,0:0:0:0:
448,192,187938,1,0,0:0:0:80:future_bass_kick.wav
64,192,188173,1,0,0:0:0:60:snare-drop_2.wav
320,192,188173,1,0,0:0:0:0:
192,192,188407,1,0,0:0:0:80:future_bass_kick.wav
320,192,188641,1,0,0:0:0:30:snare-drop_2.wav
64,192,188876,1,0,0:0:0:80:future_bass_kick.wav
320,192,189110,1,0,0:0:0:60:snare-drop_2.wav
448,192,189110,1,0,0:0:0:0:
64,192,189345,1,0,0:0:0:80:future_bass_kick.wav
192,192,189345,1,0,0:0:0:0:
320,192,189579,1,0,0:0:0:0:
448,192,189813,1,0,0:0:0:80:future_bass_kick.wav
64,192,190048,1,0,0:0:0:60:snare-drop_2.wav
192,192,190048,1,0,0:0:0:0:
320,192,190282,1,0,0:0:0:80:future_bass_kick.wav
64,192,190516,1,0,0:0:0:30:snare-drop_2.wav
192,192,190751,1,0,0:0:0:80:future_bass_kick.wav
448,192,190751,1,0,0:0:0:90:snare-drop.wav
64,192,191220,128,0,191688:0:0:0:80:future_bass_kick.wav
320,192,191220,128,0,191688:0:0:0:0:
192,192,191688,1,0,0:0:0:80:future_bass_kick.wav
448,192,191688,1,0,0:0:0:90:snare-drop.wav
64,192,192079,1,0,0:0:0:0:
192,192,192157,1,0,0:0:0:80:future_bass_kick.wav
320,192,192157,1,0,0:0:0:0:
192,192,192626,128,0,193095:0:0:0:80:future_bass_kick.wav
448,192,192626,128,0,193095:0:0:0:90:snare-drop.wav
64,192,193095,1,0,0:0:0:80:future_bass_kick.wav
320,192,193095,1,0,0:0:0:0:
448,192,193329,1,0,0:0:0:0:
192,192,193563,1,0,0:0:0:80:future_bass_kick.wav
320,192,193563,1,0,0:0:0:90:snare-drop.wav
64,192,193720,1,0,0:0:0:0:
64,192,194032,128,0,194501:0:0:0:80:future_bass_kick.wav
448,192,194032,128,0,194501:0:0:0:0:
192,192,194501,128,0,194735:0:0:0:80:future_bass_kick.wav
320,192,194501,1,0,0:0:0:90:snare-drop.wav
64,192,194970,1,0,0:0:0:80:future_bass_kick.wav
448,192,194970,1,0,0:0:0:0:
448,192,195438,1,0,0:0:0:80:future_bass_kick.wav
64,192,195673,1,0,0:0:0:60:snare-drop_2.wav
320,192,195673,1,0,0:0:0:0:
192,192,195907,1,0,0:0:0:80:future_bass_kick.wav
320,192,196141,1,0,0:0:0:30:snare-drop_2.wav
64,192,196376,1,0,0:0:0:80:future_bass_kick.wav
320,192,196610,1,0,0:0:0:60:snare-drop_2.wav
448,192,196610,1,0,0:0:0:0:
64,192,196845,128,0,197313:0:0:0:80:future_bass_kick.wav
192,192,196845,1,0,0:0:0:0:
192,192,197079,128,0,197313:0:0:0:0:
320,192,197313,1,0,0:0:0:80:future_bass_kick.wav
448,192,197313,128,0,197782:0:0:0:90:snare-drop.wav
320,192,197548,128,0,197782:0:0:0:60:snare-drop_2.wav
64,192,197782,1,0,0:0:0:80:future_bass_kick.wav
192,192,197782,1,0,0:0:0:0:
320,192,198016,1,0,0:0:0:30:snare-drop_2.wav
64,192,198251,1,0,0:0:0:80:future_bass_kick.wav
448,192,198251,1,0,0:0:0:90:snare-drop.wav
64,192,198720,128,0,199188:0:0:0:80:future_bass_kick.wav
448,192,198720,128,0,199188:0:0:0:0:
192,192,199188,1,0,0:0:0:80:future_bass_kick.wav
320,192,199188,1,0,0:0:0:90:snare-drop.wav
192,192,199579,1,0,0:0:0:0:
320,192,199657,1,0,0:0:0:80:future_bass_kick.wav
448,192,199657,1,0,0:0:0:0:
192,192,200126,128,0,200595:0:0:0:80:future_bass_kick.wav
320,192,200126,128,0,200595:0:0:0:90:snare-drop.wav
64,192,200595,1,0,0:0:0:80:future_bass_kick.wav
448,192,200595,1,0,0:0:0:0:
320,192,200829,1,0,0:0:0:0:
64,192,201063,1,0,0:0:0:80:future_bass_kick.wav
192,192,201063,1,0,0:0:0:90:snare-drop.wav
320,192,201220,1,0,0:0:0:0:
64,192,201532,128,0,202001:0:0:0:80:future_bass_kick.wav
448,192,201532,128,0,202001:0:0:0:0:
192,192,202001,1,0,0:0:0:80:future_bass_kick.wav
320,192,202001,1,0,0:0:0:90:snare-drop.wav
320,192,202235,1,0,0:0:0:0:
64,192,202470,1,0,0:0:0:80:future_bass_kick.wav
448,192,202470,1,0,0:0:0:0:
64,192,202938,1,0,0:0:0:80:future_bass_kick.wav
192,192,203173,1,0,0:0:0:60:snare-drop_2.wav
448,192,203173,1,0,0:0:0:0:
320,192,203407,1,0,0:0:0:80:future_bass_kick.wav
192,192,203641,1,0,0:0:0:30:snare-drop_2.wav
448,192,203876,1,0,0:0:0:80:future_bass_kick.wav
64,192,204110,1,0,0:0:0:60:snare-drop_2.wav
192,192,204110,1,0,0:0:0:0:
320,192,204345,1,0,0:0:0:80:future_bass_kick.wav
448,192,204345,1,0,0:0:0:0:
192,192,204579,1,0,0:0:0:0:
64,192,204813,1,0,0:0:0:80:future_bass_kick.wav
320,192,205048,1,0,0:0:0:60:snare-drop_2.wav
448,192,205048,1,0,0:0:0:0:
192,192,205282,1,0,0:0:0:80:future_bass_kick.wav
448,192,205516,1,0,0:0:0:30:snare-drop_2.wav
64,192,205751,1,0,0:0:0:80:future_bass_kick.wav
320,192,205751,1,0,0:0:0:90:snare-drop.wav
64,192,206220,128,0,206688:0:0:0:80:future_bass_kick.wav
448,192,206220,128,0,206688:0:0:0:0:
192,192,206688,1,0,0:0:0:80:future_bass_kick.wav
320,192,206688,1,0,0:0:0:90:snare-drop.wav
320,192,207079,1,0,0:0:0:0:
192,192,207157,1,0,0:0:0:80:future_bass_kick.wav
448,192,207157,1,0,0:0:0:0:
192,192,207626,128,0,208095:0:0:0:80:future_bass_kick.wav
320,192,207626,128,0,208095:0:0:0:90:snare-drop.wav
64,192,208095,1,0,0:0:0:80:future_bass_kick.wav
448,192,208095,1,0,0:0:0:0:
192,192,208329,1,0,0:0:0:0:
64,192,208563,1,0,0:0:0:80:future_bass_kick.wav
320,192,208563,1,0,0:0:0:90:snare-drop.wav
448,192,208720,1,0,0:0:0:0:
64,192,209032,128,0,209501:0:0:0:80:future_bass_kick.wav
448,192,209032,128,0,209501:0:0:0:0:
192,192,209501,1,0,0:0:0:80:future_bass_kick.wav
320,192,209501,1,0,0:0:0:90:snare-drop.wav
320,192,209735,1,0,0:0:0:0:
448,192,209970,1,0,0:0:0:80:future_bass_kick.wav
448,192,210204,1,0,0:0:0:0:
192,192,210438,1,0,0:0:0:70:future_bass_kick.wav
192,192,210673,1,0,0:0:0:0:
320,192,210907,128,0,211141:0:0:0:60:future_bass_kick.wav
192,192,211141,128,0,211376:0:0:0:0:
64,192,211376,1,0,0:0:0:50:future_bass_kick.wav
320,192,211610,128,0,213251:0:0:0:0:
448,192,211845,1,0,0:0:0:40:future_bass_kick.wav
192,192,212313,1,0,0:0:0:30:future_bass_kick.wav
448,192,212782,1,0,0:0:0:20:future_bass_kick.wav
192,192,213251,1,0,0:0:0:40:snap_back.wav
64,192,213720,128,0,214657:0:0:0:0:
