osu file format v14

[General]
AudioFilename: audio.mp3
AudioLeadIn: 0
PreviewTime:56052
Countdown: 0
SampleSet: Soft
StackLeniency: 0.3
Mode: 0
LetterboxInBreaks: 0
WidescreenStoryboard: 1

[Editor]
DistanceSpacing: 0.75
BeatDivisor: 2
GridSize: 32
TimelineZoom: 1.6

[Metadata]
Title:Una Vez (Cut Ver.)
TitleUnicode:Una Vez (Cut Ver.)
Artist:Bad Bunny x Mora
ArtistUnicode:Bad Bunny x Mora
Creator:Tatan
Version:NORMAL
Source:
Tags:pkhg pop spanish espaƱol espanol reggaeton dancehall urban latin taiko rimas YHLQMDLG yo hago lo que me da de la gana collaboration
BeatmapID:2636430
BeatmapSetID:1267543

[Difficulty]
HPDrainRate:4
CircleSize:2.7
OverallDifficulty:4
ApproachRate:5
SliderMultiplier:1.2
SliderTickRate:1

[Events]
//Background and Video events
0,0,"459d8cb1f3da9a4b570e12dd77efa34fd53a9fb4.jpg",0,0
Video,-100,"video (2).mp4"
//Break Periods
2,45888,51831
2,80016,90402
2,114659,121831
//Storyboard Layer 0 (Background)
//Storyboard Layer 1 (Fail)
//Storyboard Layer 2 (Pass)
//Storyboard Layer 3 (Foreground)
//Storyboard Layer 4 (Overlay)
//Storyboard Sound Samples

[TimingPoints]
174,357.142857142857,4,2,1,40,1,0
11959,-133.333333333333,4,2,1,40,0,0
23031,-100,4,2,1,70,0,1
44102,-100,4,2,1,60,0,0
57316,-100,4,2,1,40,0,0
58745,-100,4,2,1,60,0,0
91602,-100,4,2,1,40,0,0
93031,-100,4,2,1,60,0,0
113388,-100,4,2,1,70,0,0
113745,-100,4,2,1,75,0,0
114102,-100,4,2,1,80,0,0
114459,-100,4,2,1,40,0,0
123031,-100,4,2,1,50,0,0
124816,-100,4,2,1,70,0,0
126959,-100,4,2,1,60,0,0
137316,-100,4,2,1,75,0,1
147316,-100,4,2,1,60,0,0
148745,-100,4,2,1,30,0,0
160173,-100,4,2,1,30,0,0

[Colours]
Combo1 : 51,236,190
Combo2 : 255,140,255
Combo3 : 128,128,255
Combo4 : 215,0,215
Combo5 : 112,177,205
Combo6 : 255,64,159

[HitObjects]
130,34,11602,5,0,0:0:0:0:
80,109,11959,2,0,L|18:113,2,45.0000017166138,2|2|2,0:0|0:0|0:0,0:0:0:0:
144,172,12673,1,2,0:0:0:0:
87,242,13031,1,2,0:0:0:0:
144,311,13388,2,0,P|213:294|325:313,1,180.000006866455,2|2,0:0|0:0,0:0:0:0:
394,360,14459,5,2,0:0:0:0:
440,283,14816,2,0,L|498:276,2,45.0000017166138,2|2|2,0:0|0:0|0:0,0:0:0:0:
377,218,15531,1,2,0:0:0:0:
430,145,15888,1,2,0:0:0:0:
377,72,16245,2,0,B|327:54|279:77|305:96|257:119|207:101,1,180.000006866455,2|2,0:0|0:0,0:0:0:0:
158,26,17316,6,0,P|105:12|36:67,1,135.000005149841,2|2,0:0|0:0,2:0:0:0:
31,98,18031,2,0,P|50:143|53:189,1,90.0000034332277,2|2,0:0|0:0,0:0:0:0:
0,256,18745,2,0,P|40:230|129:241,1,135.000005149841,2|2,0:0|0:0,2:0:0:0:
163,258,19459,2,0,P|144:304|157:350,1,90.0000034332277,2|2,0:0|0:0,0:0:0:0:
242,339,20173,6,0,P|286:308|375:301,1,135.000005149841,2|2,0:0|0:0,2:0:0:0:
402,324,20888,1,2,0:0:0:0:
462,257,21245,1,2,0:0:0:0:
426,174,21602,1,2,0:0:0:0:
474,98,21959,2,0,P|420:82|334:161,1,180.000006866455,2|2,0:0|0:0,0:0:0:0:
334,156,23031,6,0,B|284:138|236:161|262:180|214:203|164:185,1,180.000006866455,0|8,3:2|0:2,0:2:0:0:
133,154,23745,1,2,3:2:0:0:
172,73,24102,1,10,0:2:0:0:
86,43,24459,2,0,P|22:100|22:144,1,120,2|10,3:2|0:2,0:2:0:0:
42,167,24995,1,8,0:2:0:0:
42,167,25173,2,0,P|57:232|46:289,1,120,2|10,3:2|0:0,0:0:0:0:
123,332,25888,6,0,P|185:295|296:309,1,180,0|8,3:2|0:2,0:2:0:0:
319,338,26602,1,0,3:2:0:0:
386,278,26959,1,10,0:2:0:0:
465,323,27316,2,0,P|476:260|431:199,2,120,2|10|2,3:2|0:2|3:2,0:2:0:0:
398,383,28388,1,10,0:2:0:0:
319,338,28745,6,0,B|293:288|293:288|321:152,1,180,0|8,3:2|0:2,0:2:0:0:
334,125,29459,1,0,3:2:0:0:
365,40,29816,1,8,0:2:0:0:
425,106,30173,2,0,L|493:111,2,60,0|2|10,3:2|0:2|0:2,2:0:0:0:
334,125,30888,6,0,P|271:146|214:105,1,120,2|8,3:2|0:2,2:0:0:0:
209,81,31423,2,0,P|155:57|101:78,1,120,2|2,0:2|0:2,0:2:0:0:
79,119,31959,1,10,0:2:0:0:
79,119,32138,2,0,P|98:170|102:244,1,120,10|0,0:2|2:0,2:0:0:0:
84,275,32673,1,8,0:2:0:0:
166,312,33031,6,0,B|223:328|223:328|276:302,2,120,0|2|2,3:2|3:2|0:2,0:2:0:0:
154,222,34102,2,0,B|207:195|207:195|264:212,1,120,10|0,0:2|3:2,0:2:0:0:
348,247,34816,1,10,0:2:0:0:
391,236,34995,1,10,0:2:0:0:
427,210,35173,2,0,P|445:139|423:86,1,120,2|10,3:2|0:2,2:0:0:0:
361,38,35888,2,0,P|413:7|480:21,2,120,2|10|2,3:2|0:2|3:2,0:2:0:0:
340,125,36959,1,10,0:2:0:0:
268,70,37316,6,0,L|140:64,1,120,0|8,3:2|0:2,0:2:0:0:
108,43,37852,1,8,0:2:0:0:
108,43,38031,2,0,P|70:72|66:154,1,120,0|10,3:2|0:2,2:0:0:0:
119,208,38745,2,0,P|170:187|237:185,2,120,2|10|2,3:2|0:2|3:2,0:2:0:0:
71,284,39816,1,10,0:2:0:0:
140,341,40173,6,0,B|189:323|237:346|211:365|259:388|309:370,1,180.000006866455,0|8,3:2|0:2,0:2:0:0:
351,354,40888,2,0,P|346:291|367:229,1,120,0|8,3:2|0:2,0:2:0:0:
450,220,41602,1,0,3:2:0:0:
486,137,41959,1,10,0:2:0:0:
477,93,42138,1,10,0:2:0:0:
447,57,42316,1,2,3:2:0:0:
361,69,42673,5,10,0:2:0:0:
361,69,42852,2,0,P|307:87|236:62,1,120,2|2,0:2|0:2,0:2:0:0:
226,31,43388,1,10,0:2:0:0:
226,31,43566,2,0,P|142:14|131:93,1,180,10|8,0:2|0:2,0:2:0:0:
256,192,53031,12,2,57316,3:2:0:0:
176,14,58745,6,0,P|139:51|120:124,1,120,2|10,3:2|0:2,0:2:0:0:
132,163,59281,1,8,0:2:0:0:
132,163,59459,1,0,3:2:0:0:
184,236,59816,1,10,0:2:0:0:
128,306,60173,6,0,P|64:315|10:279,2,120,2|10|2,3:2|0:2|3:2,2:0:0:0:
184,236,61245,2,0,P|248:227|302:263,1,120,10|2,0:2|3:2,2:0:0:0:
308,342,61959,1,10,0:2:0:0:
351,355,62138,1,8,0:2:0:0:
394,344,62316,2,0,B|412:303|412:303|397:218,1,120,0|10,3:2|0:2,0:2:0:0:
347,154,63031,5,2,3:2:0:0:
400,81,63388,1,10,0:2:0:0:
341,12,63745,2,0,P|273:0|219:27,1,120,2|10,3:2|0:2,2:0:0:0:
139,33,64459,2,0,P|162:98|167:148,2,120,2|10|0,3:2|0:2|3:2,0:2:0:0:
50,15,65531,1,10,0:2:0:0:
13,97,65888,5,2,3:2:0:0:
68,168,66245,1,2,3:2:0:0:
29,249,66602,1,2,3:2:0:0:
90,315,66959,2,0,P|158:327|221:299,2,120,10|2|2,0:2|3:2|0:2,2:0:0:0:
90,315,68745,6,8,P|146:297|204:310,1,120,2|10,3:2|0:2,0:2:0:0:
271,369,69459,2,0,P|328:381|385:364,1,120,2|10,3:2|0:2,2:0:0:0:
406,275,70173,2,0,P|440:268|469:346,2,120,2|10|0,3:2|0:2|3:2,0:2:0:0:
316,289,71245,1,10,0:2:0:0:
272,300,71423,1,2,0:2:0:0:
233,276,71602,6,0,L|244:148,1,120,2|8,3:2|0:2,0:2:0:0:
297,84,72316,2,0,L|363:82,2,60,2|2|10,3:2|0:2|0:2,2:0:0:0:
231,22,73031,1,2,3:2:0:0:
162,80,73388,1,10,0:2:0:0:
84,34,73745,2,0,P|59:84|58:167,1,120,2|10,3:2|0:2,0:2:0:0:
102,223,74459,6,0,L|176:215,2,60,2|2|10,3:2|0:2|0:2,0:2:0:0:
41,289,75173,1,2,3:2:0:0:
95,360,75531,1,10,0:2:0:0:
169,309,75888,2,0,L|309:294,1,120,2|10,3:2|0:2,2:0:0:0:
365,343,76602,1,0,3:2:0:0:
438,290,76959,2,0,B|454:232|454:232|429:177|429:177,1,120,8|0,0:2|3:2,0:2:0:0:
469,97,77673,5,10,0:2:0:0:
405,32,78031,1,2,3:2:0:0:
341,95,78388,1,10,0:2:0:0:
271,37,78745,2,0,B|222:19|174:42|200:61|152:84|102:66,1,180.000006866455,2|8,3:2|0:2,0:2:0:0:
79,28,79459,2,0,P|28:24|5:104,1,120,0|0,3:2|0:2,0:2:0:0:
377,70,91602,5,0,3:2:0:0:
312,131,91959,2,0,P|289:54|313:5,2,120,2|2|8,0:2|0:2|0:2,0:2:0:0:
392,173,93031,2,0,P|415:250|390:299,1,120,0|8,3:2|0:2,0:2:0:0:
368,314,93566,1,10,0:2:0:0:
368,314,93745,2,0,P|304:298|242:297,1,120,2|10,3:2|0:2,2:0:0:0:
181,354,94459,5,2,3:2:0:0:
122,285,94816,2,0,P|89:224|102:178,2,120,10|2|10,0:2|3:2|0:2,2:0:0:0:
210,268,95888,2,0,P|221:210|189:161,1,120,2|8,3:2|0:2,0:2:0:0:
101,178,96602,1,2,3:2:0:0:
38,112,96959,1,10,0:2:0:0:
93,40,97316,6,0,L|213:49,1,120,2|10,3:2|0:2,2:0:0:0:
291,5,98031,1,2,3:2:0:0:
361,60,98388,1,10,0:2:0:0:
442,22,98745,2,0,P|468:68|456:152,1,120,2|10,3:2|0:2,0:2:0:0:
437,169,99281,1,10,0:2:0:0:
437,169,99459,2,0,P|411:215|423:299,1,120,2|10,3:2|0:2,2:0:0:0:
478,342,100173,5,2,3:2:0:0:
396,381,100531,2,0,L|268:372,2,120,2|2|10,0:2|0:2|0:2,0:2:0:0:
478,342,101602,1,2,3:2:0:0:
118,324,103031,6,0,P|87:264|110:191,1,120,2|10,3:2|0:2,0:2:0:0:
123,179,103566,1,10,0:2:0:0:
123,179,103745,1,2,3:2:0:0:
71,105,104102,1,10,0:2:0:0:
137,44,104459,2,0,B|186:26|234:49|208:68|256:91|306:73,1,180.000006866455,2|10,3:2|0:2,0:2:0:0:
337,40,105173,6,0,P|392:30|448:71,1,120,2|10,3:2|0:2,2:0:0:0:
411,147,105888,1,2,3:2:0:0:
482,202,106245,2,0,P|499:257|494:321,1,120,10|2,0:2|3:2,2:0:0:0:
430,381,106959,1,10,0:2:0:0:
377,307,107316,2,0,B|328:289|280:312|306:331|258:354|208:336,1,180.000006866455,2|10,3:2|0:2,0:2:0:0:
175,304,108031,5,2,3:2:0:0:
96,347,108388,1,10,0:2:0:0:
25,290,108745,2,0,P|13:240|25:173,1,120,2|10,3:2|0:2,2:0:0:0:
100,124,109459,2,0,P|52:82|-22:106,2,120,2|10|2,3:2|0:2|3:2,2:0:0:0:
108,212,110531,5,10,0:2:0:0:
188,171,110888,2,0,P|236:160|308:191,1,120,2|10,3:2|0:2,2:0:0:0:
316,272,111602,2,0,P|370:295|428:285,1,120,2|10,3:2|0:2,2:0:0:0:
483,213,112316,2,0,P|465:155|469:84,2,120,2|10|2,3:2|0:2|3:2,2:0:0:0:
256,192,113209,12,2,114459,3:2:0:0:
256,192,123031,12,0,125888,3:2:0:0:
30,112,126959,5,10,0:2:0:0:
101,56,127316,1,2,3:2:0:0:
101,56,127495,2,0,P|155:82|142:160,1,120,2|8,0:2|0:2,0:2:0:0:
123,160,128030,1,2,3:2:0:0:
123,160,128209,2,0,P|98:219|111:293,1,120,2|0,0:2|0:2,0:2:0:0:
137,302,128745,1,2,3:2:0:0:
137,302,128923,1,2,0:2:0:0:
274,326,129459,5,2,3:2:0:0:
274,326,129638,2,0,P|352:331|375:268,1,120,2|0,0:2|0:2,0:2:0:0:
355,261,130173,1,2,3:2:0:0:
355,261,130352,2,0,P|348:190|355:131,1,120,2|10,0:2|0:2,0:2:0:0:
365,101,130887,1,2,3:2:0:0:
365,101,131066,1,2,0:2:0:0:
266,16,131602,5,2,3:2:0:0:
266,16,131781,2,0,P|206:-1|139:37,1,120,2|8,0:2|0:2,2:0:0:0:
126,54,132316,2,0,P|137:108|132:183,1,120,0|10,3:2|0:2,2:0:0:0:
82,246,133031,5,2,3:2:0:0:
134,325,133388,1,10,0:2:0:0:
177,336,133566,1,8,0:2:0:0:
217,315,133745,2,0,P|264:282|325:285,1,120,2|8,3:2|0:2,0:2:0:0:
395,339,134459,1,0,3:2:0:0:
467,285,134816,2,0,L|455:157,2,120,2|2|10,0:2|0:2|0:2,0:2:0:0:
478,373,135888,1,2,3:2:0:0:
329,45,137316,6,0,B|272:47|272:47|215:78|215:78|158:80,1,180,0|10,3:2|0:2,0:2:0:0:
112,84,138030,1,2,3:2:0:0:
33,40,138387,1,10,0:2:0:0:
0,124,138745,2,0,P|26:176|33:257,1,120,2|10,3:2|0:2,0:2:0:0:
20,279,139281,1,8,0:2:0:0:
20,279,139459,2,0,P|57:342|133:329,1,120,2|10,3:2|0:2,2:0:0:0:
164,286,140173,6,0,P|223:262|325:318,1,180,0|8,3:2|0:2,0:2:0:0:
331,354,140887,1,0,3:2:0:0:
410,311,141244,1,10,0:2:0:0:
378,226,141602,2,0,P|374:159|386:99,1,120,2|10,3:2|0:2,0:2:0:0:
432,31,142316,1,2,3:2:0:0:
342,28,142673,2,0,B|293:10|245:33|271:52|223:75|173:57,1,180.000006866455,8|0,0:2|2:0,0:2:0:0:
134,34,143388,2,0,P|69:58|59:137,1,120,8|0,0:2|3:2,2:0:0:0:
109,170,144102,1,8,0:2:0:0:
42,230,144459,5,0,3:2:0:0:
27,272,144638,1,2,0:2:0:0:
47,311,144816,2,0,L|175:304,1,120,10|2,0:2|3:2,2:0:0:0:
256,297,145531,1,10,0:2:0:0:
256,297,145709,2,0,P|285:232|266:168,1,120,2|2,0:2|0:2,0:2:0:0:
242,165,146245,1,10,0:2:0:0:
242,165,146423,2,0,P|213:100|232:36,1,120,10|0,0:2|0:2,0:2:0:0:
253,22,146958,1,10,0:2:0:0:
330,68,147316,5,0,3:2:0:0:
256,192,148745,12,0,160173,0:0:0:0:
