osu file format v14

[General]
AudioFilename: audio.mp3
AudioLeadIn: 0
PreviewTime: 23551
Countdown: 0
SampleSet: Soft
StackLeniency: 0.3
Mode: 0
LetterboxInBreaks: 0
WidescreenStoryboard: 0

[Editor]
Bookmarks: 137,23551,35258,40380,58673,70380,82088,93795
DistanceSpacing: 4.9
BeatDivisor: 4
GridSize: 32
TimelineZoom: 2.300001

[Metadata]
Title:Cuando Perriabas
TitleUnicode:Cuando Perriabas
Artist:Bad Bunny
ArtistUnicode:Bad Bunny
Creator:Ulqui
Version:pkhg's Hard
Source:
Tags:reggaeton latin trap x100pre rimas entertainment hip hop tainy bellaqueo plan b spanish espaƱol dancehall reggae pop urban tatan pkhg cut
BeatmapID:2233171
BeatmapSetID:919932

[Difficulty]
HPDrainRate:6
CircleSize:3.4
OverallDifficulty:6.2
ApproachRate:8
SliderMultiplier:1.4
SliderTickRate:1

[Events]
//Background and Video events
0,0,"Konachan.com - 211981 sample (1).jpg",0,0
//Break Periods
//Storyboard Layer 0 (Background)
//Storyboard Layer 1 (Fail)
//Storyboard Layer 2 (Pass)
//Storyboard Layer 3 (Foreground)
//Storyboard Layer 4 (Overlay)
//Storyboard Sound Samples

[TimingPoints]
137,365.853658536585,4,2,1,40,1,0
7819,-200,4,2,0,40,0,0
11844,-133.333333333333,4,2,1,40,0,0
23551,-100,4,2,1,60,0,1
35258,-133.333333333333,4,2,1,40,0,0
58673,-100,4,2,1,60,0,1
70380,-200,4,2,1,40,0,0
82088,-100,4,2,1,60,0,1
90868,-200,4,2,1,60,0,1
93795,-200,4,2,1,40,0,0

[Colours]
Combo1 : 189,124,205
Combo2 : 198,45,210

[HitObjects]
140,350,7819,6,0,L|60:343,3,70,2|2|2|2,0:0|0:0|0:0|0:0,0:0:0:0:
70,343,10015,6,0,L|209:355,1,140,2|0,0:0|0:0,0:0:0:0:
284,317,11112,2,0,L|353:310,1,70,2|0,0:0|0:0,0:0:0:0:
415,247,11844,1,2,2:0:0:0:
415,247,12576,6,0,L|421:177,1,52.5000020027161,2|0,2:0|0:0,0:0:0:0:
431,35,12941,2,0,L|427:88,1,52.5000020027161
335,174,13307,2,0,L|330:226,1,52.5000020027161,2|0,2:0|0:0,0:0:0:0:
340,89,13673,2,0,L|344:34,1,52.5000020027161
335,174,14039,1,2,2:0:0:0:
335,174,14313,2,0,B|293:177|293:177|253:202|253:202|212:206,1,131.25000500679,0|2,0:0|2:0,0:0:0:0:
212,206,15136,1,0,0:0:0:0:
212,206,15502,6,0,P|186:212|165:227,1,52.5000020027161,2|0,2:0|0:0,0:0:0:0:
20,216,15868,2,0,P|45:219|68:232,1,52.5000020027161
121,306,16234,2,0,L|125:384,2,78.7500030040742,2|0|0,2:0|0:0|0:0,0:0:0:0:
113,160,16966,2,0,L|107:55,2,105.000004005432,2|0|2,2:0|0:0|2:0,0:0:0:0:
113,160,18063,1,0,0:0:0:0:
113,160,18429,6,0,L|188:154,1,52.5000020027161,2|0,2:0|0:0,0:0:0:0:
303,81,18795,2,0,L|228:75,1,52.5000020027161
106,176,19161,2,0,L|210:167,2,105.000004005432,2|0|2,2:0|0:0|2:0,0:0:0:0:
29,232,20076,2,0,P|17:272|35:335,1,105.000004005432
122,384,20624,5,2,2:0:0:0:
145,296,20807,1,0,0:0:0:0:
266,361,20990,2,0,P|228:368|202:360,1,52.5000020027161
322,291,21356,2,0,P|347:320|353:346,1,52.5000020027161,2|0,2:0|0:0,0:0:0:0:
234,278,21722,2,0,P|246:241|266:223,1,52.5000020027161
345,201,22088,1,2,2:0:0:0:
345,201,22454,1,8,2:0:0:0:
383,122,22819,6,0,P|332:115|275:151,1,105.000004005432,0|8,0:0|2:0,0:0:0:0:
285,139,23551,6,0,P|230:179|162:169,1,140,0|8,3:2|2:0,0:0:0:0:
74,129,24100,1,8,2:1:0:0:
151,68,24283,2,0,P|154:33|148:0,1,70,0|0,3:2|0:0,0:0:0:0:
74,129,24649,2,0,P|67:163|71:197,1,70,10|0,2:1|0:0,0:0:0:0:
133,269,25015,1,0,3:2:0:0:
133,269,25380,6,0,P|167:264|201:271,1,70,8|8,2:0|2:1,0:0:0:0:
278,343,25746,1,0,3:2:0:0:
278,343,25929,1,0,0:0:0:0:
342,269,26112,2,0,P|349:234|344:200,1,70,8|0,2:1|0:0,0:0:0:0:
275,66,26478,6,0,P|270:100|277:134,2,70,0|0|8,3:2|0:0|2:0,0:0:0:0:
353,5,27027,1,8,2:1:0:0:
420,77,27210,2,0,L|492:69,1,70,0|0,3:2|0:0,0:0:0:0:
347,142,27576,2,0,L|275:134,1,70,8|0,2:1|0:0,0:0:0:0:
152,213,27941,6,0,L|292:229,1,140,0|8,3:2|2:1,0:0:0:0:
301,235,28673,6,0,L|161:219,1,140,0|8,3:2|2:1,0:0:0:0:
169,224,29405,6,0,L|309:240,1,140,0|8,3:2|2:0,0:0:0:0:
400,291,29954,1,8,2:1:0:0:
458,208,30136,2,0,L|463:137,1,70,0|0,3:2|0:0,0:0:0:0:
400,291,30502,2,0,L|404:360,1,70,8|0,2:1|0:0,0:0:0:0:
308,240,30868,1,0,3:2:0:0:
308,240,31234,6,0,P|274:235|240:242,1,70,8|8,2:0|2:1,0:0:0:0:
161,311,31600,1,0,3:2:0:0:
161,311,31783,1,0,0:0:0:0:
87,237,31966,2,0,P|82:203|89:169,1,70,8|0,2:1|0:0,0:0:0:0:
149,99,32332,1,0,3:2:0:0:
73,55,32515,6,0,L|213:39,1,140,0|8,0:0|2:1,0:0:0:0:
297,94,33063,1,0,3:2:0:0:
297,94,33246,1,0,0:0:0:0:
237,170,33429,2,0,P|229:204|234:238,1,70,8|0,2:1|0:0,0:0:0:0:
310,299,33795,1,0,3:2:0:0:
333,206,33978,2,0,P|388:166|456:176,1,140
476,260,34527,2,0,B|435:270|422:300|422:300|395:281|355:292,1,140,0|0,3:2|0:0,0:0:0:0:
355,292,35258,6,0,P|281:277|224:327,1,157.500006008148,0|8,3:2|2:1,0:0:0:0:
223,327,35990,2,0,P|180:348|115:334,1,105.000004005432,0|8,3:2|2:1,0:0:0:0:
53,278,36539,1,0,0:0:0:0:
127,219,36722,2,0,P|147:176|133:111,1,105.000004005432,0|0,3:2|0:0,0:0:0:0:
75,50,37271,1,8,2:1:0:0:
168,31,37454,6,0,P|194:33|219:40,1,52.5000020027161,0|0,3:2|0:0,0:0:0:0:
298,93,37819,2,0,P|324:90|349:83,1,52.5000020027161,8|0,2:1|0:0,0:0:0:0:
419,19,38185,1,0,3:2:0:0:
419,19,38368,1,0,0:0:0:0:
493,78,38551,2,0,P|499:103|502:129,1,52.5000020027161,0|8,0:0|2:1,0:0:0:0:
442,230,38917,6,0,P|435:205|433:179,2,52.5000020027161,0|0|8,3:2|0:0|2:1,0:0:0:0:
500,307,39466,1,0,0:0:0:0:
415,351,39649,2,0,P|390:344|364:342,1,52.5000020027161,0|0,3:2|0:0,0:0:0:0:
294,278,40015,2,0,P|268:284|242:288,1,52.5000020027161,0|8,0:0|2:1,0:0:0:0:
172,353,40380,2,0,P|122:340|69:334,1,105.000004005432,0|8,3:2|2:1,0:0:0:0:
0,143,41112,6,0,P|74:158|131:108,1,157.500006008148,0|8,3:2|2:1,0:0:0:0:
131,107,41844,2,0,L|116:40,2,52.5000020027161,0|0|8,3:2|0:0|2:1,0:0:0:0:
217,63,42393,1,0,0:0:0:0:
217,63,42576,2,0,P|269:68|319:81,1,105.000004005432,0|0,3:2|0:0,0:0:0:0:
391,144,43124,2,0,P|416:137|442:135,1,52.5000020027161,8|0,2:1|3:2,0:0:0:0:
442,135,43673,6,0,P|416:136|391:144,1,52.5000020027161,8|0,2:1|0:0,0:0:0:0:
309,192,44039,2,0,P|283:184|257:183,2,52.5000020027161,0|0|0,3:2|0:0|0:0,0:0:0:0:
375,259,44588,1,8,2:1:0:0:
318,334,44771,2,0,P|292:341|266:342,1,52.5000020027161,0|0,3:2|0:0,0:0:0:0:
190,288,45136,2,0,P|164:280|138:279,1,52.5000020027161,8|0,2:1|0:0,0:0:0:0:
60,225,45502,6,0,P|46:174|41:122,1,105.000004005432,0|0,3:2|3:2,0:0:0:0:
75,33,46051,1,0,0:0:0:0:
153,87,46234,2,0,P|166:137|171:189,1,105.000004005432,0|8,3:2|2:1,0:0:0:0:
171,190,46966,6,0,P|175:242|189:292,1,105.000004005432,2|2,3:2|2:0,0:0:0:0:
269,344,47515,1,8,2:1:0:0:
343,286,47697,2,0,P|369:289|394:295,1,52.5000020027161,0|0,3:2|0:0,0:0:0:0:
468,237,48063,1,8,2:1:0:0:
468,237,48429,6,0,P|463:184|449:134,1,105.000004005432,2|2,3:2|2:0,0:0:0:0:
374,76,48978,1,8,2:1:0:0:
447,16,49161,1,0,3:2:0:0:
447,16,49344,2,0,P|473:19|498:25,2,52.5000020027161,0|8|0,0:0|2:1|0:0,0:0:0:0:
374,76,49893,6,0,P|321:80|271:94,1,105.000004005432,2|2,3:2|2:0,0:0:0:0:
205,162,50441,1,8,2:1:0:0:
263,235,50624,2,0,P|256:260|253:286,1,52.5000020027161,0|0,3:2|0:0,0:0:0:0:
312,361,50990,1,8,2:1:0:0:
312,361,51356,6,0,L|207:367,2,105.000004005432,2|2|2,3:2|3:2|3:2,0:0:0:0:
166,151,52819,5,2,3:2:0:0:
80,191,53002,2,0,L|54:185,4,26.2500010013581,2|2|2|2|8,2:0|2:0|2:0|2:0|2:1,0:0:0:0:
157,247,53551,2,0,P|207:234|259:229,1,105.000004005432,0|8,3:2|2:1,0:0:0:0:
450,205,54283,5,2,3:2:0:0:
359,180,54466,1,2,2:0:0:0:
354,205,54557,1,2,2:0:0:0:
359,230,54649,2,0,L|351:271,2,26.2500010013581,2|2|8,2:0|2:0|2:1,0:0:0:0:
259,228,55015,2,0,P|233:231|208:237,1,52.5000020027161,0|0,3:2|0:0,0:0:0:0:
126,286,55380,2,0,P|99:282|74:276,1,52.5000020027161,8|0,2:1|0:0,0:0:0:0:
14,203,55746,5,2,3:2:0:0:
53,117,55929,2,0,P|51:103|48:91,4,26.2500010013581,2|2|2|2|8,2:0|2:0|2:0|2:0|2:1,0:0:0:0:
134,166,56478,2,0,P|160:162|185:156,1,52.5000020027161,0|0,3:2|0:0,0:0:0:0:
252,88,56844,2,0,P|304:92|354:106,1,105.000004005432,8|0,2:1|3:2,0:0:0:0:
440,276,57576,5,8,2:0:0:0:
440,276,58307,1,8,2:0:0:0:
256,320,58673,5,0,3:2:0:0:
256,320,59039,2,0,P|222:309|188:310,1,70,8|8,2:0|2:1,0:0:0:0:
110,248,59405,2,0,P|99:214|100:180,1,70,0|0,3:2|0:0,0:0:0:0:
64,88,59771,2,0,P|119:128|186:118,1,140,8|0,2:1|3:2,0:0:0:0:
187,118,60502,6,0,P|220:107|254:108,1,70,8|8,2:0|2:1,0:0:0:0:
331,171,60868,2,0,P|364:181|398:180,1,70,0|0,3:2|0:0,0:0:0:0:
478,121,61234,2,0,L|496:260,1,140,8|0,2:1|3:2,0:0:0:0:
495,259,61966,5,8,2:0:0:0:
438,339,62149,1,8,2:1:0:0:
355,287,62332,2,0,P|320:285|287:296,1,70,0|0,3:2|0:0,0:0:0:0:
225,372,62697,2,0,L|155:363,1,70,8|0,2:1|0:0,0:0:0:0:
59,345,63063,5,0,3:2:0:0:
59,345,63429,2,0,L|68:275,1,70,8|0,2:1|0:0,0:0:0:0:
86,179,63795,1,0,3:2:0:0:
86,179,64161,2,0,L|95:109,1,70,8|0,2:1|0:0,0:0:0:0:
160,246,64527,6,0,P|227:255|282:215,1,140,0|8,3:2|2:0,0:0:0:0:
318,124,65076,1,8,2:1:0:0:
239,67,65258,2,0,P|237:32|248:-1,2,70,0|0|8,3:2|0:0|2:1,0:0:0:0:
318,124,65807,1,0,0:0:0:0:
409,87,65990,6,0,L|427:226,1,140,0|8,3:2|2:0,0:0:0:0:
482,308,66539,1,8,2:1:0:0:
402,365,66722,2,0,L|332:356,1,70,0|0,3:2|0:0,0:0:0:0:
256,294,67088,2,0,L|186:303,1,70,8|0,2:1|0:0,0:0:0:0:
52,362,67454,6,0,L|122:371,2,70,0|0|8,3:2|0:0|2:0,0:0:0:0:
0,279,68002,1,8,2:1:0:0:
73,214,68185,2,0,P|83:180|81:146,1,70,0|0,3:2|0:0,0:0:0:0:
37,64,68551,1,8,2:1:0:0:
37,64,68734,1,0,0:0:0:0:
122,15,68917,2,0,B|158:2|190:15|190:15|222:27|258:15,1,140,0|0,3:2|0:0,0:0:0:0:
259,15,69649,5,0,3:2:0:0:
336,40,69832,1,0,0:0:0:0:
336,121,70015,1,0,0:0:0:0:
259,147,70197,1,0,0:0:0:0:
210,80,70380,6,0,L|106:75,1,105,2|0,2:0|0:0,0:0:0:0:
106,75,71112,1,2,2:0:0:0:
36,143,71478,1,0,0:0:0:0:
98,215,71844,2,0,P|114:267|97:317,1,105,2|0,2:0|0:0,0:0:0:0:
90,321,72576,2,0,L|44:327,2,35,2|0|0,2:0|0:0|0:0,0:0:0:0:
172,360,73307,6,0,L|276:365,1,105,2|0,2:0|0:0,0:0:0:0:
290,361,74039,2,0,L|335:363,2,35,2|0|0,2:0|0:0|0:0,0:0:0:0:
237,285,74771,2,0,P|229:250|217:218,1,70,2|0,2:0|0:0,0:0:0:0:
283,150,75502,2,0,P|290:115|302:83,1,70,2|0,2:0|0:0,0:0:0:0:
230,17,76234,6,0,L|125:22,1,105,2|0,2:0|0:0,0:0:0:0:
115,31,76966,2,0,L|41:34,1,70,2|0,2:0|0:0,0:0:0:0:
0,122,77697,1,2,2:0:0:0:
89,163,78063,6,0,L|123:161,2,35,0|0|2,0:0|0:0|2:0,0:0:0:0:
32,243,78795,1,0,0:0:0:0:
102,319,79161,1,2,2:0:0:0:
102,319,79344,2,0,L|206:313,1,105,0|2,0:0|2:0,0:0:0:0:
296,354,80258,1,0,0:0:0:0:
354,275,80624,2,0,L|388:273,1,35,2|0,2:0|0:0,0:0:0:0:
446,194,80990,5,8,2:0:0:0:
446,194,81722,1,8,2:0:0:0:
255,78,82088,6,0,P|185:80|117:63,1,140,0|8,3:2|2:0,0:0:0:0:
31,107,82636,1,8,2:1:0:0:
85,189,82819,2,0,P|93:222|93:257,1,70,0|0,3:2|0:0,0:0:0:0:
164,384,83185,2,0,P|164:349|172:315,1,70,8|0,2:1|0:0,0:0:0:0:
256,263,83551,1,0,3:2:0:0:
256,263,83917,2,0,P|290:263|324:271,1,70,8|8,2:0|2:1,0:0:0:0:
413,327,84283,5,0,3:2:0:0:
413,327,84466,1,0,0:0:0:0:
463,243,84649,2,0,P|463:210|454:172,1,70,8|0,2:1|0:0,0:0:0:0:
375,116,85015,2,0,P|340:116|306:124,1,70,0|0,3:2|0:0,0:0:0:0:
235,191,85380,1,8,2:0:0:0:
235,191,85563,1,8,2:1:0:0:
159,129,85746,2,0,P|150:95|150:60,1,70,0|0,3:2|0:0,0:0:0:0:
235,191,86112,2,0,P|243:224|243:259,1,70,8|0,2:1|0:0,0:0:0:0:
78,333,86478,6,0,L|218:349,1,140,0|8,3:2|2:1,0:0:0:0:
227,355,87210,6,0,L|87:339,1,140,0|8,3:2|2:1,0:0:0:0:
95,344,87941,6,0,L|235:360,1,140,0|8,3:2|2:0,0:0:0:0:
326,325,88490,1,8,2:1:0:0:
269,246,88673,2,0,L|273:176,1,70,0|0,3:2|0:0,0:0:0:0:
200,36,89039,2,0,L|204:105,1,70,8|0,2:1|0:0,0:0:0:0:
273,176,89405,1,0,3:2:0:0:
273,176,89771,6,0,L|342:172,1,70,8|8,2:0|2:1,0:0:0:0:
421,111,90136,1,0,3:2:0:0:
421,111,90319,1,0,0:0:0:0:
486,185,90502,2,0,P|493:219|488:253,1,70,8|0,2:1|0:0,0:0:0:0:
421,326,90868,6,0,L|281:342,3,140,0|0|0|0,3:2|3:2|3:2|3:2,0:0:0:0:
256,192,93795,5,8,3:2:0:0:
