osu file format v14

[General]
AudioFilename: audio.mp3
AudioLeadIn: 0
PreviewTime: 23551
Countdown: 0
SampleSet: Soft
StackLeniency: 0.3
Mode: 0
LetterboxInBreaks: 0
WidescreenStoryboard: 1

[Editor]
DistanceSpacing: 4.9
BeatDivisor: 4
GridSize: 16
TimelineZoom: 2.000001

[Metadata]
Title:Cuando Perriabas
TitleUnicode:Cuando Perriabas
Artist:Bad Bunny
ArtistUnicode:Bad Bunny
Creator:Ulqui
Version:Tatan's Normal
Source:
Tags:reggaeton latin trap x100pre rimas entertainment hip hop tainy bellaqueo plan b spanish espaƱol dancehall reggae pop urban tatan pkhg cut
BeatmapID:2229634
BeatmapSetID:919932

[Difficulty]
HPDrainRate:4
CircleSize:3.2
OverallDifficulty:4
ApproachRate:5
SliderMultiplier:1.1
SliderTickRate:1

[Events]
//Background and Video events
0,0,"Konachan.com - 211981 sample (1).jpg",0,0
//Break Periods
2,70580,77961
//Storyboard Layer 0 (Background)
//Storyboard Layer 1 (Fail)
//Storyboard Layer 2 (Pass)
//Storyboard Layer 3 (Foreground)
//Storyboard Layer 4 (Overlay)
//Storyboard Sound Samples

[TimingPoints]
137,365.853658536585,4,2,1,40,1,0
7819,-100,4,2,0,40,0,0
11844,-100,4,2,1,40,0,0
23551,-100,4,2,1,60,0,1
35258,-100,4,2,1,40,0,0
58673,-100,4,2,1,60,0,1
70380,-100,4,2,1,40,0,0
82088,-100,4,2,1,60,0,1
93795,-100,4,2,1,40,0,0

[Colours]
Combo1 : 189,124,205
Combo2 : 198,45,210

[HitObjects]
279,8,7819,6,0,L|410:22,3,110,2|2|2|2,0:0|0:0|0:0|0:0,0:0:0:0:
389,20,10015,6,0,B|283:24|283:24|179:81|179:81|74:84,1,330,2|0,0:0|0:0,0:0:0:0:
74,85,11844,6,0,P|132:106|105:229,1,165,2|0,2:0|0:0,0:0:0:0:
103,238,12576,2,0,P|90:306|114:363,1,110,2|0,2:0|0:0,0:0:0:0:
199,293,13307,1,2,2:0:0:0:
282,365,13673,1,0,0:0:0:0:
369,297,14039,1,2,2:0:0:0:
369,297,14222,2,0,P|378:228|359:166,1,110
355,133,14771,6,0,P|424:134|483:88,2,110,2|0|2,2:0|0:0|2:0,0:0:0:0:
264,69,15868,1,0,0:0:0:0:
181,142,16234,2,0,P|165:214|214:300,1,165,2|0,2:0|0:0,0:0:0:0:
253,318,16966,2,0,P|295:293|362:291,1,110,2|0,2:0|0:0,0:0:0:0:
457,329,17697,6,0,P|494:239|475:178,1,165,2|0,2:0|0:0,0:0:0:0:
437,137,18429,2,0,P|409:133|382:138,1,55,2|0,2:0|0:0,0:0:0:0:
334,164,18795,2,0,P|307:168|279:164,1,55
232,135,19161,2,0,P|248:87|229:21,1,110,2|0,2:0|0:0,0:0:0:0:
124,27,19893,1,2,2:0:0:0:
124,27,20076,2,0,P|108:75|127:141,1,110
153,176,20624,6,0,P|169:227|156:280,1,110,2|0,2:0|0:0,0:0:0:0:
79,365,21356,1,2,2:0:0:0:
187,384,21722,1,0,0:0:0:0:
155,280,22088,1,2,2:0:0:0:
155,279,23551,6,0,P|200:250|254:252,1,110,0|8,3:2|2:0,0:0:0:0:
292,292,24100,1,8,2:1:0:0:
292,292,24283,2,0,P|356:309|407:290,1,110,0|8,3:2|2:1,0:0:0:0:
483,229,25015,1,0,3:2:0:0:
437,129,25380,1,8,2:0:0:0:
477,26,25746,6,0,P|415:6|357:25,1,110,0|8,3:2|2:1,0:0:0:0:
332,53,26295,1,0,0:0:0:0:
332,53,26478,2,0,P|278:62|227:42,1,110,0|8,3:2|2:0,0:0:0:0:
125,1,27210,2,0,L|117:110,1,110,0|8,3:2|2:1,0:0:0:0:
87,157,27758,1,0,0:0:0:0:
87,157,27941,2,0,L|95:277,1,110,0|8,3:2|2:1,0:0:0:0:
204,263,28673,2,0,L|196:143,1,110,0|8,3:2|2:1,0:0:0:0:
285,88,29405,6,0,P|341:82|396:121,1,110,0|8,3:2|2:0,0:0:0:0:
415,154,29954,1,8,2:1:0:0:
415,154,30136,2,0,P|387:209|396:258,1,110,0|8,3:2|2:1,0:0:0:0:
439,358,30868,2,0,L|324:362,1,110,0|8,3:2|2:0,0:0:0:0:
245,289,31600,6,0,L|248:219,2,55,0|0|8,3:2|0:0|2:1,0:0:0:0:
152,349,32332,2,0,P|115:286|141:190,1,165,0|8,3:2|2:1,0:0:0:0:
173,162,33063,2,0,P|190:110|169:45,1,110,0|8,3:2|2:1,0:0:0:0:
77,103,33795,1,0,3:2:0:0:
77,103,34527,1,0,3:2:0:0:
77,103,35258,6,0,L|210:95,1,110,0|0,3:2|0:0,0:0:0:0:
230,130,35807,1,8,2:1:0:0:
230,130,35990,2,0,L|363:122,1,110,0|8,3:2|2:1,0:0:0:0:
422,50,36722,2,0,P|379:112|407:199,1,165,0|8,3:2|2:1,0:0:0:0:
441,231,37454,6,0,P|460:272|451:345,1,110,0|8,3:2|2:1,0:0:0:0:
349,364,38185,2,0,P|293:336|227:355,1,110,0|0,3:2|0:0,0:0:0:0:
195,360,38734,1,8,2:1:0:0:
195,360,38917,2,0,L|189:237,1,110,0|8,3:2|2:1,0:0:0:0:
126,159,39649,2,0,P|170:141|240:154,1,110,0|0,3:2|0:0,0:0:0:0:
279,173,40197,1,8,2:1:0:0:
279,173,40380,2,0,P|332:181|383:162,1,110,0|8,3:2|2:1,0:0:0:0:
448,73,41112,6,0,P|426:138|454:246,1,165,0|8,3:2|2:1,0:0:0:0:
484,268,41844,1,0,3:2:0:0:
407,346,42210,1,8,2:1:0:0:
305,303,42576,2,0,L|172:310,1,110,0|0,3:2|0:0,0:0:0:0:
128,220,43307,2,0,L|237:214,1,110,0|8,3:2|2:1,0:0:0:0:
293,210,43856,1,0,0:0:0:0:
347,202,44039,6,0,P|376:140|339:48,1,165,0|8,3:2|2:1,0:0:0:0:
294,34,44771,1,0,3:2:0:0:
222,117,45136,1,8,2:1:0:0:
119,77,45502,2,0,P|114:139|139:190,2,110,0|0|0,3:2|3:2|3:2,0:0:0:0:
214,22,46600,1,8,2:1:0:0:
320,50,46966,6,0,B|317:120|317:120|279:189|279:189|277:259,1,220,2|0,3:2|3:2,0:0:0:0:
379,299,48063,2,0,B|325:258|325:258|166:263,1,220,8|2,2:1|2:0,0:0:0:0:
110,353,49161,2,0,B|219:349,1,110,0|8,3:2|2:1,0:0:0:0:
156,258,49893,2,0,B|135:180|135:180|170:91,1,165,2|8,3:2|2:1,0:0:0:0:
209,68,50624,1,0,3:2:0:0:
270,159,50990,1,8,2:1:0:0:
337,71,51356,2,0,B|392:60|392:60|441:80,2,110,2|2|2,3:2|3:2|3:2,0:0:0:0:
337,71,52819,6,0,B|385:131|385:131|365:291,1,220,2|0,3:2|3:2,0:0:0:0:
448,347,53917,2,0,B|402:371|402:371|286:357|286:357|247:323,1,220,8|2,2:1|2:0,0:0:0:0:
147,370,55015,2,0,L|140:244,1,110,0|8,3:2|2:1,0:0:0:0:
131,150,55746,1,2,3:2:0:0:
124,40,56112,1,2,2:0:0:0:
217,97,56478,2,0,B|273:107|273:107|340:93,2,110,0|8|0,3:2|2:1|3:2,0:0:0:0:
217,97,58673,5,0,3:2:0:0:
306,33,59039,2,0,L|385:28,1,55,8|8,2:0|2:1,0:0:0:0:
416,29,59405,1,0,3:2:0:0:
416,29,59588,2,0,P|438:78|405:196,1,165,0|0,0:0|3:2,0:0:0:0:
426,292,60502,6,0,L|359:289,1,55,8|8,2:0|2:1,0:0:0:0:
337,252,60868,1,0,3:2:0:0:
337,252,61051,2,0,L|149:244,1,165,0|0,0:0|3:2,0:0:0:0:
71,286,61966,6,0,P|66:253|74:211,1,55,8|8,2:0|2:1,0:0:0:0:
101,187,62332,1,0,3:2:0:0:
101,187,62515,2,0,P|126:106|79:19,1,165,0|0,0:0|3:2,0:0:0:0:
96,35,63795,1,0,3:2:0:0:
96,35,64527,6,0,P|46:93|57:179,1,165,0|8,3:2|2:1,0:0:0:0:
94,215,65258,2,0,P|121:258|108:337,2,110,0|8|0,3:2|2:1|3:2,0:0:0:0:
17,292,66356,2,0,L|247:282,1,220,8|8,2:0|2:1,0:0:0:0:
344,304,67454,6,0,P|327:251|340:192,1,110,0|8,3:2|2:0,0:0:0:0:
376,160,68002,1,8,2:1:0:0:
376,160,68185,2,0,P|393:99|368:36,1,110,0|8,3:2|2:1,0:0:0:0:
276,89,68917,1,0,3:2:0:0:
176,42,69283,1,0,0:0:0:0:
78,93,69649,2,0,L|75:147,3,55,0|0|0|0,3:2|0:0|0:0|0:0,0:0:0:0:
74,202,70380,5,2,2:0:0:0:
256,192,79161,12,2,80624,2:0:0:0:
171,35,82088,6,0,L|174:163,1,110,0|8,3:2|2:0,0:0:0:0:
182,199,82636,1,8,2:1:0:0:
182,199,82819,2,0,P|246:182|297:201,1,110,0|8,3:2|2:1,0:0:0:0:
369,267,83551,1,0,3:2:0:0:
414,167,83917,1,8,2:0:0:0:
363,69,84283,6,0,L|238:61,1,110,0|8,3:2|2:1,0:0:0:0:
211,25,84832,1,0,0:0:0:0:
211,25,85015,2,0,L|86:33,1,110,0|8,3:2|2:0,0:0:0:0:
1,77,85746,2,0,P|48:123|45:180,1,110,0|8,3:2|2:1,0:0:0:0:
43,219,86295,1,0,0:0:0:0:
43,219,86478,2,0,P|108:196|162:212,2,110,0|8|0,3:2|2:1|3:2,0:0:0:0:
1,321,87576,1,8,2:1:0:0:
92,381,87941,6,0,L|219:373,1,110,0|8,3:2|2:0,0:0:0:0:
256,368,88490,1,8,2:1:0:0:
256,368,88673,2,0,P|262:311|232:257,1,110,0|8,3:2|2:1,0:0:0:0:
134,230,89405,2,0,P|199:236|278:167,1,165,0|8,3:2|2:1,0:0:0:0:
256,124,90136,6,0,P|301:100|322:100,1,55,0|0,3:2|0:0,0:0:0:0:
336,55,90502,2,0,P|385:65|401:79,1,55,8|0,2:1|0:0,0:0:0:0:
421,111,90868,1,0,3:2:0:0:
421,111,91600,6,0,B|532:82|572:216|454:297|371:196|393:187|358:149|273:170|273:170|256:198|268:233|268:233|268:233|253:174|174:163|133:246|178:302|241:286,1,660,0|8,3:2|3:2,0:0:0:0:
