osu file format v14

[General]
AudioFilename: audio.mp3
AudioLeadIn: 0
PreviewTime: 23551
Countdown: 0
SampleSet: Soft
StackLeniency: 0.3
Mode: 0
LetterboxInBreaks: 0
WidescreenStoryboard: 1

[Editor]
Bookmarks: 137,35258,58673,70380,82088,93795
DistanceSpacing: 4.9
BeatDivisor: 4
GridSize: 32
TimelineZoom: 2.100001

[Metadata]
Title:Cuando Perriabas
TitleUnicode:Cuando Perriabas
Artist:Bad Bunny
ArtistUnicode:Bad Bunny
Creator:Ulqui
Version:Tatan's Noche de Seduccion
Source:
Tags:reggaeton latin trap x100pre rimas entertainment hip hop tainy bellaqueo plan b spanish espaƱol dancehall reggae pop urban tatan pkhg cut
BeatmapID:2228879
BeatmapSetID:919932

[Difficulty]
HPDrainRate:5
CircleSize:4
OverallDifficulty:8.5
ApproachRate:9
SliderMultiplier:1.2
SliderTickRate:1

[Events]
//Background and Video events
0,0,"Konachan.com - 211981 sample (1).jpg",0,0
//Break Periods
//Storyboard Layer 0 (Background)
//Storyboard Layer 1 (Fail)
//Storyboard Layer 2 (Pass)
//Storyboard Layer 3 (Foreground)
//Storyboard Layer 4 (Overlay)
//Storyboard Sound Samples

[TimingPoints]
137,365.853658536585,4,2,1,40,1,0
7819,-100,4,2,0,40,0,0
10380,-100,4,2,1,40,0,0
11020,-100,4,2,1,5,0,0
11112,-100,4,2,1,40,0,0
11752,-100,4,2,1,5,0,0
11844,-100,4,2,1,40,0,0
12484,-100,4,2,1,5,0,0
12576,-80,4,2,1,40,0,0
13947,-80,4,2,1,5,0,0
14039,-80,4,2,1,40,0,0
15136,-100,4,2,1,40,0,0
15502,-80,4,2,1,40,0,0
18063,-100,4,2,1,40,0,0
18429,-80,4,2,1,40,0,0
19435,-80,4,2,1,5,0,0
19527,-80,4,2,1,40,0,0
19801,-80,4,2,1,5,0,0
19893,-80,4,2,1,40,0,0
21996,-80,4,2,1,5,0,0
22088,-80,4,2,1,40,0,0
22545,-80,4,2,1,5,0,0
23185,-80,4,2,1,40,0,0
23551,-50,4,2,1,60,0,1
24923,-50,4,2,1,5,0,1
25015,-50,4,2,1,60,0,1
25655,-50,4,2,1,5,0,1
25746,-50,4,2,1,60,0,1
27941,-133.333333333333,4,2,1,60,0,1
28307,-66.6666666666667,4,2,1,60,0,1
28947,-66.6666666666667,4,2,1,5,0,1
29039,-100,4,2,1,60,0,1
29313,-100,4,2,1,5,0,1
29405,-50,4,2,1,60,0,1
29679,-50,4,2,1,5,0,1
29771,-50,4,2,1,60,0,1
33795,-133.333333333333,4,2,1,60,0,1
35167,-133.333333333333,4,2,1,5,0,1
35258,-133.333333333333,4,2,1,40,0,0
35990,-100,4,2,1,40,0,0
36996,-100,4,2,1,5,0,0
37088,-100,4,2,1,40,0,0
41569,-100,4,2,1,5,0,0
41661,-100,4,2,1,40,0,0
43307,-133.333333333333,4,2,1,40,0,0
46600,-100,4,2,1,40,0,0
58673,-100,4,2,1,60,0,1
59405,-50,4,2,1,60,0,1
59771,-33.3333333333333,4,2,1,60,0,1
60502,-100,4,2,1,60,0,1
60868,-50,4,2,1,60,0,1
61234,-33.3333333333333,4,2,1,60,0,1
61966,-100,4,2,1,60,0,1
62332,-50,4,2,1,60,0,1
62697,-33.3333333333333,4,2,1,60,0,1
63429,-133.333333333333,4,2,1,60,0,1
64893,-100,4,2,1,60,0,1
65258,-50,4,2,1,60,0,1
65624,-33.3333333333333,4,2,1,60,0,1
66356,-100,4,2,1,60,0,1
66722,-50,4,2,1,60,0,1
67088,-33.3333333333333,4,2,1,60,0,1
67819,-100,4,2,1,60,0,1
68185,-50,4,2,1,60,0,1
68551,-33.3333333333333,4,2,1,60,0,1
70380,-100,4,2,1,40,0,0
82088,-44.4444444444445,4,2,1,60,0,1
84191,-44.4444444444445,4,2,1,5,0,1
84283,-44.4444444444445,4,2,1,60,0,1
86478,-133.333333333333,4,2,1,60,0,1
86752,-133.333333333333,4,2,1,5,0,1
86844,-66.6666666666667,4,2,1,60,0,1
87210,-133.333333333333,4,2,1,60,0,1
87484,-133.333333333333,4,2,1,5,0,1
87576,-66.6666666666667,4,2,1,60,0,1
87941,-44.4444444444445,4,2,1,60,0,1
88216,-44.4444444444445,4,2,1,5,0,1
88307,-44.4444444444445,4,2,1,60,0,1
89313,-44.4444444444445,4,2,1,5,0,1
89405,-44.4444444444445,4,2,1,60,0,1
91600,-133.333333333333,4,2,1,60,0,1
93063,-200,4,2,1,60,0,1
93795,-200,4,2,1,40,0,0

[Colours]
Combo1 : 189,124,205
Combo2 : 198,45,210

[HitObjects]
256,192,5990,12,0,7454,2:0:0:0:
64,192,7819,6,0,P|101:179|126:180,1,60,2|0,2:0|2:0,2:0:0:0:
143,88,8185,2,0,P|178:104|195:123,1,60,2|0,2:0|2:0,2:0:0:0:
272,70,8551,2,0,P|285:106|284:132,1,60,2|0,2:0|2:0,2:0:0:0:
191,234,8917,2,0,P|256:203|230:316,1,240,2|0,2:0|2:0,2:0:0:0:
105,344,10015,2,0,P|146:326|179:327,1,60,2|0,2:0|2:0,2:0:0:0:
14,384,10380,6,0,B|-11:334|14:283|14:283|39:233|14:183,1,210,0|0,3:0|2:0,2:0:0:0:
0,181,11112,2,0,B|25:231|0:282|0:282|-25:332|0:382,1,210,0|0,3:0|2:0,2:0:0:0:
14,384,11844,1,2,2:0:0:0:
330,57,12210,6,0,P|376:46|419:57,1,90,0|0,2:0|2:0,2:0:0:0:
414,72,12576,2,0,P|360:62|323:76,1,75,2|0,2:0|2:0,2:0:0:0:
190,164,12941,2,0,P|227:169|263:158,1,75,0|0,2:0|2:0,2:0:0:0:
414,72,13307,6,0,P|396:124|407:179,1,112.5,2|0,2:0|2:0,2:0:0:0:
422,181,13673,2,0,P|431:244|408:298,1,112.5,0|0,2:0|2:0,2:0:0:0:
397,291,14039,1,2,2:0:0:0:
246,363,14313,2,0,B|284:351|304:315|304:315|319:354|351:372,1,150,0|0,2:0|2:0,2:0:0:0:
368,371,14771,1,2,2:0:0:0:
96,160,15136,6,0,P|67:214|69:262,1,90,0|0,2:0|2:0,2:0:0:0:
80,243,15502,2,0,P|82:205|100:172,1,75,2|0,2:0|2:0,2:0:0:0:
268,189,15868,1,0,2:0:0:0:
180,238,16051,1,0,2:0:0:0:
221,105,16234,2,0,P|271:93|351:137,2,112.5,2|0|0,2:0|2:0|2:0,2:0:0:0:
362,229,16966,2,0,P|379:106|453:162,1,262.5,2|0,2:0|2:0,2:0:0:0:
441,171,17697,1,2,2:0:0:0:
80,132,18063,6,0,P|68:89|38:57,1,90,0|0,2:0|2:0,2:0:0:0:
49,49,18429,2,0,P|75:77|91:110,1,75,2|0,2:0|2:0,2:0:0:0:
212,163,18795,2,0,P|178:179|152:205,1,75,0|0,2:0|2:0,2:0:0:0:
37,322,19161,6,0,P|106:304|147:324,1,112.5,2|0,2:0|2:0,2:0:0:0:
147,345,19527,2,0,P|216:363|257:343,1,112.5,0|0,2:0|2:0,2:0:0:0:
247,330,19893,1,2,2:0:0:0:
379,191,20076,2,0,P|340:261|346:352,1,150,0|0,2:0|2:0,2:0:0:0:
467,209,20624,6,0,P|465:161|440:124,1,75,2|0,2:0|2:0,2:0:0:0:
310,167,20990,2,0,P|352:189|397:186,1,75,0|0,2:0|2:0,2:0:0:0:
424,52,21356,2,0,P|383:77|363:117,1,75,2|0,2:0|2:0,2:0:0:0:
487,108,21722,2,0,P|473:53|484:0,1,112.5,0|0,2:0|2:0,2:0:0:0:
505,2,22088,1,2,2:0:0:0:
90,81,22454,6,0,L|53:83,1,37.5,8|0,2:0|2:0,2:0:0:0:
49,75,23185,2,0,L|86:74,1,37.5,8|0,2:0|2:0,2:0:0:0:
388,24,23551,6,0,P|298:88|318:170,1,180,0|0,3:2|2:0,2:0:0:0:
314,152,23917,1,8,2:0:0:0:
446,118,24100,1,8,2:1:0:0:
346,243,24283,2,0,P|283:250|228:217,1,120,0|0,3:2|2:0,2:0:0:0:
461,132,24649,2,0,P|440:217|491:350,1,180,8|0,2:1|2:0,2:0:0:0:
473,309,25015,1,0,3:2:0:0:
473,309,25380,6,0,B|415:311|415:311|358:341|358:341|300:343,1,180,8|0,2:0|2:0,2:0:0:0:
287,333,25746,1,0,3:2:0:0:
272,155,25929,1,0,2:0:0:0:
331,256,26112,1,8,2:1:0:0:
225,264,26295,1,0,2:0:0:0:
356,108,26478,1,0,3:2:0:0:
377,351,26661,1,0,2:0:0:0:
122,187,26844,5,8,2:0:0:0:
266,174,27027,1,8,2:1:0:0:
278,317,27210,1,0,3:2:0:0:
134,330,27393,1,0,2:0:0:0:
189,115,27576,1,8,2:1:0:0:
213,383,27758,1,0,2:0:0:0:
37,255,27941,6,0,L|42:168,1,67.5000025749207,0|0,3:2|2:0,2:0:0:0:
53,178,28307,2,0,L|47:267,1,90.0000034332277,8|0,2:1|2:0,2:0:0:0:
0,98,28673,6,0,P|53:82|133:123,1,135.000005149841,0|0,3:2|2:0,2:0:0:0:
128,128,29039,2,0,P|166:157|211:160,1,90.0000034332277,8|0,2:1|2:0,2:0:0:0:
303,28,29405,6,0,B|281:71|303:114|303:114|324:158|303:201,1,180,0|0,3:2|2:0,2:0:0:0:
285,204,29771,1,8,2:0:0:0:
197,62,29954,1,8,2:1:0:0:
224,275,30136,2,0,P|277:298|334:284,1,120,0|0,3:2|2:0,2:0:0:0:
167,190,30502,2,0,P|120:259|174:368,1,180,8|0,2:1|2:0,2:0:0:0:
162,347,30868,1,0,3:2:0:0:
162,347,31234,5,8,2:0:0:0:
305,215,31417,1,8,2:1:0:0:
110,250,31600,1,0,3:2:0:0:
272,350,31783,1,0,2:0:0:0:
232,159,31966,1,8,2:1:0:0:
204,269,32149,1,0,2:1:0:0:
325,213,32332,1,0,3:2:0:0:
156,82,32515,2,0,P|124:141|140:212,1,120,0|8,2:0|2:0,2:0:0:0:
418,289,32880,5,8,2:1:0:0:
403,127,33063,1,0,3:2:0:0:
241,141,33246,1,0,2:0:0:0:
256,302,33429,1,8,2:1:0:0:
329,214,33612,1,0,2:0:0:0:
229,133,33795,2,0,L|161:136,1,60.0000022888184,0|0,3:2|2:0,2:0:0:0:
72,127,34527,6,0,L|242:119,1,157.500006008148,0|0,3:2|2:0,2:0:0:0:
229,133,35258,5,0,3:2:0:0:
458,85,35624,5,0,2:0:0:0:
348,113,35807,1,8,2:1:0:0:
471,180,35990,2,0,P|442:190|420:209,1,60,0|0,3:2|2:0,2:0:0:0:
361,118,36356,2,0,P|345:143|341:173,1,60,8|0,2:1|2:0,2:0:0:0:
471,300,36722,6,0,L|366:292,1,90,0|0,3:2|2:0,2:0:0:0:
365,281,37088,2,0,L|294:286,1,60,0|8,2:0|2:1,2:0:0:0:
155,291,37454,5,0,3:2:0:0:
224,239,37636,1,0,2:0:0:0:
231,329,37819,1,8,2:1:0:0:
138,292,38002,1,0,2:0:0:0:
230,223,38185,1,0,3:2:0:0:
240,343,38368,1,0,2:0:0:0:
154,120,38551,5,0,2:0:0:0:
71,83,38734,1,8,2:1:0:0:
10,149,38917,1,0,3:2:0:0:
55,227,39100,1,0,2:0:0:0:
144,208,39283,1,8,2:1:0:0:
0,141,39466,1,0,2:0:0:0:
177,41,39649,5,0,3:2:0:0:
266,51,39832,1,0,2:0:0:0:
257,140,40015,1,0,2:0:0:0:
167,131,40197,1,8,2:1:0:0:
274,43,40380,2,0,L|345:38,1,60,0|0,3:2|2:0,2:0:0:0:
158,136,40746,2,0,L|98:131,1,60,8|0,2:1|2:0,2:0:0:0:
345,124,41112,6,0,P|416:122|391:190,1,150,0|0,3:2|2:0,2:0:0:0:
396,190,41661,1,8,2:1:0:0:
226,195,41844,2,0,P|279:194|300:204,1,60,0|0,3:2|2:0,2:0:0:0:
424,282,42210,2,0,P|394:286|365:280,1,60,8|0,2:1|2:0,2:0:0:0:
226,195,42576,6,0,P|271:233|274:305,1,120,0|0,3:2|2:0,2:0:0:0:
197,351,43124,1,8,2:1:0:0:
222,215,43307,2,0,P|255:241|261:291,1,90.0000034332277,0|8,3:2|2:1,2:0:0:0:
185,361,43856,1,0,2:0:0:0:
54,321,44039,5,0,3:2:0:0:
38,239,44222,1,0,2:0:0:0:
104,183,44405,1,0,2:0:0:0:
120,265,44588,1,8,2:1:0:0:
15,155,44771,5,0,3:2:0:0:
193,194,44954,1,0,2:0:0:0:
68,92,45136,1,8,2:1:0:0:
180,116,45319,1,0,2:0:0:0:
89,260,45502,5,0,3:2:0:0:
137,37,45685,1,0,2:0:0:0:
172,276,45868,5,0,3:2:0:0:
210,97,46051,1,0,2:0:0:0:
259,294,46234,5,0,3:2:0:0:
289,151,46417,1,0,2:0:0:0:
172,276,46600,2,0,L|175:341,1,60,8|0,2:1|2:0,2:0:0:0:
384,246,46966,5,2,3:2:0:0:
267,309,47149,1,2,2:0:0:0:
284,325,47240,1,2,2:0:0:0:
317,310,47332,1,2,2:0:0:0:
356,338,47423,1,2,2:0:0:0:
413,318,47515,1,8,2:1:0:0:
289,151,47697,6,0,L|293:217,1,60,0|0,3:2|2:0,2:0:0:0:
408,113,48063,1,8,2:1:0:0:
384,246,48246,1,0,2:0:0:0:
287,67,48429,5,2,3:2:0:0:
231,48,48521,1,2,2:0:0:0:
192,76,48612,1,2,2:0:0:0:
159,61,48704,1,2,2:0:0:0:
142,77,48795,1,2,2:0:0:0:
122,69,48886,1,2,2:0:0:0:
111,75,48978,1,8,2:1:0:0:
46,233,49161,6,0,L|50:167,1,60,0|0,3:2|2:0,2:0:0:0:
168,296,49527,1,8,2:1:0:0:
144,163,49710,1,0,2:0:0:0:
31,340,49893,5,2,3:2:0:0:
48,333,49984,1,2,2:0:0:0:
73,344,50076,1,2,2:0:0:0:
106,317,50167,1,2,2:0:0:0:
154,332,50258,1,2,2:0:0:0:
204,301,50350,1,2,2:0:0:0:
269,324,50441,1,8,2:1:0:0:
451,287,50624,5,0,3:2:0:0:
423,210,50807,1,0,2:0:0:0:
371,272,50990,2,0,L|376:344,1,60,8|0,2:1|2:0,2:0:0:0:
418,130,51356,5,2,3:2:0:0:
390,128,51447,1,2,2:0:0:0:
350,160,51539,1,2,2:0:0:0:
298,150,51630,1,2,2:0:0:0:
277,169,51722,1,2,3:2:0:0:
493,182,51905,1,2,2:0:0:0:
370,33,52088,5,2,3:2:0:0:
357,33,52179,1,2,2:0:0:0:
342,49,52271,1,2,2:0:0:0:
320,43,52362,1,2,2:0:0:0:
299,73,52454,1,2,2:0:0:0:
252,68,52545,1,2,2:0:0:0:
212,112,52636,1,2,2:0:0:0:
114,201,52819,5,2,3:2:0:0:
107,191,52911,1,2,2:0:0:0:
113,170,53002,1,2,2:0:0:0:
96,155,53094,1,2,2:0:0:0:
108,120,53185,1,2,2:0:0:0:
76,84,53277,1,2,2:0:0:0:
90,26,53368,1,8,2:1:0:0:
6,192,53551,6,0,L|10:254,1,60,0|0,3:2|2:0,2:0:0:0:
17,342,53917,1,8,2:1:0:0:
93,291,54100,1,0,2:0:0:0:
298,360,54283,5,2,3:2:0:0:
240,346,54374,1,2,2:0:0:0:
204,378,54466,1,2,2:0:0:0:
169,366,54557,1,2,2:0:0:0:
154,383,54649,1,2,2:0:0:0:
133,377,54740,1,2,2:0:0:0:
123,384,54832,1,8,2:1:0:0:
264,277,55015,6,0,L|323:279,1,60,0|0,3:2|2:0,2:0:0:0:
181,211,55380,2,0,L|122:213,1,60,8|0,2:1|2:0,2:0:0:0:
234,29,55746,5,2,3:2:0:0:
241,46,55838,1,2,2:0:0:0:
230,71,55929,1,2,2:0:0:0:
257,104,56021,1,2,2:0:0:0:
242,152,56112,1,2,2:0:0:0:
273,202,56204,1,2,2:0:0:0:
250,267,56295,1,8,2:1:0:0:
338,129,56478,6,0,L|342:70,1,60,0|0,3:2|2:0,2:0:0:0:
424,75,56844,2,0,L|419:133,1,60,8|0,2:1|2:0,2:0:0:0:
389,0,57210,1,0,3:2:0:0:
39,171,57576,6,0,L|38:129,1,30,8|0,2:0|2:0,2:0:0:0:
39,171,58307,6,0,L|38:129,1,30,8|0,2:0|2:0,2:0:0:0:
340,96,58673,5,0,3:2:0:0:
340,96,59039,6,0,P|338:150|350:176,1,60,8|8,2:0|2:1,2:0:0:0:
391,228,59405,2,0,P|339:185|272:184,1,120,0|0,3:2|2:0,2:0:0:0:
214,204,59771,2,0,P|312:157|340:77,1,180.000006866455,8|0,2:1|2:0,2:0:0:0:
305,269,60136,1,0,3:2:0:0:
202,81,60502,6,0,P|158:107|141:139,1,60,8|8,2:0|2:1,2:0:0:0:
126,24,60868,2,0,P|124:102|158:146,1,120,0|0,3:2|2:0,2:0:0:0:
15,59,61234,2,0,P|106:147|177:150,1,180.000006866455,8|0,2:1|2:0,2:0:0:0:
213,0,61600,1,0,3:2:0:0:
257,232,61966,6,0,P|210:235|180:264,1,60,8|8,2:0|2:1,2:0:0:0:
40,296,62332,2,0,P|118:329|175:394,1,120,0|0,3:2|2:0,2:0:0:0:
266,211,62697,2,0,P|190:224|107:299,1,180.000006866455,8|0,2:1|2:0,2:0:0:0:
330,324,63063,1,0,3:2:0:0:
339,307,63429,6,0,L|341:251,1,45.0000017166138,8|0,2:1|2:0,2:0:0:0:
411,346,63795,1,0,3:2:0:0:
128,64,64161,6,0,L|126:120,1,45.0000017166138,8|0,2:1|2:0,2:0:0:0:
56,25,64527,1,0,3:2:0:0:
313,150,64893,6,0,P|324:177|324:207,1,60,8|8,2:0|2:1,2:0:0:0:
224,134,65258,2,0,P|280:68|371:91,1,120,0|0,3:2|2:0,2:0:0:0:
231,225,65624,2,0,P|149:190|144:65,1,180.000006866455,8|0,2:1|2:0,2:0:0:0:
323,207,65990,1,0,3:2:0:0:
445,70,66356,6,0,P|463:46|488:29,1,60,8|8,2:0|2:1,2:0:0:0:
424,192,66722,2,0,P|394:141|343:113,1,120,0|0,3:2|2:0,2:0:0:0:
380,361,67088,2,0,P|429:293|544:243,1,180.000006866455,8|0,2:1|2:0,2:0:0:0:
291,362,67454,1,0,3:2:0:0:
25,204,67819,6,0,P|74:192|121:209,1,60,8|8,2:0|2:1,2:0:0:0:
249,213,68185,2,0,P|179:266|125:250,1,120,0|0,3:2|2:0,2:0:0:0:
121,17,68551,2,0,P|152:73|162:252,1,180.000006866455,8|0,2:1|2:0,2:0:0:0:
121,358,68917,1,0,3:2:0:0:
121,358,69649,1,0,3:2:0:0:
121,358,70380,6,0,P|162:331|269:338,1,120,2|0,2:0|2:0,2:0:0:0:
315,369,70929,1,0,2:0:0:0:
373,300,71112,2,0,P|375:270|363:240,1,60,2|0,2:0|2:0,2:0:0:0:
317,167,71478,2,0,P|313:120|330:74,1,90,0|0,2:0|2:0,2:0:0:0:
342,83,71844,1,2,2:0:0:0:
342,83,72210,6,0,P|328:124|334:161,1,60,0|0,2:0|2:0,2:0:0:0:
382,219,72576,1,2,2:0:0:0:
397,216,72758,1,0,2:0:0:0:
460,167,72941,1,0,2:0:0:0:
475,170,73124,1,0,2:0:0:0:
506,264,73307,1,2,2:0:0:0:
452,333,73490,1,0,2:0:0:0:
304,256,73673,5,0,2:0:0:0:
386,272,73856,1,0,2:0:0:0:
295,243,74039,1,2,2:0:0:0:
240,306,74222,1,0,2:0:0:0:
325,335,74405,1,0,2:0:0:0:
286,225,74588,1,0,2:0:0:0:
152,277,74771,6,0,L|157:351,1,60,2|0,2:0|2:0,2:0:0:0:
199,192,75136,1,0,2:0:0:0:
184,190,75319,1,0,2:0:0:0:
165,108,75502,2,0,P|194:104|223:112,1,60,2|0,2:0|2:0,2:0:0:0:
80,183,75868,2,0,P|51:190|21:187,1,60,0|0,2:0|2:0,2:0:0:0:
153,101,76234,6,0,P|208:79|268:82,1,120,2|0,2:0|2:0,2:0:0:0:
341,142,76783,1,0,2:0:0:0:
415,67,76966,2,0,P|412:37|399:10,1,60,2|0,2:0|2:0,2:0:0:0:
447,150,77332,2,0,P|414:196|415:246,1,90,0|0,2:0|2:0,2:0:0:0:
421,240,77697,1,2,2:0:0:0:
431,252,77880,1,0,2:0:0:0:
501,325,78063,5,0,2:0:0:0:
420,355,78246,1,0,2:0:0:0:
341,296,78429,1,2,2:0:0:0:
260,326,78612,1,0,2:0:0:0:
324,384,78795,1,0,2:0:0:0:
431,357,78978,1,0,2:0:0:0:
245,323,79161,1,2,2:0:0:0:
431,252,79344,2,0,L|519:257,1,60,0|0,2:0|2:0,2:0:0:0:
341,296,79710,5,0,2:0:0:0:
302,216,79893,1,2,2:0:0:0:
374,114,80076,1,0,2:0:0:0:
318,0,80258,1,0,2:0:0:0:
160,32,80441,1,0,2:0:0:0:
255,126,80624,1,2,2:0:0:0:
258,111,80807,1,0,2:0:0:0:
166,205,80990,6,0,L|170:263,1,30,8|0,2:0|2:0,2:0:0:0:
166,205,81722,6,0,L|170:263,1,30,8|0,2:0|2:0,2:0:0:0:
175,316,81905,1,0,2:0:0:0:
280,142,82088,6,0,P|343:137|399:256,1,202.500007724762,0|0,3:2|2:0,2:0:0:0:
384,254,82454,1,8,2:0:0:0:
261,137,82636,1,8,2:1:0:0:
466,133,82819,2,0,P|488:196|481:262,1,135.000005149842,0|0,3:2|2:0,2:0:0:0:
240,130,83185,2,0,P|277:74|335:40,1,135.000005149842,8|0,2:1|2:0,2:0:0:0:
284,269,83551,1,0,3:2:0:0:
284,269,83917,6,0,B|240:236|182:248|152:294|152:294|135:278|104:279,1,202.500007724762,8|0,2:0|2:0,2:0:0:0:
81,286,84283,1,0,3:2:0:0:
229,340,84466,1,0,2:0:0:0:
200,175,84649,1,8,2:1:0:0:
239,354,84832,1,0,2:0:0:0:
99,168,85015,1,0,3:2:0:0:
297,127,85197,1,0,2:0:0:0:
161,257,85380,5,8,2:0:0:0:
106,70,85563,1,8,2:1:0:0:
264,253,85746,1,0,3:2:0:0:
23,203,85929,1,0,2:0:0:0:
230,94,86112,1,8,2:1:0:0:
202,338,86295,1,0,2:0:0:0:
99,168,86478,6,0,L|215:172,1,67.5000025749208,0|0,3:2|2:0,2:0:0:0:
175,158,86844,2,0,L|85:154,1,90.0000034332277,8|0,2:1|2:0,2:0:0:0:
315,301,87210,6,0,L|431:297,1,67.5000025749208,0|0,3:2|2:0,2:0:0:0:
391,311,87576,2,0,L|301:314,1,90.0000034332277,8|0,2:1|2:0,2:0:0:0:
340,57,87941,6,0,P|421:82|444:222,1,202.500007724762,0|0,3:2|2:0,2:0:0:0:
447,203,88307,1,8,2:0:0:0:
293,147,88490,1,8,2:1:0:0:
388,274,88673,2,0,P|452:293|512:265,1,135.000005149842,0|0,3:2|2:0,2:0:0:0:
283,151,89039,6,0,B|254:196|274:247|274:247|293:298|266:344,1,202.500007724762,8|0,2:1|2:0,2:0:0:0:
250,353,89405,1,0,3:2:0:0:
250,353,89771,5,8,2:0:0:0:
107,276,89954,1,8,2:1:0:0:
248,226,90136,1,0,3:2:0:0:
143,384,90319,1,0,2:0:0:0:
93,147,90502,1,8,2:1:0:0:
240,359,90685,1,0,2:0:0:0:
190,122,90868,1,0,3:2:0:0:
190,122,91600,6,0,P|240:128|277:157,1,90.0000034332277,0|0,3:2|2:0,2:0:0:0:
221,295,92332,2,0,P|201:248|207:202,1,90.0000034332277,0|0,3:2|2:0,2:0:0:0:
356,182,93063,2,0,P|325:222|282:239,1,90.0000034332277,0|0,3:2|2:0,2:0:0:0:
271,150,93795,5,8,3:2:0:0:
