osu file format v14

[General]
AudioFilename: audio.mp3
AudioLeadIn: 0
PreviewTime: 23551
Countdown: 0
SampleSet: Normal
StackLeniency: 0.7
Mode: 1
LetterboxInBreaks: 0
WidescreenStoryboard: 0

[Editor]
Bookmarks: 137,23551,35258,58673,70380,82088,93795
DistanceSpacing: 3.3
BeatDivisor: 4
GridSize: 4
TimelineZoom: 3.3

[Metadata]
Title:Cuando Perriabas
TitleUnicode:Cuando Perriabas
Artist:Bad Bunny
ArtistUnicode:Bad Bunny
Creator:Ulqui
Version:Noche de Seduccioni
Source:
Tags:reggaeton latin trap x100pre rimas entertainment hip hop tainy bellaqueo plan b spanish espaƱol dancehall reggae pop urban tatan pkhg cut
BeatmapID:1921241
BeatmapSetID:919932

[Difficulty]
HPDrainRate:5
CircleSize:5
OverallDifficulty:5
ApproachRate:6
SliderMultiplier:1.4
SliderTickRate:1

[Events]
//Background and Video events
0,0,"Konachan.com - 211981 sample (1).jpg",0,70
//Break Periods
//Storyboard Layer 0 (Background)
//Storyboard Layer 1 (Fail)
//Storyboard Layer 2 (Pass)
//Storyboard Layer 3 (Foreground)
//Storyboard Layer 4 (Overlay)
//Storyboard Sound Samples

[TimingPoints]
137,365.853658536585,4,1,0,50,1,0
137,-125,4,1,0,50,0,0
22454,-250,4,1,0,50,0,0
23460,-250,4,1,0,90,0,0
23551,-83.3333333333333,4,1,0,90,0,1
23917,-71.4285714285714,4,1,0,90,0,1
24008,-76.9230769230769,4,1,0,90,0,1
24100,-83.3333333333333,4,1,0,90,0,1
24283,-76.9230769230769,4,1,0,90,0,1
24374,-83.3333333333333,4,1,0,90,0,1
24466,-90.9090909090909,4,1,0,90,0,1
24649,-83.3333333333333,4,1,0,90,0,1
24740,-90.9090909090909,4,1,0,90,0,1
24832,-100,4,1,0,90,0,1
25015,-100,4,1,0,90,0,1
25335,-71.4285714285714,4,1,0,90,0,1
25426,-76.9230769230769,4,1,0,90,0,1
25518,-83.3333333333333,4,1,0,90,0,1
25701,-76.9230769230769,4,1,0,90,0,1
25792,-83.3333333333333,4,1,0,90,0,1
25884,-90.9090909090909,4,1,0,90,0,1
26067,-83.3333333333333,4,1,0,90,0,1
26158,-90.9090909090909,4,1,0,90,0,1
26250,-100,4,1,0,90,0,1
26433,-100,4,1,0,90,0,1
26798,-71.4285714285714,4,1,0,90,0,1
26889,-76.9230769230769,4,1,0,90,0,1
26981,-83.3333333333333,4,1,0,90,0,1
27164,-76.9230769230769,4,1,0,90,0,1
27255,-83.3333333333333,4,1,0,90,0,1
27347,-90.9090909090909,4,1,0,90,0,1
27530,-83.3333333333333,4,1,0,90,0,1
27621,-90.9090909090909,4,1,0,90,0,1
27713,-100,4,1,0,90,0,1
27941,-100,4,1,0,90,0,0
28307,-62.5,4,1,0,90,0,0
28673,-100,4,1,0,90,0,0
29039,-71.4285714285714,4,1,0,90,0,0
29405,-83.3333333333333,4,1,0,90,0,1
29725,-71.4285714285714,4,1,0,90,0,1
29816,-76.9230769230769,4,1,0,90,0,1
29908,-83.3333333333333,4,1,0,90,0,1
30091,-76.9230769230769,4,1,0,90,0,1
30182,-83.3333333333333,4,1,0,90,0,1
30274,-90.9090909090909,4,1,0,90,0,1
30457,-83.3333333333333,4,1,0,90,0,1
30548,-90.9090909090909,4,1,0,90,0,1
30640,-100,4,1,0,90,0,1
30823,-100,4,1,0,90,0,1
31188,-71.4285714285714,4,1,0,90,0,1
31279,-76.9230769230769,4,1,0,90,0,1
31371,-83.3333333333333,4,1,0,90,0,1
31554,-76.9230769230769,4,1,0,90,0,1
31645,-83.3333333333333,4,1,0,90,0,1
31737,-90.9090909090909,4,1,0,90,0,1
31920,-83.3333333333333,4,1,0,90,0,1
32011,-90.9090909090909,4,1,0,90,0,1
32103,-100,4,1,0,90,0,1
32286,-100,4,1,0,90,0,1
32652,-71.4285714285714,4,1,0,90,0,1
32743,-76.9230769230769,4,1,0,90,0,1
32835,-83.3333333333333,4,1,0,90,0,1
33018,-76.9230769230769,4,1,0,90,0,1
33109,-83.3333333333333,4,1,0,90,0,1
33201,-90.9090909090909,4,1,0,90,0,1
33384,-83.3333333333333,4,1,0,90,0,1
33475,-90.9090909090909,4,1,0,90,0,1
33567,-100,4,1,0,90,0,1
33750,-100,4,1,0,90,0,1
34527,-62.5,4,1,0,90,0,1
35167,-62.5,4,1,0,50,0,1
35258,-125,4,1,0,50,0,0
46966,-100,4,1,0,50,0,0
47149,-92.5925925925926,4,1,0,50,0,0
47240,-94.3396226415094,4,1,0,50,0,0
47332,-96.1538461538461,4,1,0,50,0,0
47423,-98.0392156862745,4,1,0,50,0,0
47515,-100,4,1,0,50,0,0
48429,-89.2857142857143,4,1,0,50,0,0
48521,-90.9090909090909,4,1,0,50,0,0
48612,-92.5925925925926,4,1,0,50,0,0
48704,-94.3396226415094,4,1,0,50,0,0
48795,-96.1538461538461,4,1,0,50,0,0
48886,-98.0392156862745,4,1,0,50,0,0
48978,-100,4,1,0,50,0,0
50030,-92.5925925925926,4,1,0,50,0,0
50121,-94.3396226415094,4,1,0,50,0,0
50213,-96.1538461538461,4,1,0,50,0,0
50304,-98.0392156862745,4,1,0,50,0,0
50396,-100,4,1,0,50,0,0
51333,-89.2857142857143,4,1,0,50,0,0
51425,-90.9090909090909,4,1,0,50,0,0
51516,-92.5925925925926,4,1,0,50,0,0
51608,-94.3396226415094,4,1,0,50,0,0
51699,-96.1538461538461,4,1,0,50,0,0
51790,-98.0392156862745,4,1,0,50,0,0
51882,-100,4,1,0,50,0,0
52957,-92.5925925925926,4,1,0,50,0,0
53048,-94.3396226415094,4,1,0,50,0,0
53140,-96.1538461538461,4,1,0,50,0,0
53231,-98.0392156862745,4,1,0,50,0,0
53323,-100,4,1,0,50,0,0
54237,-89.2857142857143,4,1,0,50,0,0
54329,-90.9090909090909,4,1,0,50,0,0
54420,-92.5925925925926,4,1,0,50,0,0
54512,-94.3396226415094,4,1,0,50,0,0
54603,-96.1538461538461,4,1,0,50,0,0
54694,-98.0392156862745,4,1,0,50,0,0
54786,-100,4,1,0,50,0,0
55883,-92.5925925925926,4,1,0,50,0,0
55974,-94.3396226415094,4,1,0,50,0,0
56066,-96.1538461538461,4,1,0,50,0,0
56157,-98.0392156862745,4,1,0,50,0,0
56249,-100,4,1,0,50,0,0
57576,-250,4,1,0,50,0,0
58582,-250,4,1,0,90,0,0
58673,-83.3333333333333,4,1,0,90,0,1
59039,-55.5555555555556,4,1,0,90,0,1
59405,-62.5,4,1,0,90,0,1
59771,-71.4285714285714,4,1,0,90,0,1
60136,-83.3333333333333,4,1,0,90,0,1
60457,-55.5555555555556,4,1,0,90,0,1
60823,-62.5,4,1,0,90,0,1
61189,-71.4285714285714,4,1,0,90,0,1
61554,-83.3333333333333,4,1,0,90,0,1
61920,-55.5555555555556,4,1,0,90,0,1
62286,-62.5,4,1,0,90,0,1
62652,-71.4285714285714,4,1,0,90,0,1
63063,-83.3333333333333,4,1,0,90,0,0
63429,-55.5555555555556,4,1,0,90,0,0
63795,-83.3333333333333,4,1,0,90,0,0
64161,-62.5,4,1,0,90,0,0
64527,-83.3333333333333,4,1,0,90,0,1
64847,-55.5555555555556,4,1,0,90,0,1
65213,-62.5,4,1,0,90,0,1
65579,-71.4285714285714,4,1,0,90,0,1
65944,-83.3333333333333,4,1,0,90,0,1
66310,-55.5555555555556,4,1,0,90,0,1
66676,-62.5,4,1,0,90,0,1
67042,-71.4285714285714,4,1,0,90,0,1
67407,-83.3333333333333,4,1,0,90,0,1
67774,-55.5555555555556,4,1,0,90,0,1
68140,-62.5,4,1,0,90,0,1
68506,-71.4285714285714,4,1,0,90,0,1
68871,-83.3333333333333,4,1,0,90,0,1
69649,-62.5,4,1,0,90,0,1
70289,-62.5,4,1,0,50,0,1
70380,-125,4,1,0,50,0,0
80990,-250,4,1,0,50,0,0
81996,-250,4,1,0,90,0,0
82088,-83.3333333333333,4,1,0,90,0,1
82454,-55.5555555555556,4,1,0,90,0,1
82545,-57.1428571428571,4,1,0,90,0,1
82636,-58.8235294117647,4,1,0,90,0,1
82819,-62.5,4,1,0,90,0,1
82911,-64.5161290322581,4,1,0,90,0,1
83002,-66.6666666666667,4,1,0,90,0,1
83185,-71.4285714285714,4,1,0,90,0,1
83277,-74.0740740740741,4,1,0,90,0,1
83368,-76.9230769230769,4,1,0,90,0,1
83551,-83.3333333333333,4,1,0,90,0,1
83871,-55.5555555555556,4,1,0,90,0,1
83962,-57.1428571428571,4,1,0,90,0,1
84053,-58.8235294117647,4,1,0,90,0,1
84236,-62.5,4,1,0,90,0,1
84328,-64.5161290322581,4,1,0,90,0,1
84419,-66.6666666666667,4,1,0,90,0,1
84602,-71.4285714285714,4,1,0,90,0,1
84694,-74.0740740740741,4,1,0,90,0,1
84785,-76.9230769230769,4,1,0,90,0,1
84968,-83.3333333333333,4,1,0,90,0,1
85335,-55.5555555555556,4,1,0,90,0,1
85426,-57.1428571428571,4,1,0,90,0,1
85517,-58.8235294117647,4,1,0,90,0,1
85700,-62.5,4,1,0,90,0,1
85792,-64.5161290322581,4,1,0,90,0,1
85883,-66.6666666666667,4,1,0,90,0,1
86066,-71.4285714285714,4,1,0,90,0,1
86158,-74.0740740740741,4,1,0,90,0,1
86249,-76.9230769230769,4,1,0,90,0,1
86478,-83.3333333333333,4,1,0,90,0,0
86844,-55.5555555555556,4,1,0,90,0,0
87210,-83.3333333333333,4,1,0,90,0,0
87576,-71.4285714285714,4,1,0,90,0,0
87941,-83.3333333333333,4,1,0,90,0,1
88261,-55.5555555555556,4,1,0,90,0,1
88352,-57.1428571428571,4,1,0,90,0,1
88443,-58.8235294117647,4,1,0,90,0,1
88626,-62.5,4,1,0,90,0,1
88718,-64.5161290322581,4,1,0,90,0,1
88809,-66.6666666666667,4,1,0,90,0,1
88992,-71.4285714285714,4,1,0,90,0,1
89084,-74.0740740740741,4,1,0,90,0,1
89175,-76.9230769230769,4,1,0,90,0,1
89358,-83.3333333333333,4,1,0,90,0,1
89725,-55.5555555555556,4,1,0,90,0,1
89816,-57.1428571428571,4,1,0,90,0,1
89907,-58.8235294117647,4,1,0,90,0,1
90090,-62.5,4,1,0,90,0,1
90182,-64.5161290322581,4,1,0,90,0,1
90273,-66.6666666666667,4,1,0,90,0,1
90456,-71.4285714285714,4,1,0,90,0,1
90548,-74.0740740740741,4,1,0,90,0,1
90639,-76.9230769230769,4,1,0,90,0,1
90868,-83.3333333333333,4,1,0,90,0,0
93795,-83.3333333333333,4,1,0,90,0,0

[HitObjects]
173,170,11844,5,8,0:0:0:0:
173,156,12210,1,0,0:0:0:0:
200,80,12393,1,0,0:0:0:0:
173,156,12576,1,8,0:0:0:0:
200,80,12941,1,0,0:0:0:0:
161,147,13307,1,8,0:0:0:0:
161,147,13673,1,0,0:0:0:0:
165,143,13856,1,0,0:0:0:0:
161,147,14039,1,8,0:0:0:0:
172,112,14405,1,0,0:0:0:0:
176,135,14771,1,8,0:0:0:0:
176,135,15136,1,0,0:0:0:0:
176,104,15319,1,0,0:0:0:0:
176,135,15502,1,8,0:0:0:0:
176,104,15868,1,0,0:0:0:0:
176,135,16234,1,8,0:0:0:0:
176,135,16600,1,0,0:0:0:0:
176,135,16783,1,0,0:0:0:0:
176,135,16966,1,8,0:0:0:0:
197,58,17332,1,8,0:0:0:0:
176,135,17697,1,0,0:0:0:0:
176,135,18246,1,8,0:0:0:0:
176,135,18429,1,0,0:0:0:0:
176,135,18795,1,8,0:0:0:0:
176,135,19161,1,0,0:0:0:0:
175,129,19527,1,0,0:0:0:0:
175,129,19710,1,8,0:0:0:0:
175,129,19893,1,0,0:0:0:0:
175,129,20258,1,8,0:0:0:0:
175,129,20624,1,0,0:0:0:0:
168,64,20807,1,0,0:0:0:0:
172,40,20990,1,0,0:0:0:0:
175,129,21173,1,8,0:0:0:0:
175,129,21356,1,0,0:0:0:0:
175,129,21722,1,8,0:0:0:0:
175,129,22088,1,0,0:0:0:0:
192,110,22454,1,8,0:0:0:0:
192,110,23185,1,8,0:0:0:0:
192,110,23551,1,0,0:0:0:0:
181,183,23917,1,8,0:0:0:0:
139,92,24008,1,8,0:0:0:0:
162,214,24100,1,8,0:0:0:0:
162,214,24283,1,0,0:0:0:0:
155,78,24374,1,0,0:0:0:0:
185,118,24466,1,0,0:0:0:0:
171,192,24649,1,8,0:0:0:0:
196,94,24740,1,8,0:0:0:0:
157,97,24832,1,0,0:0:0:0:
167,136,25015,1,0,0:0:0:0:
165,72,25380,1,8,0:0:0:0:
165,72,25472,1,8,0:0:0:0:
165,72,25563,1,8,0:0:0:0:
165,72,25746,1,0,0:0:0:0:
181,40,25838,1,0,0:0:0:0:
165,72,25929,1,0,0:0:0:0:
165,72,26112,1,8,0:0:0:0:
181,80,26204,1,0,0:0:0:0:
181,81,26295,1,0,0:0:0:0:
176,90,26478,1,0,0:0:0:0:
166,166,26844,1,8,0:0:0:0:
166,166,26935,1,8,0:0:0:0:
166,166,27027,1,8,0:0:0:0:
166,166,27210,1,0,0:0:0:0:
166,166,27301,1,0,0:0:0:0:
166,166,27393,1,0,0:0:0:0:
169,169,27576,1,8,0:0:0:0:
169,170,27667,1,0,0:0:0:0:
169,170,27758,1,8,0:0:0:0:
171,171,27941,1,0,0:0:0:0:
171,171,28307,1,8,0:0:0:0:
171,171,28673,1,0,0:0:0:0:
171,171,29039,1,8,0:0:0:0:
174,92,29405,1,0,0:0:0:0:
216,165,29771,1,8,0:0:0:0:
216,165,29862,1,8,0:0:0:0:
216,165,29954,1,8,0:0:0:0:
173,154,30136,1,0,0:0:0:0:
173,154,30228,1,0,0:0:0:0:
173,154,30319,1,0,0:0:0:0:
144,133,30502,1,8,0:0:0:0:
144,133,30594,1,8,0:0:0:0:
144,133,30685,1,0,0:0:0:0:
144,133,30868,1,0,0:0:0:0:
124,229,31234,1,8,0:0:0:0:
124,229,31326,1,8,0:0:0:0:
129,224,31417,1,8,0:0:0:0:
121,234,31600,1,0,0:0:0:0:
155,178,31691,1,0,0:0:0:0:
155,178,31783,1,0,0:0:0:0:
121,236,31966,1,8,0:0:0:0:
164,195,32057,1,0,0:0:0:0:
164,195,32149,1,0,0:0:0:0:
166,173,32332,1,0,0:0:0:0:
166,173,32697,1,8,0:0:0:0:
168,173,32789,1,8,0:0:0:0:
168,173,32880,1,8,0:0:0:0:
166,173,33063,1,0,0:0:0:0:
166,173,33155,1,0,0:0:0:0:
166,173,33246,1,0,0:0:0:0:
166,173,33429,1,8,0:0:0:0:
160,172,33521,1,0,0:0:0:0:
166,173,33612,1,8,0:0:0:0:
160,172,33795,1,0,0:0:0:0:
172,173,34527,1,0,0:0:0:0:
172,173,35258,1,0,0:0:0:0:
121,198,35807,1,8,0:0:0:0:
121,198,35990,1,0,0:0:0:0:
121,198,36356,1,8,0:0:0:0:
121,198,36722,1,0,0:0:0:0:
167,186,37088,1,0,0:0:0:0:
121,198,37271,1,8,0:0:0:0:
121,198,37454,1,0,0:0:0:0:
167,186,37819,1,8,0:0:0:0:
171,145,38185,1,0,0:0:0:0:
171,145,38734,1,8,0:0:0:0:
171,145,38917,1,0,0:0:0:0:
171,145,39283,1,8,0:0:0:0:
171,145,39649,1,0,0:0:0:0:
171,145,40015,1,0,0:0:0:0:
171,145,40197,1,8,0:0:0:0:
171,145,40380,1,0,0:0:0:0:
143,137,40563,1,0,0:0:0:0:
171,145,40746,1,8,0:0:0:0:
143,137,41112,1,0,0:0:0:0:
143,137,41661,1,8,0:0:0:0:
143,137,41844,1,0,0:0:0:0:
143,137,42210,1,8,0:0:0:0:
143,137,42576,1,0,0:0:0:0:
143,137,42941,1,0,0:0:0:0:
143,137,43124,1,8,0:0:0:0:
143,137,43307,1,0,0:0:0:0:
143,137,43673,1,8,0:0:0:0:
143,137,44039,1,0,0:0:0:0:
142,142,44588,1,8,0:0:0:0:
142,142,44771,1,0,0:0:0:0:
142,142,45136,1,8,0:0:0:0:
142,142,45502,1,0,0:0:0:0:
142,148,45868,1,8,0:0:0:0:
184,120,46051,1,8,0:0:0:0:
143,148,46234,1,0,0:0:0:0:
142,148,46600,1,8,0:0:0:0:
190,87,46966,1,0,0:0:0:0:
159,153,47149,1,8,0:0:0:0:
169,97,47240,1,8,0:0:0:0:
159,153,47332,1,0,0:0:0:0:
159,153,47423,1,0,0:0:0:0:
159,153,47515,1,8,0:0:0:0:
159,153,47697,1,0,0:0:0:0:
121,232,47880,1,0,0:0:0:0:
159,153,48063,1,8,0:0:0:0:
175,165,48429,1,0,0:0:0:0:
175,165,48521,1,0,0:0:0:0:
175,165,48612,1,0,0:0:0:0:
175,165,48704,1,0,0:0:0:0:
175,165,48795,1,0,0:0:0:0:
175,165,48886,1,0,0:0:0:0:
175,165,48978,1,8,0:0:0:0:
159,85,49161,1,0,0:0:0:0:
206,89,49527,1,8,0:0:0:0:
189,118,49893,1,0,0:0:0:0:
189,118,50076,1,8,0:0:0:0:
189,118,50167,1,8,0:0:0:0:
189,118,50258,1,0,0:0:0:0:
189,118,50350,1,0,0:0:0:0:
189,118,50441,1,8,0:0:0:0:
189,118,50624,1,0,0:0:0:0:
189,118,50807,1,0,0:0:0:0:
189,118,50990,1,8,0:0:0:0:
174,70,51356,1,0,0:0:0:0:
174,70,51447,1,0,0:0:0:0:
174,70,51539,1,0,0:0:0:0:
174,70,51630,1,0,0:0:0:0:
174,70,51722,1,0,0:0:0:0:
174,70,51813,1,0,0:0:0:0:
165,39,51905,1,8,0:0:0:0:
160,61,52088,1,0,0:0:0:0:
178,83,52819,1,0,0:0:0:0:
156,219,53002,1,8,0:0:0:0:
156,219,53094,1,8,0:0:0:0:
156,219,53185,1,0,0:0:0:0:
156,219,53277,1,0,0:0:0:0:
156,219,53368,1,8,0:0:0:0:
149,111,53551,1,0,0:0:0:0:
149,111,53734,1,0,0:0:0:0:
149,111,53917,1,8,0:0:0:0:
176,107,54283,1,0,0:0:0:0:
179,101,54374,1,0,0:0:0:0:
179,101,54466,1,0,0:0:0:0:
179,101,54557,1,0,0:0:0:0:
179,101,54649,1,0,0:0:0:0:
179,101,54740,1,0,0:0:0:0:
179,101,54832,1,8,0:0:0:0:
159,107,55015,1,0,0:0:0:0:
159,107,55197,1,0,0:0:0:0:
159,107,55380,1,8,0:0:0:0:
214,91,55746,1,0,0:0:0:0:
214,91,55929,1,8,0:0:0:0:
214,91,56021,1,8,0:0:0:0:
214,91,56112,1,0,0:0:0:0:
214,91,56204,1,0,0:0:0:0:
214,91,56295,1,8,0:0:0:0:
220,114,56478,1,0,0:0:0:0:
220,114,56661,1,0,0:0:0:0:
220,114,56844,1,8,0:0:0:0:
169,100,57210,1,0,0:0:0:0:
169,100,57576,1,8,0:0:0:0:
169,100,58307,1,8,0:0:0:0:
169,100,58673,1,0,0:0:0:0:
213,164,59039,1,8,0:0:0:0:
213,164,59130,1,8,0:0:0:0:
213,164,59222,1,8,0:0:0:0:
213,164,59405,1,0,0:0:0:0:
213,164,59496,1,0,0:0:0:0:
213,164,59588,1,0,0:0:0:0:
213,164,59771,1,8,0:0:0:0:
213,164,59862,1,8,0:0:0:0:
213,164,59954,1,0,0:0:0:0:
213,164,60136,1,0,0:0:0:0:
202,133,60502,1,8,0:0:0:0:
202,133,60594,1,8,0:0:0:0:
202,133,60685,1,8,0:0:0:0:
202,133,60868,1,0,0:0:0:0:
202,133,60960,1,0,0:0:0:0:
202,133,61051,1,0,0:0:0:0:
202,133,61234,1,8,0:0:0:0:
202,133,61326,1,0,0:0:0:0:
202,133,61417,1,0,0:0:0:0:
202,133,61600,1,0,0:0:0:0:
202,124,61966,1,8,0:0:0:0:
202,124,62057,1,8,0:0:0:0:
202,124,62149,1,8,0:0:0:0:
202,124,62332,1,0,0:0:0:0:
202,124,62423,1,0,0:0:0:0:
202,124,62515,1,0,0:0:0:0:
202,124,62697,1,8,0:0:0:0:
202,124,62789,1,0,0:0:0:0:
202,124,62880,1,8,0:0:0:0:
202,124,63063,1,0,0:0:0:0:
202,124,63429,1,8,0:0:0:0:
202,124,63795,1,0,0:0:0:0:
202,124,64161,1,8,0:0:0:0:
202,124,64527,1,0,0:0:0:0:
202,124,64893,1,8,0:0:0:0:
202,124,64984,1,8,0:0:0:0:
202,124,65076,1,8,0:0:0:0:
178,131,65258,1,0,0:0:0:0:
202,124,65350,1,0,0:0:0:0:
202,124,65441,1,0,0:0:0:0:
210,122,65624,1,8,0:0:0:0:
193,141,65716,1,8,0:0:0:0:
191,141,65807,1,0,0:0:0:0:
193,139,65990,1,0,0:0:0:0:
193,139,66356,1,8,0:0:0:0:
193,139,66447,1,8,0:0:0:0:
193,141,66539,1,8,0:0:0:0:
191,141,66722,1,0,0:0:0:0:
193,139,66813,1,0,0:0:0:0:
193,139,66905,1,0,0:0:0:0:
193,139,67088,1,8,0:0:0:0:
193,139,67179,1,0,0:0:0:0:
193,139,67271,1,0,0:0:0:0:
193,141,67454,1,0,0:0:0:0:
193,139,67819,1,8,0:0:0:0:
193,139,67911,1,8,0:0:0:0:
193,139,68002,1,8,0:0:0:0:
193,141,68185,1,0,0:0:0:0:
193,139,68277,1,0,0:0:0:0:
193,141,68368,1,0,0:0:0:0:
193,139,68551,1,8,0:0:0:0:
138,125,68643,1,0,0:0:0:0:
193,139,68734,1,8,0:0:0:0:
138,125,68917,1,0,0:0:0:0:
146,136,69649,1,0,0:0:0:0:
146,136,70380,1,0,0:0:0:0:
174,124,70746,1,0,0:0:0:0:
174,124,70929,1,8,0:0:0:0:
174,124,71112,1,0,0:0:0:0:
178,107,71478,1,8,0:0:0:0:
178,104,71844,1,0,0:0:0:0:
180,101,72210,1,8,0:0:0:0:
180,101,72393,1,8,0:0:0:0:
178,104,72576,1,0,0:0:0:0:
169,136,72941,1,8,0:0:0:0:
193,127,73307,1,0,0:0:0:0:
221,158,73673,1,0,0:0:0:0:
190,138,73856,1,8,0:0:0:0:
190,138,74039,1,0,0:0:0:0:
221,158,74405,1,8,0:0:0:0:
221,158,74771,1,0,0:0:0:0:
221,158,75136,1,8,0:0:0:0:
221,158,75319,1,0,0:0:0:0:
221,158,75502,1,0,0:0:0:0:
184,98,75868,1,8,0:0:0:0:
184,98,76234,1,0,0:0:0:0:
176,119,76600,1,0,0:0:0:0:
176,119,76783,1,8,0:0:0:0:
176,119,76966,1,0,0:0:0:0:
176,119,77332,1,8,0:0:0:0:
176,119,77697,1,0,0:0:0:0:
176,119,78063,1,8,0:0:0:0:
176,119,78246,1,8,0:0:0:0:
176,119,78429,1,0,0:0:0:0:
176,119,78795,1,8,0:0:0:0:
159,120,79161,1,0,0:0:0:0:
160,121,79527,1,8,0:0:0:0:
160,121,79710,1,0,0:0:0:0:
159,120,79893,1,0,0:0:0:0:
151,127,80258,1,8,0:0:0:0:
151,127,80624,1,0,0:0:0:0:
182,120,80990,1,8,0:0:0:0:
182,120,81722,1,8,0:0:0:0:
182,120,82088,1,0,0:0:0:0:
143,198,82454,1,8,0:0:0:0:
143,198,82545,1,8,0:0:0:0:
143,198,82636,1,8,0:0:0:0:
143,198,82819,1,0,0:0:0:0:
143,198,82911,1,0,0:0:0:0:
156,117,83002,1,0,0:0:0:0:
123,178,83185,1,8,0:0:0:0:
174,131,83277,1,8,0:0:0:0:
123,178,83368,1,0,0:0:0:0:
166,161,83551,1,0,0:0:0:0:
171,170,83917,1,8,0:0:0:0:
171,170,84008,1,8,0:0:0:0:
171,169,84100,1,8,0:0:0:0:
171,168,84283,1,0,0:0:0:0:
171,169,84374,1,0,0:0:0:0:
171,170,84466,1,0,0:0:0:0:
171,170,84649,1,8,0:0:0:0:
171,170,84740,1,0,0:0:0:0:
171,163,84832,1,0,0:0:0:0:
176,138,85015,1,0,0:0:0:0:
180,141,85380,1,8,0:0:0:0:
180,141,85472,1,8,0:0:0:0:
180,141,85563,1,8,0:0:0:0:
182,140,85746,1,0,0:0:0:0:
182,140,85838,1,0,0:0:0:0:
180,141,85929,1,0,0:0:0:0:
180,141,86112,1,8,0:0:0:0:
180,141,86204,1,0,0:0:0:0:
151,108,86295,1,8,0:0:0:0:
147,156,86478,1,0,0:0:0:0:
147,156,86844,1,8,0:0:0:0:
147,156,87210,1,0,0:0:0:0:
147,156,87576,1,8,0:0:0:0:
153,162,87941,1,0,0:0:0:0:
155,153,88307,1,8,0:0:0:0:
155,153,88399,1,8,0:0:0:0:
155,153,88490,1,8,0:0:0:0:
151,105,88673,1,0,0:0:0:0:
151,105,88765,1,0,0:0:0:0:
151,105,88856,1,0,0:0:0:0:
161,119,89039,1,8,0:0:0:0:
156,121,89130,1,8,0:0:0:0:
166,102,89222,1,0,0:0:0:0:
168,122,89405,1,0,0:0:0:0:
166,126,89771,1,8,0:0:0:0:
165,126,89862,1,8,0:0:0:0:
162,127,89954,1,8,0:0:0:0:
162,127,90136,1,0,0:0:0:0:
163,128,90228,1,0,0:0:0:0:
166,126,90319,1,0,0:0:0:0:
166,126,90502,1,8,0:0:0:0:
162,130,90594,1,0,0:0:0:0:
166,126,90685,1,0,0:0:0:0:
158,139,90868,1,0,0:0:0:0:
222,80,93795,1,4,0:0:0:0:
