osu file format v14

[General]
AudioFilename: audio.mp3
AudioLeadIn: 0
PreviewTime: 23551
Countdown: 0
SampleSet: Normal
StackLeniency: 0.7
Mode: 1
LetterboxInBreaks: 0
WidescreenStoryboard: 1

[Editor]
Bookmarks: 137,23551,35258,58673,70380,82088,93795
DistanceSpacing: 3.3
BeatDivisor: 4
GridSize: 4
TimelineZoom: 2.600001

[Metadata]
Title:Cuando Perriabas
TitleUnicode:Cuando Perriabas
Artist:Bad Bunny
ArtistUnicode:Bad Bunny
Creator:Ulqui
Version:Muzukashii
Source:
Tags:reggaeton latin trap x100pre rimas entertainment hip hop tainy bellaqueo plan b spanish espaƱol dancehall reggae pop urban tatan pkhg cut
BeatmapID:2223392
BeatmapSetID:919932

[Difficulty]
HPDrainRate:6
CircleSize:5
OverallDifficulty:4
ApproachRate:6
SliderMultiplier:1.4
SliderTickRate:1

[Events]
//Background and Video events
0,0,"Konachan.com - 211981 sample (1).jpg",0,70
//Break Periods
//Storyboard Layer 0 (Background)
//Storyboard Layer 1 (Fail)
//Storyboard Layer 2 (Pass)
//Storyboard Layer 3 (Foreground)
//Storyboard Layer 4 (Overlay)
//Storyboard Sound Samples

[TimingPoints]
137,365.853658536585,4,1,0,50,1,0
137,-125,4,1,0,50,0,0
22454,-142.857142857143,4,1,0,50,0,0
23460,-142.857142857143,4,1,0,90,0,0
23551,-100,4,1,0,90,0,1
23917,-86.9565217391304,4,1,0,90,0,1
24008,-87.719298245614,4,1,0,90,0,1
24100,-88.8888888888889,4,1,0,90,0,1
24283,-90.9090909090909,4,1,0,90,0,1
24466,-93.0232558139535,4,1,0,90,0,1
24649,-95.2380952380952,4,1,0,90,0,1
24992,-100,4,1,0,90,0,1
25358,-86.9565217391304,4,1,0,90,0,1
25449,-87.719298245614,4,1,0,90,0,1
25541,-88.8888888888889,4,1,0,90,0,1
25724,-90.9090909090909,4,1,0,90,0,1
25907,-93.0232558139535,4,1,0,90,0,1
26090,-95.2380952380952,4,1,0,90,0,1
26455,-100,4,1,0,90,0,1
26821,-86.9565217391304,4,1,0,90,0,1
26912,-87.719298245614,4,1,0,90,0,1
27004,-88.8888888888889,4,1,0,90,0,1
27187,-90.9090909090909,4,1,0,90,0,1
27370,-93.0232558139535,4,1,0,90,0,1
27553,-95.2380952380952,4,1,0,90,0,1
27941,-100,4,1,0,90,0,0
29405,-100,4,1,0,90,0,1
29748,-86.9565217391304,4,1,0,90,0,1
29839,-87.719298245614,4,1,0,90,0,1
29931,-88.8888888888889,4,1,0,90,0,1
30114,-90.9090909090909,4,1,0,90,0,1
30297,-93.0232558139535,4,1,0,90,0,1
30480,-95.2380952380952,4,1,0,90,0,1
30845,-100,4,1,0,90,0,1
31211,-86.9565217391304,4,1,0,90,0,1
31303,-87.719298245614,4,1,0,90,0,1
31394,-88.8888888888889,4,1,0,90,0,1
31577,-90.9090909090909,4,1,0,90,0,1
31760,-93.0232558139535,4,1,0,90,0,1
31943,-95.2380952380952,4,1,0,90,0,1
32309,-100,4,1,0,90,0,1
32675,-86.9565217391304,4,1,0,90,0,1
32766,-87.719298245614,4,1,0,90,0,1
32858,-88.8888888888889,4,1,0,90,0,1
33041,-90.9090909090909,4,1,0,90,0,1
33224,-93.0232558139535,4,1,0,90,0,1
33407,-95.2380952380952,4,1,0,90,0,1
33795,-100,4,1,0,90,0,1
35167,-100,4,1,0,50,0,1
35258,-125,4,1,0,50,0,0
57576,-142.857142857143,4,1,0,50,0,0
58582,-142.857142857143,4,1,0,90,0,0
58673,-100,4,1,0,90,0,1
59016,-86.9565217391304,4,1,0,90,0,1
59107,-87.719298245614,4,1,0,90,0,1
59199,-88.4955752212389,4,1,0,90,0,1
59382,-90.9090909090909,4,1,0,90,0,1
59565,-93.0232558139535,4,1,0,90,0,1
59748,-95.2380952380952,4,1,0,90,0,1
60091,-100,4,1,0,90,0,1
60479,-86.9565217391304,4,1,0,90,0,1
60570,-87.719298245614,4,1,0,90,0,1
60662,-88.4955752212389,4,1,0,90,0,1
60845,-90.9090909090909,4,1,0,90,0,1
61028,-93.0232558139535,4,1,0,90,0,1
61211,-95.2380952380952,4,1,0,90,0,1
61554,-100,4,1,0,90,0,1
61943,-86.9565217391304,4,1,0,90,0,1
62034,-87.719298245614,4,1,0,90,0,1
62126,-88.4955752212389,4,1,0,90,0,1
62309,-90.9090909090909,4,1,0,90,0,1
62492,-93.0232558139535,4,1,0,90,0,1
62675,-95.2380952380952,4,1,0,90,0,1
63063,-100,4,1,0,90,0,0
64527,-100,4,1,0,90,0,1
64870,-86.9565217391304,4,1,0,90,0,1
64961,-87.719298245614,4,1,0,90,0,1
65053,-88.4955752212389,4,1,0,90,0,1
65236,-90.9090909090909,4,1,0,90,0,1
65419,-93.0232558139535,4,1,0,90,0,1
65602,-95.2380952380952,4,1,0,90,0,1
65945,-100,4,1,0,90,0,1
66333,-86.9565217391304,4,1,0,90,0,1
66424,-87.719298245614,4,1,0,90,0,1
66516,-88.4955752212389,4,1,0,90,0,1
66699,-90.9090909090909,4,1,0,90,0,1
66882,-93.0232558139535,4,1,0,90,0,1
67065,-95.2380952380952,4,1,0,90,0,1
67408,-100,4,1,0,90,0,1
67797,-86.9565217391304,4,1,0,90,0,1
67888,-87.719298245614,4,1,0,90,0,1
67980,-88.4955752212389,4,1,0,90,0,1
68163,-90.9090909090909,4,1,0,90,0,1
68346,-93.0232558139535,4,1,0,90,0,1
68529,-95.2380952380952,4,1,0,90,0,1
68872,-100,4,1,0,90,0,1
70289,-100,4,1,0,50,0,1
70380,-125,4,1,0,50,0,0
80990,-166.666666666667,4,1,0,50,0,0
81996,-166.666666666667,4,1,0,90,0,0
82088,-100,4,1,0,90,0,1
82454,-86.9565217391304,4,1,0,90,0,1
82545,-87.719298245614,4,1,0,90,0,1
82659,-88.4955752212389,4,1,0,90,0,1
82819,-90.9090909090909,4,1,0,90,0,1
83002,-93.0232558139535,4,1,0,90,0,1
83185,-95.2380952380952,4,1,0,90,0,1
83528,-100,4,1,0,90,0,1
83894,-86.9565217391304,4,1,0,90,0,1
83985,-87.719298245614,4,1,0,90,0,1
84099,-88.4955752212389,4,1,0,90,0,1
84259,-90.9090909090909,4,1,0,90,0,1
84442,-93.0232558139535,4,1,0,90,0,1
84625,-95.2380952380952,4,1,0,90,0,1
84992,-100,4,1,0,90,0,1
85358,-86.9565217391304,4,1,0,90,0,1
85449,-87.719298245614,4,1,0,90,0,1
85563,-88.4955752212389,4,1,0,90,0,1
85723,-90.9090909090909,4,1,0,90,0,1
85906,-93.0232558139535,4,1,0,90,0,1
86089,-95.2380952380952,4,1,0,90,0,1
86478,-100,4,1,0,90,0,0
87941,-100,4,1,0,90,0,1
88285,-86.9565217391304,4,1,0,90,0,1
88376,-87.719298245614,4,1,0,90,0,1
88490,-88.4955752212389,4,1,0,90,0,1
88650,-90.9090909090909,4,1,0,90,0,1
88833,-93.0232558139535,4,1,0,90,0,1
89016,-95.2380952380952,4,1,0,90,0,1
89382,-100,4,1,0,90,0,1
89748,-86.9565217391304,4,1,0,90,0,1
89839,-87.719298245614,4,1,0,90,0,1
89953,-88.4955752212389,4,1,0,90,0,1
90113,-90.9090909090909,4,1,0,90,0,1
90296,-93.0232558139535,4,1,0,90,0,1
90479,-95.2380952380952,4,1,0,90,0,1
90868,-95.2380952380952,4,1,0,90,0,0
93795,-100,4,1,0,90,0,0

[HitObjects]
64,240,11844,5,8,0:0:0:0:
132,136,12210,1,0,0:0:0:0:
264,96,12393,1,0,0:0:0:0:
132,136,12576,1,8,0:0:0:0:
192,72,12941,1,0,0:0:0:0:
128,144,13307,1,8,0:0:0:0:
128,144,14039,1,8,0:0:0:0:
128,144,14771,1,8,0:0:0:0:
128,144,15136,1,0,0:0:0:0:
184,88,15319,1,0,0:0:0:0:
128,144,15502,1,8,0:0:0:0:
184,88,15868,1,0,0:0:0:0:
128,144,16234,1,8,0:0:0:0:
128,144,16966,1,8,0:0:0:0:
216,56,17332,1,8,0:0:0:0:
128,144,17697,1,0,0:0:0:0:
176,48,18246,1,8,0:0:0:0:
128,144,18429,1,0,0:0:0:0:
192,84,18795,1,8,0:0:0:0:
128,144,19161,1,0,0:0:0:0:
216,40,19710,1,8,0:0:0:0:
148,152,19893,1,0,0:0:0:0:
180,40,20258,1,8,0:0:0:0:
148,152,20624,1,0,0:0:0:0:
200,52,20990,1,8,0:0:0:0:
200,52,21173,1,0,0:0:0:0:
148,152,21356,1,8,0:0:0:0:
148,152,21722,1,8,0:0:0:0:
88,168,22088,1,0,0:0:0:0:
148,152,22454,1,8,0:0:0:0:
156,140,23185,1,8,0:0:0:0:
156,140,23551,1,0,0:0:0:0:
132,120,23917,1,8,0:0:0:0:
123,161,24008,1,8,0:0:0:0:
132,120,24100,1,8,0:0:0:0:
132,120,24283,1,0,0:0:0:0:
132,120,24466,1,0,0:0:0:0:
132,120,24649,1,8,0:0:0:0:
132,120,25015,1,0,0:0:0:0:
132,120,25380,1,0,0:0:0:0:
123,161,25472,1,0,0:0:0:0:
132,120,25563,1,0,0:0:0:0:
132,120,25746,1,8,0:0:0:0:
132,120,25929,1,8,0:0:0:0:
132,120,26112,1,0,0:0:0:0:
132,120,26478,1,0,0:0:0:0:
132,120,26844,1,8,0:0:0:0:
152,125,26935,1,8,0:0:0:0:
132,120,27027,1,8,0:0:0:0:
132,120,27210,1,0,0:0:0:0:
132,120,27393,1,0,0:0:0:0:
132,120,27576,1,8,0:0:0:0:
132,120,27941,1,0,0:0:0:0:
132,120,28673,1,0,0:0:0:0:
132,120,29405,1,0,0:0:0:0:
132,120,29771,1,8,0:0:0:0:
146,170,29862,1,8,0:0:0:0:
132,120,29954,1,8,0:0:0:0:
132,120,30136,1,0,0:0:0:0:
132,120,30319,1,0,0:0:0:0:
132,120,30502,1,8,0:0:0:0:
132,120,30868,1,0,0:0:0:0:
132,120,31234,1,0,0:0:0:0:
175,96,31326,1,0,0:0:0:0:
132,120,31417,1,0,0:0:0:0:
132,120,31600,1,8,0:0:0:0:
132,120,31783,1,8,0:0:0:0:
132,120,31966,1,0,0:0:0:0:
132,120,32332,1,0,0:0:0:0:
132,120,32697,1,8,0:0:0:0:
182,106,32789,1,8,0:0:0:0:
132,120,32880,1,8,0:0:0:0:
132,120,33063,1,0,0:0:0:0:
132,120,33246,1,0,0:0:0:0:
132,120,33429,1,8,0:0:0:0:
132,120,33795,1,0,0:0:0:0:
136,128,34527,1,0,0:0:0:0:
136,128,35258,1,0,0:0:0:0:
156,200,35990,1,0,0:0:0:0:
156,200,36356,1,8,0:0:0:0:
160,72,36722,1,0,0:0:0:0:
160,72,37271,1,8,0:0:0:0:
160,72,37454,1,0,0:0:0:0:
160,72,37819,1,8,0:0:0:0:
160,72,38185,1,0,0:0:0:0:
160,72,38917,1,0,0:0:0:0:
160,72,39283,1,8,0:0:0:0:
160,72,39649,1,0,0:0:0:0:
160,72,40015,1,0,0:0:0:0:
160,72,40197,1,8,0:0:0:0:
160,72,40380,1,0,0:0:0:0:
144,64,40746,1,8,0:0:0:0:
144,64,41112,1,0,0:0:0:0:
164,80,41844,1,0,0:0:0:0:
164,80,42210,1,8,0:0:0:0:
164,80,42576,1,0,0:0:0:0:
164,84,43124,1,8,0:0:0:0:
160,84,43307,1,0,0:0:0:0:
164,84,43673,1,8,0:0:0:0:
164,84,44039,1,0,0:0:0:0:
156,92,44771,1,0,0:0:0:0:
156,92,45136,1,8,0:0:0:0:
156,92,45502,1,0,0:0:0:0:
200,52,45868,1,0,0:0:0:0:
156,92,46051,1,8,0:0:0:0:
156,92,46234,1,0,0:0:0:0:
196,112,46966,1,0,0:0:0:0:
208,16,47057,1,0,0:0:0:0:
216,32,47149,1,0,0:0:0:0:
192,108,47332,1,0,0:0:0:0:
172,16,47515,1,8,0:0:0:0:
188,40,47697,1,0,0:0:0:0:
200,72,48063,1,8,0:0:0:0:
200,64,48429,1,0,0:0:0:0:
91,114,48612,1,0,0:0:0:0:
200,72,48795,1,0,0:0:0:0:
200,72,48978,1,8,0:0:0:0:
188,56,49161,1,0,0:0:0:0:
188,56,49527,1,8,0:0:0:0:
188,56,49893,1,0,0:0:0:0:
192,108,49984,1,0,0:0:0:0:
192,108,50076,1,0,0:0:0:0:
188,56,50258,1,0,0:0:0:0:
188,56,50441,1,8,0:0:0:0:
188,56,50624,1,0,0:0:0:0:
180,68,50990,1,8,0:0:0:0:
180,64,51356,1,0,0:0:0:0:
180,64,51539,1,0,0:0:0:0:
180,68,51722,1,0,0:0:0:0:
192,32,51905,1,8,0:0:0:0:
180,64,52088,1,0,0:0:0:0:
220,48,52819,1,0,0:0:0:0:
256,136,52911,1,0,0:0:0:0:
248,136,53002,1,0,0:0:0:0:
208,64,53185,1,0,0:0:0:0:
208,64,53368,1,8,0:0:0:0:
208,68,53551,1,0,0:0:0:0:
204,68,53917,1,8,0:0:0:0:
204,72,54283,1,0,0:0:0:0:
231,103,54466,1,0,0:0:0:0:
204,72,54649,1,0,0:0:0:0:
204,68,54832,1,8,0:0:0:0:
204,68,55015,1,0,0:0:0:0:
180,64,55380,1,8,0:0:0:0:
180,64,55746,1,0,0:0:0:0:
212,80,55838,1,0,0:0:0:0:
212,76,55929,1,0,0:0:0:0:
180,64,56112,1,0,0:0:0:0:
180,64,56295,1,8,0:0:0:0:
180,64,56478,1,0,0:0:0:0:
180,64,56844,1,8,0:0:0:0:
180,64,57210,1,0,0:0:0:0:
180,64,57576,1,8,0:0:0:0:
180,64,58307,1,8,0:0:0:0:
172,144,58673,5,0,0:0:0:0:
172,144,59039,1,8,0:0:0:0:
208,100,59130,1,8,0:0:0:0:
172,144,59222,1,8,0:0:0:0:
172,144,59405,1,0,0:0:0:0:
172,144,59588,1,0,0:0:0:0:
172,144,59771,1,8,0:0:0:0:
208,100,60136,1,0,0:0:0:0:
208,100,60502,1,0,0:0:0:0:
212,80,60594,1,0,0:0:0:0:
208,100,60685,1,0,0:0:0:0:
208,100,60868,1,8,0:0:0:0:
208,100,61051,1,8,0:0:0:0:
208,100,61234,1,0,0:0:0:0:
208,100,61600,1,0,0:0:0:0:
208,100,61966,1,8,0:0:0:0:
216,68,62057,1,8,0:0:0:0:
208,100,62149,1,8,0:0:0:0:
208,100,62332,1,0,0:0:0:0:
208,100,62515,1,0,0:0:0:0:
208,100,62697,1,8,0:0:0:0:
208,100,63063,1,0,0:0:0:0:
208,100,63795,1,0,0:0:0:0:
208,100,64527,1,0,0:0:0:0:
208,100,64893,1,8,0:0:0:0:
208,72,64984,1,8,0:0:0:0:
208,100,65076,1,8,0:0:0:0:
208,100,65258,1,0,0:0:0:0:
208,100,65441,1,0,0:0:0:0:
208,100,65624,1,8,0:0:0:0:
208,100,65990,1,0,0:0:0:0:
212,80,66356,1,0,0:0:0:0:
208,76,66447,1,0,0:0:0:0:
212,80,66539,1,0,0:0:0:0:
212,80,66722,1,8,0:0:0:0:
212,80,66905,1,8,0:0:0:0:
212,80,67088,1,0,0:0:0:0:
212,80,67454,1,0,0:0:0:0:
212,80,67819,1,8,0:0:0:0:
208,72,67911,1,8,0:0:0:0:
212,80,68002,1,8,0:0:0:0:
212,80,68185,1,0,0:0:0:0:
212,80,68368,1,0,0:0:0:0:
212,80,68551,1,8,0:0:0:0:
212,80,68917,1,0,0:0:0:0:
208,84,69649,1,0,0:0:0:0:
184,88,70380,1,0,0:0:0:0:
200,116,70929,1,8,0:0:0:0:
200,116,71112,1,0,0:0:0:0:
200,116,71478,1,8,0:0:0:0:
200,116,71844,1,0,0:0:0:0:
200,116,72576,1,8,0:0:0:0:
176,96,73307,1,0,0:0:0:0:
248,56,73673,1,0,0:0:0:0:
176,96,73856,1,8,0:0:0:0:
176,96,74039,1,0,0:0:0:0:
208,68,74405,1,8,0:0:0:0:
208,68,74771,1,0,0:0:0:0:
208,68,75502,1,8,0:0:0:0:
208,68,76234,1,0,0:0:0:0:
200,72,76783,1,8,0:0:0:0:
200,72,76966,1,0,0:0:0:0:
200,72,77332,1,8,0:0:0:0:
200,72,77697,1,0,0:0:0:0:
200,72,78429,1,8,0:0:0:0:
200,72,79161,1,0,0:0:0:0:
216,48,79527,1,0,0:0:0:0:
200,72,79710,1,8,0:0:0:0:
200,72,79893,1,0,0:0:0:0:
200,72,80258,1,8,0:0:0:0:
176,76,80624,1,0,0:0:0:0:
188,92,80990,1,8,0:0:0:0:
188,92,81722,1,8,0:0:0:0:
68,96,82088,1,0,0:0:0:0:
88,112,82454,1,8,0:0:0:0:
224,176,82545,1,8,0:0:0:0:
88,112,82636,1,8,0:0:0:0:
88,112,82819,1,0,0:0:0:0:
88,112,83002,1,0,0:0:0:0:
88,112,83185,1,8,0:0:0:0:
136,116,83551,1,0,0:0:0:0:
136,116,83917,1,0,0:0:0:0:
236,152,84008,1,0,0:0:0:0:
136,116,84100,1,0,0:0:0:0:
136,116,84283,1,8,0:0:0:0:
136,116,84466,1,8,0:0:0:0:
136,116,84649,1,0,0:0:0:0:
136,116,85015,1,0,0:0:0:0:
136,116,85380,1,8,0:0:0:0:
232,160,85472,1,8,0:0:0:0:
136,116,85563,1,8,0:0:0:0:
136,116,85746,1,0,0:0:0:0:
136,116,85929,1,0,0:0:0:0:
136,116,86112,1,8,0:0:0:0:
136,116,86478,1,0,0:0:0:0:
136,116,87210,1,0,0:0:0:0:
136,116,87941,1,0,0:0:0:0:
136,116,88307,1,8,0:0:0:0:
200,136,88399,1,8,0:0:0:0:
136,116,88490,1,8,0:0:0:0:
136,116,88673,1,0,0:0:0:0:
136,116,88856,1,0,0:0:0:0:
136,116,89039,1,8,0:0:0:0:
144,92,89405,1,0,0:0:0:0:
192,84,89771,1,0,0:0:0:0:
232,104,89862,1,0,0:0:0:0:
192,84,89954,1,0,0:0:0:0:
192,84,90136,1,8,0:0:0:0:
192,84,90319,1,8,0:0:0:0:
192,84,90502,1,0,0:0:0:0:
192,84,90868,1,0,0:0:0:0:
174,47,93795,1,4,0:0:0:0:
