osu file format v14

[General]
AudioFilename: audio.mp3
AudioLeadIn: 0
PreviewTime: 23551
Countdown: 0
SampleSet: Normal
StackLeniency: 0.7
Mode: 1
LetterboxInBreaks: 0
WidescreenStoryboard: 1

[Editor]
Bookmarks: 137,23551,35258,58673,70380,82088,93795
DistanceSpacing: 3.3
BeatDivisor: 1
GridSize: 4
TimelineZoom: 2.600001

[Metadata]
Title:Cuando Perriabas
TitleUnicode:Cuando Perriabas
Artist:Bad Bunny
ArtistUnicode:Bad Bunny
Creator:Ulqui
Version:Kantan
Source:
Tags:reggaeton latin trap x100pre rimas entertainment hip hop tainy bellaqueo plan b spanish espaƱol dancehall reggae pop urban tatan pkhg cut
BeatmapID:2223391
BeatmapSetID:919932

[Difficulty]
HPDrainRate:7
CircleSize:5
OverallDifficulty:3
ApproachRate:6
SliderMultiplier:1.4
SliderTickRate:1

[Events]
//Background and Video events
0,0,"Konachan.com - 211981 sample (1).jpg",0,70
//Break Periods
2,70580,81038
//Storyboard Layer 0 (Background)
//Storyboard Layer 1 (Fail)
//Storyboard Layer 2 (Pass)
//Storyboard Layer 3 (Foreground)
//Storyboard Layer 4 (Overlay)
//Storyboard Sound Samples

[TimingPoints]
137,365.853658536585,4,1,0,50,1,0
23460,-100,4,1,0,90,0,0
23551,-100,4,1,0,90,0,1
27941,-100,4,1,0,90,0,0
29405,-100,4,1,0,90,0,1
35167,-100,4,1,0,50,0,1
35258,-100,4,1,0,50,0,0
58582,-100,4,1,0,90,0,0
58673,-100,4,1,0,90,0,1
63063,-100,4,1,0,90,0,0
64527,-100,4,1,0,90,0,1
70289,-100,4,1,0,50,0,1
70380,-100,4,1,0,50,0,0
81996,-100,4,1,0,90,0,0
82088,-100,4,1,0,90,0,1
86478,-100,4,1,0,90,0,0
87941,-100,4,1,0,90,0,1
90868,-100,4,1,0,90,0,0
93795,-100,4,1,0,90,0,0

[HitObjects]
194,145,11844,5,8,0:0:0:0:
175,178,12576,1,8,0:0:0:0:
175,178,13307,1,8,0:0:0:0:
179,156,14771,1,8,0:0:0:0:
171,167,15502,1,8,0:0:0:0:
165,168,16234,1,8,0:0:0:0:
166,166,17697,1,8,0:0:0:0:
166,166,18429,1,8,0:0:0:0:
166,166,19161,1,8,0:0:0:0:
167,160,20624,1,8,0:0:0:0:
167,160,21356,1,8,0:0:0:0:
167,160,22088,1,8,0:0:0:0:
168,80,23551,5,0,0:0:0:0:
76,108,23917,1,8,0:0:0:0:
76,108,24283,1,8,0:0:0:0:
76,108,24649,1,8,0:0:0:0:
76,108,25380,1,0,0:0:0:0:
76,108,25746,1,0,0:0:0:0:
76,108,26112,1,0,0:0:0:0:
76,108,26844,1,8,0:0:0:0:
76,108,27210,1,8,0:0:0:0:
76,108,27576,1,8,0:0:0:0:
194,37,28307,1,8,0:0:0:0:
76,108,29039,1,0,0:0:0:0:
84,96,29771,1,8,0:0:0:0:
84,96,30136,1,8,0:0:0:0:
88,100,30502,1,8,0:0:0:0:
108,116,31234,1,0,0:0:0:0:
108,116,31600,1,0,0:0:0:0:
108,116,31966,1,0,0:0:0:0:
108,116,32697,1,8,0:0:0:0:
108,116,33063,1,8,0:0:0:0:
108,116,33429,1,8,0:0:0:0:
152,108,33795,1,0,0:0:0:0:
152,108,34527,1,0,0:0:0:0:
152,108,35258,1,0,0:0:0:0:
192,68,36356,1,8,0:0:0:0:
168,152,36722,1,0,0:0:0:0:
152,156,37454,1,8,0:0:0:0:
152,156,38185,1,0,0:0:0:0:
192,144,38917,1,8,0:0:0:0:
172,88,39649,1,0,0:0:0:0:
172,88,40380,1,8,0:0:0:0:
176,92,41112,1,0,0:0:0:0:
176,88,42210,1,8,0:0:0:0:
176,88,42576,1,0,0:0:0:0:
176,88,43307,1,8,0:0:0:0:
176,88,44039,1,0,0:0:0:0:
200,108,44771,1,8,0:0:0:0:
160,136,45502,1,0,0:0:0:0:
204,64,45868,1,0,0:0:0:0:
276,96,46234,1,0,0:0:0:0:
180,136,46966,1,0,0:0:0:0:
184,128,48063,1,8,0:0:0:0:
168,112,48429,1,0,0:0:0:0:
208,112,49161,1,8,0:0:0:0:
208,112,49893,1,0,0:0:0:0:
208,112,50624,1,8,0:0:0:0:
208,112,51356,1,0,0:0:0:0:
216,120,51722,1,0,0:0:0:0:
208,112,52088,1,0,0:0:0:0:
208,112,52819,1,0,0:0:0:0:
208,112,53917,1,8,0:0:0:0:
208,112,54283,1,0,0:0:0:0:
208,132,55015,1,8,0:0:0:0:
208,132,55746,1,0,0:0:0:0:
208,132,56478,1,8,0:0:0:0:
208,132,57210,1,0,0:0:0:0:
208,128,58673,1,0,0:0:0:0:
180,136,59039,1,8,0:0:0:0:
180,136,59405,1,8,0:0:0:0:
180,136,59771,1,8,0:0:0:0:
180,136,60502,1,0,0:0:0:0:
180,136,60868,1,0,0:0:0:0:
180,136,61234,1,0,0:0:0:0:
180,136,61966,1,8,0:0:0:0:
180,136,62332,1,8,0:0:0:0:
180,136,62697,1,8,0:0:0:0:
180,136,63429,1,8,0:0:0:0:
180,136,64161,1,0,0:0:0:0:
180,136,64893,1,8,0:0:0:0:
180,136,65258,1,8,0:0:0:0:
180,136,65624,1,8,0:0:0:0:
180,136,66356,1,0,0:0:0:0:
180,136,66722,1,0,0:0:0:0:
180,136,67088,1,0,0:0:0:0:
156,164,67819,1,8,0:0:0:0:
172,160,68185,1,8,0:0:0:0:
172,160,68551,1,8,0:0:0:0:
208,136,68917,1,0,0:0:0:0:
192,164,69649,1,0,0:0:0:0:
184,168,70380,1,0,0:0:0:0:
180,128,82088,5,0,0:0:0:0:
180,128,82454,1,8,0:0:0:0:
180,128,82819,1,8,0:0:0:0:
180,128,83185,1,8,0:0:0:0:
180,128,83917,1,0,0:0:0:0:
180,128,84283,1,0,0:0:0:0:
180,128,84649,1,0,0:0:0:0:
188,148,85380,1,8,0:0:0:0:
192,148,85746,1,8,0:0:0:0:
192,148,86112,1,8,0:0:0:0:
192,148,86844,1,8,0:0:0:0:
192,148,87576,1,0,0:0:0:0:
192,148,88307,1,8,0:0:0:0:
192,148,88673,1,8,0:0:0:0:
192,148,89039,1,8,0:0:0:0:
192,148,89771,1,0,0:0:0:0:
192,148,90136,1,0,0:0:0:0:
192,148,90502,1,0,0:0:0:0:
192,148,90868,1,0,0:0:0:0:
196,112,93795,1,4,0:0:0:0:
