osu file format v14

[General]
AudioFilename: audio.mp3
AudioLeadIn: 0
PreviewTime: 23551
Countdown: 0
SampleSet: Normal
StackLeniency: 0.7
Mode: 1
LetterboxInBreaks: 0
WidescreenStoryboard: 1

[Editor]
Bookmarks: 137,23551,35258,58673,70380,82088,93795
DistanceSpacing: 3.3
BeatDivisor: 2
GridSize: 4
TimelineZoom: 2.600001

[Metadata]
Title:Cuando Perriabas
TitleUnicode:Cuando Perriabas
Artist:Bad Bunny
ArtistUnicode:Bad Bunny
Creator:Ulqui
Version:Futsuu
Source:
Tags:reggaeton latin trap x100pre rimas entertainment hip hop tainy bellaqueo plan b spanish espaƱol dancehall reggae pop urban tatan pkhg cut
BeatmapID:2223390
BeatmapSetID:919932

[Difficulty]
HPDrainRate:6.5
CircleSize:5
OverallDifficulty:3.5
ApproachRate:6
SliderMultiplier:1.4
SliderTickRate:1

[Events]
//Background and Video events
0,0,"Konachan.com - 211981 sample (1).jpg",0,70
//Break Periods
2,70580,79940
//Storyboard Layer 0 (Background)
//Storyboard Layer 1 (Fail)
//Storyboard Layer 2 (Pass)
//Storyboard Layer 3 (Foreground)
//Storyboard Layer 4 (Overlay)
//Storyboard Sound Samples

[TimingPoints]
137,365.853658536585,4,1,0,50,1,0
23460,-100,4,1,0,90,0,0
23551,-100,4,1,0,90,0,1
27941,-100,4,1,0,90,0,0
29405,-100,4,1,0,90,0,1
35167,-100,4,1,0,50,0,1
35258,-100,4,1,0,50,0,0
58582,-100,4,1,0,90,0,0
58673,-100,4,1,0,90,0,1
63063,-100,4,1,0,90,0,0
64527,-100,4,1,0,90,0,1
70289,-100,4,1,0,50,0,1
70380,-100,4,1,0,50,0,0
81996,-100,4,1,0,90,0,0
82088,-100,4,1,0,90,0,1
86478,-100,4,1,0,90,0,0
87941,-100,4,1,0,90,0,1
90868,-100,4,1,0,90,0,0
93795,-100,4,1,0,90,0,0

[HitObjects]
120,216,11844,5,8,0:0:0:0:
248,48,12210,1,0,0:0:0:0:
180,116,12576,1,8,0:0:0:0:
180,116,13307,1,8,0:0:0:0:
180,116,14039,1,8,0:0:0:0:
180,116,14771,1,8,0:0:0:0:
192,60,15136,1,0,0:0:0:0:
180,116,15502,1,8,0:0:0:0:
180,116,16234,1,8,0:0:0:0:
180,116,16966,1,8,0:0:0:0:
188,112,17697,1,8,0:0:0:0:
188,112,18429,1,8,0:0:0:0:
200,56,18795,1,0,0:0:0:0:
188,112,19161,1,8,0:0:0:0:
188,112,19893,1,8,0:0:0:0:
224,16,20258,1,0,0:0:0:0:
188,112,20624,1,8,0:0:0:0:
188,112,21356,1,8,0:0:0:0:
188,112,21722,1,8,0:0:0:0:
192,112,22454,1,8,0:0:0:0:
192,112,23185,1,8,0:0:0:0:
220,156,23551,1,0,0:0:0:0:
220,156,23917,1,8,0:0:0:0:
220,156,24100,1,8,0:0:0:0:
220,156,24283,1,0,0:0:0:0:
232,112,24649,1,8,0:0:0:0:
122,157,25015,1,0,0:0:0:0:
216,112,25380,1,8,0:0:0:0:
216,112,25563,1,8,0:0:0:0:
216,112,25746,1,8,0:0:0:0:
200,124,26112,1,0,0:0:0:0:
200,124,26844,1,8,0:0:0:0:
200,124,27027,1,8,0:0:0:0:
216,120,27210,1,0,0:0:0:0:
216,120,27576,1,8,0:0:0:0:
224,88,27941,1,0,0:0:0:0:
224,88,28673,1,0,0:0:0:0:
224,88,29405,1,0,0:0:0:0:
224,88,29771,1,8,0:0:0:0:
224,88,29954,1,8,0:0:0:0:
224,88,30136,1,0,0:0:0:0:
224,88,30502,1,8,0:0:0:0:
151,107,30868,1,0,0:0:0:0:
224,88,31234,1,8,0:0:0:0:
224,88,31417,1,8,0:0:0:0:
224,88,31600,1,8,0:0:0:0:
224,88,31966,1,0,0:0:0:0:
216,104,32697,1,8,0:0:0:0:
216,104,32880,1,8,0:0:0:0:
216,104,33063,1,0,0:0:0:0:
216,104,33429,1,8,0:0:0:0:
216,104,33795,1,0,0:0:0:0:
216,104,34527,5,0,0:0:0:0:
180,96,35258,5,0,0:0:0:0:
216,104,35807,1,8,0:0:0:0:
192,168,35990,1,0,0:0:0:0:
192,168,36356,1,8,0:0:0:0:
192,168,36722,1,0,0:0:0:0:
192,168,37454,1,8,0:0:0:0:
192,168,38185,1,0,0:0:0:0:
192,168,38917,1,0,0:0:0:0:
192,168,39283,1,8,0:0:0:0:
192,168,39649,1,0,0:0:0:0:
192,168,40380,1,8,0:0:0:0:
236,76,41112,1,0,0:0:0:0:
212,88,41661,1,8,0:0:0:0:
212,88,41844,1,0,0:0:0:0:
212,88,42210,1,8,0:0:0:0:
212,88,42576,1,0,0:0:0:0:
200,116,43307,1,8,0:0:0:0:
200,112,44039,1,0,0:0:0:0:
200,112,44588,1,8,0:0:0:0:
200,112,44771,1,0,0:0:0:0:
200,112,45136,1,8,0:0:0:0:
200,112,45502,1,0,0:0:0:0:
200,112,45868,1,0,0:0:0:0:
200,112,46234,1,0,0:0:0:0:
200,112,46966,1,0,0:0:0:0:
204,108,47332,1,8,0:0:0:0:
204,108,47515,1,8,0:0:0:0:
204,108,47697,1,0,0:0:0:0:
204,108,48063,1,8,0:0:0:0:
204,104,48429,1,0,0:0:0:0:
196,104,48978,1,8,0:0:0:0:
196,104,49161,1,0,0:0:0:0:
196,104,49527,1,8,0:0:0:0:
196,104,49893,1,0,0:0:0:0:
196,104,50258,1,8,0:0:0:0:
196,104,50441,1,8,0:0:0:0:
196,104,50624,1,0,0:0:0:0:
196,104,50990,1,8,0:0:0:0:
196,104,51356,1,0,0:0:0:0:
196,104,51722,1,0,0:0:0:0:
196,104,52088,1,8,0:0:0:0:
200,84,52819,1,0,0:0:0:0:
200,84,53185,1,8,0:0:0:0:
200,84,53368,1,8,0:0:0:0:
196,84,53551,1,0,0:0:0:0:
196,84,53917,1,8,0:0:0:0:
200,88,54283,1,0,0:0:0:0:
180,116,54832,1,8,0:0:0:0:
180,116,55015,1,0,0:0:0:0:
180,116,55380,1,8,0:0:0:0:
180,116,55746,1,0,0:0:0:0:
180,116,56112,1,8,0:0:0:0:
180,116,56295,1,8,0:0:0:0:
180,116,56478,1,0,0:0:0:0:
180,116,56844,1,8,0:0:0:0:
180,116,57210,1,0,0:0:0:0:
180,116,57576,1,8,0:0:0:0:
180,116,58307,1,8,0:0:0:0:
180,116,58673,1,0,0:0:0:0:
184,184,59039,1,8,0:0:0:0:
184,184,59222,1,8,0:0:0:0:
184,184,59405,1,0,0:0:0:0:
184,184,59771,1,8,0:0:0:0:
240,188,60136,1,0,0:0:0:0:
184,184,60502,1,8,0:0:0:0:
184,184,60685,1,8,0:0:0:0:
184,184,60868,1,8,0:0:0:0:
184,184,61234,1,0,0:0:0:0:
184,184,61966,1,8,0:0:0:0:
184,184,62149,1,8,0:0:0:0:
184,184,62332,1,0,0:0:0:0:
184,184,62697,1,8,0:0:0:0:
176,40,63063,1,0,0:0:0:0:
168,104,63795,1,0,0:0:0:0:
168,104,64527,1,0,0:0:0:0:
168,108,64893,1,8,0:0:0:0:
168,108,65076,1,8,0:0:0:0:
168,108,65258,1,0,0:0:0:0:
168,108,65624,1,8,0:0:0:0:
260,112,65990,1,0,0:0:0:0:
168,108,66356,1,8,0:0:0:0:
168,108,66539,1,8,0:0:0:0:
168,108,66722,1,8,0:0:0:0:
168,108,67088,1,0,0:0:0:0:
168,108,67819,1,8,0:0:0:0:
168,108,68002,1,8,0:0:0:0:
168,108,68185,1,0,0:0:0:0:
168,108,68551,1,8,0:0:0:0:
168,108,68917,1,0,0:0:0:0:
168,108,69649,1,0,0:0:0:0:
168,108,70380,1,0,0:0:0:0:
256,248,80990,5,8,0:0:0:0:
224,252,81722,1,8,0:0:0:0:
224,252,82088,1,0,0:0:0:0:
224,216,82454,1,8,0:0:0:0:
224,216,82636,1,8,0:0:0:0:
224,216,82819,1,0,0:0:0:0:
224,216,83185,1,8,0:0:0:0:
224,216,83551,1,0,0:0:0:0:
224,216,83917,1,8,0:0:0:0:
224,216,84100,1,8,0:0:0:0:
224,216,84283,1,8,0:0:0:0:
224,216,84649,1,0,0:0:0:0:
248,196,85380,1,8,0:0:0:0:
248,196,85563,1,8,0:0:0:0:
236,188,85746,1,0,0:0:0:0:
236,192,86112,1,8,0:0:0:0:
236,192,86478,1,0,0:0:0:0:
236,192,87210,1,0,0:0:0:0:
176,112,87941,1,0,0:0:0:0:
176,120,88307,1,8,0:0:0:0:
176,120,88490,1,8,0:0:0:0:
176,120,88673,1,0,0:0:0:0:
176,120,89039,1,8,0:0:0:0:
176,120,89405,1,0,0:0:0:0:
176,120,89771,1,8,0:0:0:0:
176,120,89954,1,8,0:0:0:0:
176,120,90136,1,8,0:0:0:0:
176,120,90502,1,0,0:0:0:0:
192,128,90868,1,0,0:0:0:0:
285,205,93795,1,4,0:0:0:0:
