osu file format v14

[General]
AudioFilename: audio.mp3
AudioLeadIn: 0
PreviewTime: 28586
Countdown: 0
SampleSet: Normal
StackLeniency: 0.7
Mode: 1
LetterboxInBreaks: 0
WidescreenStoryboard: 1

[Editor]
DistanceSpacing: 0.9
BeatDivisor: 4
GridSize: 32
TimelineZoom: 1.3

[Metadata]
Title:Just Fine (TV Size)
TitleUnicode:Just Fine (TV Size)
Artist:Backhouse Mike
ArtistUnicode:Backhouse Mike
Creator:Lexa14
Version:Muzukashii
Source:Sam & Cat
Tags:english pop tv show and nickelodeon ariana grande jennette mccurdy theme song opening sam&cat michael corcoran op Eric Goldman Dan Schneider
BeatmapID:3325636
BeatmapSetID:1629075

[Difficulty]
HPDrainRate:7
CircleSize:2
OverallDifficulty:4
ApproachRate:3
SliderMultiplier:1.4
SliderTickRate:1

[Events]
//Background and Video events
0,0,"8AJZlU8jXB3hrE2tDe3r96K9QGd.jpg",0,80
//Break Periods
//Storyboard Layer 0 (Background)
//Storyboard Layer 1 (Fail)
//Storyboard Layer 2 (Pass)
//Storyboard Layer 3 (Foreground)
//Storyboard Layer 4 (Overlay)
//Storyboard Sound Samples

[TimingPoints]
172,487.80487804878,4,1,0,40,1,0
172,-100,4,1,0,40,0,0
2083,-100,4,1,0,70,0,0
29440,-100,4,1,0,80,0,1
50903,-100,4,1,0,60,0,0
52814,-100,4,1,0,40,0,0
53830,-100,4,1,0,20,0,0

[HitObjects]
256,192,172,5,0,0:0:0:0:
256,192,659,1,8,0:0:0:0:
256,192,903,1,8,0:0:0:0:
256,192,1391,1,0,0:0:0:0:
256,192,1635,1,8,0:0:0:0:
256,192,1879,1,8,0:0:0:0:
256,192,2123,1,4,0:0:0:0:
256,192,2611,1,8,0:0:0:0:
256,192,3098,1,0,0:0:0:0:
256,192,3342,1,0,0:0:0:0:
256,192,3464,1,0,0:0:0:0:
256,192,3586,1,0,0:0:0:0:
256,192,3830,1,8,0:0:0:0:
256,192,4074,1,0,0:0:0:0:
256,192,4318,1,0,0:0:0:0:
256,192,4562,1,8,0:0:0:0:
256,192,5293,1,0,0:0:0:0:
256,192,5537,1,8,0:0:0:0:
256,192,6025,1,8,0:0:0:0:
256,192,6269,1,0,0:0:0:0:
256,192,6513,1,8,0:0:0:0:
256,192,6757,1,8,0:0:0:0:
256,192,7001,1,0,0:0:0:0:
256,192,7245,1,0,0:0:0:0:
256,192,7489,1,8,0:0:0:0:
256,192,7732,1,8,0:0:0:0:
256,192,7976,1,0,0:0:0:0:
256,192,8464,1,8,0:0:0:0:
256,192,8708,1,0,0:0:0:0:
256,192,9196,1,8,0:0:0:0:
256,192,9318,1,8,0:0:0:0:
256,192,9440,1,8,0:0:0:0:
256,192,9684,1,0,0:0:0:0:
256,192,9928,1,8,0:0:0:0:
256,192,10415,1,8,0:0:0:0:
256,192,11147,1,0,0:0:0:0:
256,192,11391,1,8,0:0:0:0:
256,192,11513,1,8,0:0:0:0:
256,192,11635,1,8,0:0:0:0:
256,192,11879,1,8,0:0:0:0:
256,192,12123,1,0,0:0:0:0:
256,192,12367,1,8,0:0:0:0:
256,192,13098,1,0,0:0:0:0:
256,192,13342,1,8,0:0:0:0:
256,192,13830,1,8,0:0:0:0:
256,192,14074,1,0,0:0:0:0:
256,192,14318,1,8,0:0:0:0:
256,192,14562,1,8,0:0:0:0:
256,192,14806,1,0,0:0:0:0:
256,192,15293,1,8,0:0:0:0:
256,192,15537,1,0,0:0:0:0:
256,192,16025,1,0,0:0:0:0:
256,192,16513,1,8,0:0:0:0:
256,192,17001,1,0,0:0:0:0:
256,192,17489,1,0,0:0:0:0:
256,192,17732,1,8,0:0:0:0:
256,192,18220,1,8,0:0:0:0:
256,192,18708,1,8,0:0:0:0:
256,192,18952,1,0,0:0:0:0:
256,192,19440,1,8,0:0:0:0:
256,192,19684,1,0,0:0:0:0:
256,192,20415,1,0,0:0:0:0:
256,192,20659,1,8,0:0:0:0:
256,192,20903,1,0,0:0:0:0:
256,192,21147,1,8,0:0:0:0:
256,192,21391,1,8,0:0:0:0:
256,192,21635,1,0,0:0:0:0:
256,192,22123,1,0,0:0:0:0:
256,192,22367,1,8,0:0:0:0:
256,192,22611,1,0,0:0:0:0:
256,192,23098,1,0,0:0:0:0:
256,192,23342,1,8,0:0:0:0:
256,192,23464,1,8,0:0:0:0:
256,192,23586,1,8,0:0:0:0:
256,192,23830,1,8,0:0:0:0:
256,192,24318,1,0,0:0:0:0:
256,192,24562,1,8,0:0:0:0:
256,192,24806,1,8,0:0:0:0:
256,192,25050,1,0,0:0:0:0:
256,192,25293,1,0,0:0:0:0:
256,192,25537,1,8,0:0:0:0:
256,192,26025,1,8,0:0:0:0:
256,192,26269,1,0,0:0:0:0:
256,192,26757,1,0,0:0:0:0:
256,192,27245,1,8,0:0:0:0:
256,192,27489,1,0,0:0:0:0:
256,192,28464,1,0,0:0:0:0:
256,192,28708,1,8,0:0:0:0:
256,192,28830,1,8,0:0:0:0:
256,192,28952,1,8,0:0:0:0:
256,192,29196,1,0,0:0:0:0:
256,192,29440,1,12,0:0:0:0:
256,192,29928,1,0,0:0:0:0:
256,192,30171,1,8,0:0:0:0:
256,192,30293,1,8,0:0:0:0:
256,192,30415,1,8,0:0:0:0:
256,192,30659,1,0,0:0:0:0:
256,192,30903,1,0,0:0:0:0:
256,192,31147,1,8,0:0:0:0:
256,192,31635,1,0,0:0:0:0:
256,192,31879,1,0,0:0:0:0:
256,192,32123,1,8,0:0:0:0:
256,192,32367,1,8,0:0:0:0:
256,192,32611,1,0,0:0:0:0:
256,192,32732,1,0,0:0:0:0:
256,192,32854,1,0,0:0:0:0:
256,192,33098,1,8,0:0:0:0:
256,192,33586,1,0,0:0:0:0:
256,192,33830,1,0,0:0:0:0:
256,192,34074,1,8,0:0:0:0:
256,192,34562,1,0,0:0:0:0:
256,192,35050,1,8,0:0:0:0:
256,192,35293,1,0,0:0:0:0:
256,192,35537,1,8,0:0:0:0:
256,192,35659,1,8,0:0:0:0:
256,192,35781,1,8,0:0:0:0:
256,192,36025,1,8,0:0:0:0:
256,192,36269,1,0,0:0:0:0:
256,192,36513,1,0,0:0:0:0:
256,192,36635,1,0,0:0:0:0:
256,192,36757,1,0,0:0:0:0:
256,192,37001,1,8,0:0:0:0:
256,192,37489,1,8,0:0:0:0:
256,192,37732,1,0,0:0:0:0:
256,192,37976,1,8,0:0:0:0:
256,192,38098,1,8,0:0:0:0:
256,192,38220,1,8,0:0:0:0:
256,192,38464,1,0,0:0:0:0:
256,192,38708,1,0,0:0:0:0:
256,192,38952,1,8,0:0:0:0:
256,192,39440,1,0,0:0:0:0:
256,192,39684,1,8,0:0:0:0:
256,192,39928,1,8,0:0:0:0:
256,192,40050,1,8,0:0:0:0:
256,192,40171,1,8,0:0:0:0:
256,192,40415,1,0,0:0:0:0:
256,192,40659,1,8,0:0:0:0:
256,192,40903,1,0,0:0:0:0:
256,192,41391,1,0,0:0:0:0:
256,192,41635,1,0,0:0:0:0:
256,192,41879,1,8,0:0:0:0:
256,192,42367,1,0,0:0:0:0:
256,192,42611,1,8,0:0:0:0:
256,192,42854,1,0,0:0:0:0:
256,192,42976,1,0,0:0:0:0:
256,192,43098,1,0,0:0:0:0:
256,192,43342,1,0,0:0:0:0:
256,192,43586,1,0,0:0:0:0:
256,192,43830,1,8,0:0:0:0:
256,192,44318,1,0,0:0:0:0:
256,192,44562,1,8,0:0:0:0:
256,192,44806,1,8,0:0:0:0:
256,192,45293,1,0,0:0:0:0:
256,192,45537,1,0,0:0:0:0:
256,192,45781,1,8,0:0:0:0:
256,192,46025,1,0,0:0:0:0:
256,192,46269,1,8,0:0:0:0:
256,192,46757,1,8,0:0:0:0:
256,192,46879,1,8,0:0:0:0:
256,192,47001,1,8,0:0:0:0:
256,192,47245,1,0,0:0:0:0:
256,192,47489,1,8,0:0:0:0:
256,192,47976,1,0,0:0:0:0:
256,192,48220,1,0,0:0:0:0:
256,192,48342,1,0,0:0:0:0:
256,192,48464,1,0,0:0:0:0:
256,192,48708,1,8,0:0:0:0:
256,192,49196,1,8,0:0:0:0:
256,192,49440,1,0,0:0:0:0:
256,192,49562,1,0,0:0:0:0:
256,192,49684,1,0,0:0:0:0:
256,192,50171,1,0,0:0:0:0:
256,192,50415,1,8,0:0:0:0:
256,192,50903,1,4,0:0:0:0:
256,192,52854,12,0,54806,0:0:0:0:
