osu file format v14

[General]
AudioFilename: audio.mp3
AudioLeadIn: 0
PreviewTime: 82407
Countdown: 0
SampleSet: Normal
StackLeniency: 0.7
Mode: 1
LetterboxInBreaks: 0
WidescreenStoryboard: 0

[Editor]
DistanceSpacing: 0.8
BeatDivisor: 6
GridSize: 4
TimelineZoom: 2

[Metadata]
Title:Takane no Hanako San (Summerset Eurobeat RMX)
TitleUnicode:高嶺の花子さん (Summerset Eurobeat RMX)
Artist:Back Number
ArtistUnicode:Back Number
Creator:Front
Version:feel summer
Source:
Tags:J-POP Remix 清水依与吏 小島和也 栗原寿 Iyori Shimizu Kazuma Kojima Hisasi Kurihara
BeatmapID:1979851
BeatmapSetID:947978

[Difficulty]
HPDrainRate:5
CircleSize:2
OverallDifficulty:5
ApproachRate:10
SliderMultiplier:1.4
SliderTickRate:1

[Events]
//Background and Video events
0,0,"sm33845017.png",0,0
//Break Periods
//Storyboard Layer 0 (Background)
//Storyboard Layer 1 (Fail)
//Storyboard Layer 2 (Pass)
//Storyboard Layer 3 (Foreground)
//Storyboard Sound Samples

[TimingPoints]
0,400,4,1,0,80,1,0
24102,-99.009900990099,4,1,0,80,0,0
24202,-98.0392156862745,4,1,0,80,0,0
24302,-97.0873786407767,4,1,0,80,0,0
24402,-96.1538461538461,4,1,0,80,0,0
24502,-95.2380952380952,4,1,0,80,0,0
24602,-94.3396226415094,4,1,0,80,0,0
24702,-93.4579439252336,4,1,0,80,0,0
24902,-91.743119266055,4,1,0,80,0,0
25002,-90.9090909090909,4,1,0,80,0,0
25102,-90.0900900900901,4,1,0,80,0,0
25202,-89.2857142857143,4,1,0,80,0,0
25302,-88.4955752212389,4,1,0,80,0,0
25402,-87.719298245614,4,1,0,80,0,0
25502,-86.9565217391304,4,1,0,80,0,0
25602,-86.9565217391304,4,1,0,90,0,1
38402,-88.4955752212389,4,1,0,80,0,0
38602,-90.0900900900901,4,1,0,80,0,0
38702,-90.9090909090909,4,1,0,80,0,0
38802,-91.743119266055,4,1,0,80,0,0
38902,-92.5925925925926,4,1,0,80,0,0
39002,-93.4579439252336,4,1,0,80,0,0
39102,-94.3396226415094,4,1,0,80,0,0
39202,-95.2380952380952,4,1,0,80,0,0
39302,-96.1538461538461,4,1,0,80,0,0
39402,-97.0873786407767,4,1,0,80,0,0
39502,-98.0392156862745,4,1,0,80,0,0
39602,-99.009900990099,4,1,0,80,0,0
39702,-100,4,1,0,80,0,0
67102,-95.2380952380952,4,1,0,80,0,0
72002,-96.1538461538461,4,1,0,80,0,0
72102,-97.0873786407767,4,1,0,80,0,0
72202,-98.0392156862745,4,1,0,80,0,0
72302,-99.009900990099,4,1,0,80,0,0
72402,-100,4,1,0,80,0,0
80202,-98.0392156862745,4,1,0,80,0,0
80302,-97.0873786407767,4,1,0,80,0,0
80402,-96.1538461538461,4,1,0,80,0,0
80502,-95.2380952380952,4,1,0,80,0,0
80602,-94.3396226415094,4,1,0,80,0,0
80702,-93.4579439252336,4,1,0,80,0,0
80802,-92.5925925925926,4,1,0,80,0,0
80902,-91.743119266055,4,1,0,80,0,0
81002,-90.9090909090909,4,1,0,80,0,0
81102,-90.0900900900901,4,1,0,80,0,0
81202,-89.2857142857143,4,1,0,80,0,0
81302,-88.4955752212389,4,1,0,80,0,0
81402,-87.719298245614,4,1,0,80,0,0
81502,-86.9565217391304,4,1,0,80,0,0
81602,-86.2068965517241,4,1,0,80,0,0
81802,-84.7457627118644,4,1,0,80,0,0
82002,-83.3333333333333,4,1,0,80,0,0
82202,-81.9672131147541,4,1,0,80,0,0
83202,-76.9230769230769,4,1,0,90,0,1
108902,-78.125,4,1,0,90,0,1
109002,-79.3650793650794,4,1,0,90,0,1
109102,-80.6451612903226,4,1,0,90,0,1
109202,-81.9672131147541,4,1,0,90,0,1
109402,-84.7457627118644,4,1,0,90,0,1
109502,-86.9565217391304,4,1,0,90,0,1
121602,-86.9565217391304,4,1,0,80,0,0
121802,-88.4955752212389,4,1,0,80,0,0
121902,-89.2857142857143,4,1,0,80,0,0
122002,-90.0900900900901,4,1,0,80,0,0
122102,-90.9090909090909,4,1,0,80,0,0
122202,-91.743119266055,4,1,0,80,0,0
122302,-92.5925925925926,4,1,0,80,0,0
122402,-93.4579439252336,4,1,0,80,0,0
122502,-94.3396226415094,4,1,0,80,0,0
122602,-95.2380952380952,4,1,0,80,0,0
122702,-96.1538461538461,4,1,0,80,0,0
122802,-97.0873786407767,4,1,0,80,0,0
122902,-98.0392156862745,4,1,0,80,0,0
123002,-99.009900990099,4,1,0,80,0,0
123102,-100,4,1,0,80,0,0
127002,-98.0392156862745,4,1,0,80,0,0
127068,-96.1538461538461,4,1,0,80,0,0
127135,-94.3396226415094,4,1,0,80,0,0
127202,-92.5925925925926,4,1,0,80,0,0
127402,-87.719298245614,4,1,0,80,0,0
127602,-83.3333333333333,4,1,0,80,0,0
127802,-79.3650793650794,4,1,0,80,0,0

[HitObjects]
256,192,0,5,0,0:0:0:0:
256,192,400,1,0,0:0:0:0:
256,192,800,1,0,0:0:0:0:
256,192,1200,1,0,0:0:0:0:
256,192,1600,1,0,0:0:0:0:
256,192,2000,1,0,0:0:0:0:
256,192,2400,1,0,0:0:0:0:
256,192,2800,1,0,0:0:0:0:
256,192,3000,1,0,0:0:0:0:
256,192,3200,1,0,0:0:0:0:
256,192,3600,1,0,0:0:0:0:
256,192,4000,1,0,0:0:0:0:
256,192,4400,1,0,0:0:0:0:
256,192,4800,1,0,0:0:0:0:
256,192,5200,1,0,0:0:0:0:
256,192,5600,1,0,0:0:0:0:
256,192,6000,1,0,0:0:0:0:
256,192,6200,1,0,0:0:0:0:
256,192,6400,1,0,0:0:0:0:
256,192,6800,1,0,0:0:0:0:
256,192,7200,1,0,0:0:0:0:
256,192,7600,1,0,0:0:0:0:
256,192,8000,1,0,0:0:0:0:
256,192,8400,1,0,0:0:0:0:
256,192,8800,1,0,0:0:0:0:
256,192,9200,1,0,0:0:0:0:
256,192,9400,1,0,0:0:0:0:
256,192,9600,1,8,0:0:0:0:
256,192,10000,1,8,0:0:0:0:
256,192,10400,1,8,0:0:0:0:
256,192,10800,1,8,0:0:0:0:
256,192,11200,1,8,0:0:0:0:
256,192,11600,1,8,0:0:0:0:
256,192,12000,1,8,0:0:0:0:
256,192,12200,1,8,0:0:0:0:
256,192,12400,1,8,0:0:0:0:
256,192,12600,1,8,0:0:0:0:
256,192,12800,1,4,0:0:0:0:
256,192,13000,1,0,0:0:0:0:
256,192,13100,1,0,0:0:0:0:
256,192,13200,1,8,0:0:0:0:
256,192,13400,1,8,0:0:0:0:
256,192,13500,1,8,0:0:0:0:
256,192,13600,1,0,0:0:0:0:
256,192,13800,1,0,0:0:0:0:
256,192,13900,1,8,0:0:0:0:
256,192,14000,1,0,0:0:0:0:
256,192,14200,1,8,0:0:0:0:
256,192,14300,1,8,0:0:0:0:
256,192,14400,1,0,0:0:0:0:
256,192,14600,1,0,0:0:0:0:
256,192,14700,1,8,0:0:0:0:
256,192,14800,1,0,0:0:0:0:
256,192,15000,1,0,0:0:0:0:
256,192,15100,1,8,0:0:0:0:
256,192,15200,1,8,0:0:0:0:
256,192,15400,1,8,0:0:0:0:
256,192,15500,1,8,0:0:0:0:
256,192,15600,1,0,0:0:0:0:
256,192,15700,1,0,0:0:0:0:
256,192,15800,1,8,0:0:0:0:
256,192,15900,1,0,0:0:0:0:
256,192,16000,1,12,0:0:0:0:
256,192,16200,1,0,0:0:0:0:
256,192,16300,1,0,0:0:0:0:
256,192,16400,1,8,0:0:0:0:
256,192,16600,1,8,0:0:0:0:
256,192,16700,1,8,0:0:0:0:
256,192,16800,1,0,0:0:0:0:
256,192,17000,1,0,0:0:0:0:
256,192,17100,1,8,0:0:0:0:
256,192,17200,1,0,0:0:0:0:
256,192,17400,1,8,0:0:0:0:
256,192,17500,1,8,0:0:0:0:
256,192,17600,1,0,0:0:0:0:
256,192,17800,1,0,0:0:0:0:
256,192,17900,1,8,0:0:0:0:
256,192,18000,1,0,0:0:0:0:
256,192,18200,1,0,0:0:0:0:
256,192,18300,1,8,0:0:0:0:
256,192,18400,1,8,0:0:0:0:
256,192,18600,1,8,0:0:0:0:
256,192,18700,1,8,0:0:0:0:
256,192,18800,1,0,0:0:0:0:
256,192,18900,1,0,0:0:0:0:
256,192,19000,1,8,0:0:0:0:
256,192,19100,1,0,0:0:0:0:
256,192,19200,1,12,0:0:0:0:
256,192,19400,1,0,0:0:0:0:
256,192,19500,1,0,0:0:0:0:
256,192,19600,1,8,0:0:0:0:
256,192,19800,1,8,0:0:0:0:
256,192,19900,1,8,0:0:0:0:
256,192,20000,1,0,0:0:0:0:
256,192,20200,1,0,0:0:0:0:
256,192,20300,1,8,0:0:0:0:
256,192,20400,1,0,0:0:0:0:
256,192,20600,1,8,0:0:0:0:
256,192,20700,1,8,0:0:0:0:
256,192,20800,1,0,0:0:0:0:
256,192,21000,1,0,0:0:0:0:
256,192,21100,1,8,0:0:0:0:
256,192,21200,1,0,0:0:0:0:
256,192,21400,1,0,0:0:0:0:
256,192,21500,1,8,0:0:0:0:
256,192,21600,1,8,0:0:0:0:
256,192,21800,1,8,0:0:0:0:
256,192,21900,1,8,0:0:0:0:
256,192,22000,1,0,0:0:0:0:
256,192,22100,1,0,0:0:0:0:
256,192,22200,1,8,0:0:0:0:
256,192,22300,1,0,0:0:0:0:
256,192,22400,1,12,0:0:0:0:
256,192,22600,1,0,0:0:0:0:
256,192,22800,1,0,0:0:0:0:
256,192,23000,1,8,0:0:0:0:
256,192,23200,1,0,0:0:0:0:
256,192,23400,1,0,0:0:0:0:
256,192,23600,1,8,0:0:0:0:
256,192,23800,1,0,0:0:0:0:
256,192,24000,1,8,0:0:0:0:
256,192,24100,1,0,0:0:0:0:
256,192,24200,1,0,0:0:0:0:
256,192,24300,1,8,0:0:0:0:
256,192,24400,1,0,0:0:0:0:
256,192,24500,1,0,0:0:0:0:
256,192,24600,1,8,0:0:0:0:
256,192,24700,1,0,0:0:0:0:
256,192,24900,1,0,0:0:0:0:
256,192,25000,1,8,0:0:0:0:
256,192,25100,1,0,0:0:0:0:
256,192,25200,1,8,0:0:0:0:
256,192,25300,1,8,0:0:0:0:
256,192,25400,1,0,0:0:0:0:
256,192,25500,1,8,0:0:0:0:
256,192,25600,1,8,0:0:0:0:
256,192,25700,1,8,0:0:0:0:
256,192,25800,1,8,0:0:0:0:
256,192,25900,1,0,0:0:0:0:
256,192,26000,1,8,0:0:0:0:
256,192,26200,1,0,0:0:0:0:
256,192,26300,1,0,0:0:0:0:
256,192,26400,1,8,0:0:0:0:
256,192,26600,1,8,0:0:0:0:
256,192,26700,1,8,0:0:0:0:
256,192,26800,1,0,0:0:0:0:
256,192,26900,1,0,0:0:0:0:
256,192,27000,1,8,0:0:0:0:
256,192,27200,1,0,0:0:0:0:
256,192,27400,1,0,0:0:0:0:
256,192,27500,1,0,0:0:0:0:
256,192,27600,1,8,0:0:0:0:
256,192,27800,1,8,0:0:0:0:
256,192,27900,1,8,0:0:0:0:
256,192,28000,1,0,0:0:0:0:
256,192,28200,1,8,0:0:0:0:
256,192,28300,1,8,0:0:0:0:
256,192,28400,1,0,0:0:0:0:
256,192,28500,1,0,0:0:0:0:
256,192,28600,1,0,0:0:0:0:
256,192,28800,1,8,0:0:0:0:
256,192,28900,1,0,0:0:0:0:
256,192,29000,1,0,0:0:0:0:
256,192,29100,1,8,0:0:0:0:
256,192,29200,1,8,0:0:0:0:
256,192,29300,1,0,0:0:0:0:
256,192,29400,1,0,0:0:0:0:
256,192,29500,1,8,0:0:0:0:
256,192,29600,1,8,0:0:0:0:
256,192,29700,1,0,0:0:0:0:
256,192,29800,1,8,0:0:0:0:
256,192,29900,1,8,0:0:0:0:
256,192,30100,1,0,0:0:0:0:
256,192,30200,1,8,0:0:0:0:
256,192,30300,1,0,0:0:0:0:
256,192,30400,1,0,0:0:0:0:
256,192,30600,1,0,0:0:0:0:
256,192,30700,1,0,0:0:0:0:
256,192,30800,1,8,0:0:0:0:
256,192,30900,1,8,0:0:0:0:
256,192,31000,1,0,0:0:0:0:
256,192,31100,1,8,0:0:0:0:
256,192,31200,1,0,0:0:0:0:
256,192,31400,1,0,0:0:0:0:
256,192,31600,1,8,0:0:0:0:
256,192,31700,1,0,0:0:0:0:
256,192,31800,1,0,0:0:0:0:
256,192,31900,1,8,0:0:0:0:
256,192,32000,1,8,0:0:0:0:
256,192,32100,1,8,0:0:0:0:
256,192,32200,1,8,0:0:0:0:
256,192,32300,1,0,0:0:0:0:
256,192,32400,1,8,0:0:0:0:
256,192,32600,1,0,0:0:0:0:
256,192,32700,1,0,0:0:0:0:
256,192,32800,1,8,0:0:0:0:
256,192,33000,1,8,0:0:0:0:
256,192,33100,1,8,0:0:0:0:
256,192,33200,1,0,0:0:0:0:
256,192,33300,1,8,0:0:0:0:
256,192,33400,1,8,0:0:0:0:
256,192,33600,1,8,0:0:0:0:
256,192,33800,1,8,0:0:0:0:
256,192,33900,1,8,0:0:0:0:
256,192,34000,1,0,0:0:0:0:
256,192,34200,1,0,0:0:0:0:
256,192,34300,1,8,0:0:0:0:
256,192,34400,1,8,0:0:0:0:
256,192,34600,1,8,0:0:0:0:
256,192,34700,1,8,0:0:0:0:
256,192,34800,1,0,0:0:0:0:
256,192,34900,1,0,0:0:0:0:
256,192,35000,1,0,0:0:0:0:
256,192,35200,1,8,0:0:0:0:
256,192,35300,1,0,0:0:0:0:
256,192,35400,1,0,0:0:0:0:
256,192,35500,1,8,0:0:0:0:
256,192,35600,1,8,0:0:0:0:
256,192,35700,1,0,0:0:0:0:
256,192,35800,1,0,0:0:0:0:
256,192,35900,1,8,0:0:0:0:
256,192,36000,1,8,0:0:0:0:
256,192,36100,1,0,0:0:0:0:
256,192,36200,1,8,0:0:0:0:
256,192,36300,1,8,0:0:0:0:
256,192,36500,1,0,0:0:0:0:
256,192,36600,1,8,0:0:0:0:
256,192,36700,1,0,0:0:0:0:
256,192,36800,1,0,0:0:0:0:
256,192,37000,1,0,0:0:0:0:
256,192,37100,1,0,0:0:0:0:
256,192,37200,1,8,0:0:0:0:
256,192,37300,1,8,0:0:0:0:
256,192,37400,1,8,0:0:0:0:
256,192,37500,1,0,0:0:0:0:
256,192,37600,1,8,0:0:0:0:
256,192,37800,1,0,0:0:0:0:
256,192,38000,1,8,0:0:0:0:
256,192,38100,1,0,0:0:0:0:
256,192,38200,1,0,0:0:0:0:
256,192,38400,1,8,0:0:0:0:
256,192,38600,1,0,0:0:0:0:
256,192,38700,1,8,0:0:0:0:
256,192,38800,1,8,0:0:0:0:
256,192,38900,1,0,0:0:0:0:
256,192,39000,1,0,0:0:0:0:
256,192,39100,1,8,0:0:0:0:
256,192,39200,1,8,0:0:0:0:
256,192,39300,1,0,0:0:0:0:
256,192,39400,1,0,0:0:0:0:
256,192,39500,1,8,0:0:0:0:
256,192,39600,1,8,0:0:0:0:
256,192,39700,1,0,0:0:0:0:
256,192,39800,1,0,0:0:0:0:
256,192,39900,1,8,0:0:0:0:
256,192,40000,1,8,0:0:0:0:
256,192,40100,1,8,0:0:0:0:
256,192,40200,1,0,0:0:0:0:
256,192,40300,1,8,0:0:0:0:
256,192,40400,1,8,0:0:0:0:
256,192,40500,1,8,0:0:0:0:
256,192,40600,1,0,0:0:0:0:
256,192,40700,1,8,0:0:0:0:
256,192,40800,1,8,0:0:0:0:
256,192,40900,1,8,0:0:0:0:
256,192,41000,1,0,0:0:0:0:
256,192,41100,1,8,0:0:0:0:
256,192,41200,1,8,0:0:0:0:
256,192,41300,1,8,0:0:0:0:
256,192,41400,1,0,0:0:0:0:
256,192,41600,1,0,0:0:0:0:
256,192,41800,1,0,0:0:0:0:
256,192,41900,1,0,0:0:0:0:
256,192,42000,1,8,0:0:0:0:
256,192,42200,1,0,0:0:0:0:
256,192,42400,1,0,0:0:0:0:
256,192,42500,1,0,0:0:0:0:
256,192,42600,1,8,0:0:0:0:
256,192,42800,1,0,0:0:0:0:
256,192,42900,1,8,0:0:0:0:
256,192,43000,1,8,0:0:0:0:
256,192,43100,1,8,0:0:0:0:
256,192,43200,1,0,0:0:0:0:
256,192,43500,1,8,0:0:0:0:
256,192,43800,1,8,0:0:0:0:
256,192,44100,1,0,0:0:0:0:
256,192,44200,1,0,0:0:0:0:
256,192,44400,1,8,0:0:0:0:
256,192,44600,1,8,0:0:0:0:
256,192,44800,1,0,0:0:0:0:
256,192,45000,1,8,0:0:0:0:
256,192,45100,1,8,0:0:0:0:
256,192,45200,1,0,0:0:0:0:
256,192,45400,1,8,0:0:0:0:
256,192,45600,1,0,0:0:0:0:
256,192,45700,1,8,0:0:0:0:
256,192,45800,1,8,0:0:0:0:
256,192,46000,1,0,0:0:0:0:
256,192,46100,1,0,0:0:0:0:
256,192,46200,1,0,0:0:0:0:
256,192,46300,1,0,0:0:0:0:
256,192,46400,1,0,0:0:0:0:
256,192,46600,1,0,0:0:0:0:
256,192,46700,1,0,0:0:0:0:
256,192,46800,1,0,0:0:0:0:
256,192,46900,1,8,0:0:0:0:
256,192,47000,1,0,0:0:0:0:
256,192,47200,1,0,0:0:0:0:
256,192,47300,1,0,0:0:0:0:
256,192,47400,1,8,0:0:0:0:
256,192,47600,1,0,0:0:0:0:
256,192,47700,1,0,0:0:0:0:
256,192,47800,1,8,0:0:0:0:
256,192,47900,1,8,0:0:0:0:
256,192,48000,1,0,0:0:0:0:
256,192,48200,1,8,0:0:0:0:
256,192,48300,1,8,0:0:0:0:
256,192,48400,1,8,0:0:0:0:
256,192,48500,1,8,0:0:0:0:
256,192,48600,1,0,0:0:0:0:
256,192,48800,1,0,0:0:0:0:
256,192,48900,1,0,0:0:0:0:
256,192,49000,1,8,0:0:0:0:
256,192,49100,1,8,0:0:0:0:
256,192,49200,1,0,0:0:0:0:
256,192,49300,1,0,0:0:0:0:
256,192,49400,1,8,0:0:0:0:
256,192,49600,1,0,0:0:0:0:
256,192,49800,1,8,0:0:0:0:
256,192,49900,1,0,0:0:0:0:
256,192,50000,1,0,0:0:0:0:
256,192,50100,1,0,0:0:0:0:
256,192,50200,1,8,0:0:0:0:
256,192,50400,1,0,0:0:0:0:
256,192,50500,1,0,0:0:0:0:
256,192,50600,1,8,0:0:0:0:
256,192,50700,1,8,0:0:0:0:
256,192,50800,1,0,0:0:0:0:
256,192,51000,1,8,0:0:0:0:
256,192,51200,1,0,0:0:0:0:
256,192,51400,1,8,0:0:0:0:
256,192,51500,1,0,0:0:0:0:
256,192,51600,1,0,0:0:0:0:
256,192,51800,1,8,0:0:0:0:
256,192,52000,1,0,0:0:0:0:
256,192,52100,1,0,0:0:0:0:
256,192,52200,1,8,0:0:0:0:
256,192,52300,1,0,0:0:0:0:
256,192,52400,1,0,0:0:0:0:
256,192,52600,1,8,0:0:0:0:
256,192,52800,1,0,0:0:0:0:
256,192,52900,1,0,0:0:0:0:
256,192,53000,1,0,0:0:0:0:
256,192,53066,1,0,0:0:0:0:
256,192,53133,1,0,0:0:0:0:
256,192,53200,1,8,0:0:0:0:
256,192,53400,1,0,0:0:0:0:
256,192,53600,1,8,0:0:0:0:
256,192,53800,1,0,0:0:0:0:
256,192,53900,1,8,0:0:0:0:
256,192,54100,1,0,0:0:0:0:
256,192,54200,1,8,0:0:0:0:
256,192,54300,1,8,0:0:0:0:
256,192,54400,1,0,0:0:0:0:
256,192,54600,1,0,0:0:0:0:
256,192,54700,1,0,0:0:0:0:
256,192,54800,1,8,0:0:0:0:
256,192,55000,1,0,0:0:0:0:
256,192,55200,1,0,0:0:0:0:
256,192,55300,1,0,0:0:0:0:
256,192,55400,1,8,0:0:0:0:
256,192,55600,1,0,0:0:0:0:
256,192,55700,1,8,0:0:0:0:
256,192,55800,1,8,0:0:0:0:
256,192,55900,1,8,0:0:0:0:
256,192,56000,1,0,0:0:0:0:
256,192,56300,1,8,0:0:0:0:
256,192,56600,1,8,0:0:0:0:
256,192,56900,1,0,0:0:0:0:
256,192,57000,1,0,0:0:0:0:
256,192,57200,1,8,0:0:0:0:
256,192,57400,1,8,0:0:0:0:
256,192,57600,1,0,0:0:0:0:
256,192,57800,1,8,0:0:0:0:
256,192,57900,1,8,0:0:0:0:
256,192,58000,1,0,0:0:0:0:
256,192,58200,1,8,0:0:0:0:
256,192,58400,1,0,0:0:0:0:
256,192,58500,1,8,0:0:0:0:
256,192,58600,1,8,0:0:0:0:
256,192,58800,1,0,0:0:0:0:
256,192,58900,1,0,0:0:0:0:
256,192,59000,1,0,0:0:0:0:
256,192,59100,1,0,0:0:0:0:
256,192,59200,1,0,0:0:0:0:
256,192,59400,1,0,0:0:0:0:
256,192,59500,1,0,0:0:0:0:
256,192,59600,1,0,0:0:0:0:
256,192,59700,1,8,0:0:0:0:
256,192,59800,1,0,0:0:0:0:
256,192,60000,1,0,0:0:0:0:
256,192,60100,1,0,0:0:0:0:
256,192,60200,1,8,0:0:0:0:
256,192,60400,1,0,0:0:0:0:
256,192,60500,1,0,0:0:0:0:
256,192,60600,1,8,0:0:0:0:
256,192,60700,1,8,0:0:0:0:
256,192,60800,1,0,0:0:0:0:
256,192,61000,1,8,0:0:0:0:
256,192,61100,1,8,0:0:0:0:
256,192,61200,1,8,0:0:0:0:
256,192,61300,1,8,0:0:0:0:
256,192,61400,1,0,0:0:0:0:
256,192,61600,1,0,0:0:0:0:
256,192,61700,1,0,0:0:0:0:
256,192,61800,1,8,0:0:0:0:
256,192,61900,1,8,0:0:0:0:
256,192,62000,1,0,0:0:0:0:
256,192,62100,1,0,0:0:0:0:
256,192,62200,1,8,0:0:0:0:
256,192,62400,1,0,0:0:0:0:
256,192,62600,1,8,0:0:0:0:
256,192,62700,1,0,0:0:0:0:
256,192,62800,1,0,0:0:0:0:
256,192,62900,1,0,0:0:0:0:
256,192,63000,1,8,0:0:0:0:
256,192,63200,1,0,0:0:0:0:
256,192,63300,1,0,0:0:0:0:
256,192,63400,1,8,0:0:0:0:
256,192,63500,1,8,0:0:0:0:
256,192,63600,1,0,0:0:0:0:
256,192,63800,1,8,0:0:0:0:
256,192,64000,1,0,0:0:0:0:
256,192,64200,1,8,0:0:0:0:
256,192,64300,1,0,0:0:0:0:
256,192,64400,1,0,0:0:0:0:
256,192,64600,1,8,0:0:0:0:
256,192,64800,1,0,0:0:0:0:
256,192,64900,1,0,0:0:0:0:
256,192,65000,1,8,0:0:0:0:
256,192,65100,1,0,0:0:0:0:
256,192,65200,1,0,0:0:0:0:
256,192,65300,1,8,0:0:0:0:
256,192,65400,1,8,0:0:0:0:
256,192,65600,1,0,0:0:0:0:
256,192,65800,1,8,0:0:0:0:
256,192,65900,1,8,0:0:0:0:
256,192,66000,1,0,0:0:0:0:
256,192,66200,1,0,0:0:0:0:
256,192,66400,1,0,0:0:0:0:
256,192,66500,1,8,0:0:0:0:
256,192,66600,1,8,0:0:0:0:
256,192,66700,1,8,0:0:0:0:
256,192,66800,1,8,0:0:0:0:
256,192,66866,1,8,0:0:0:0:
256,192,66933,1,8,0:0:0:0:
256,192,67000,1,0,0:0:0:0:
256,192,67200,1,4,0:0:0:0:
256,192,67800,1,4,0:0:0:0:
256,192,68200,1,4,0:0:0:0:
256,192,68400,1,12,0:0:0:0:
256,192,68800,1,4,0:0:0:0:
256,192,69400,1,4,0:0:0:0:
256,192,69800,1,4,0:0:0:0:
256,192,70000,1,12,0:0:0:0:
256,192,70400,1,4,0:0:0:0:
256,192,71000,1,4,0:0:0:0:
256,192,71400,1,4,0:0:0:0:
256,192,71600,1,12,0:0:0:0:
256,192,72000,1,0,0:0:0:0:
256,192,72100,1,0,0:0:0:0:
256,192,72200,1,8,0:0:0:0:
256,192,72266,1,8,0:0:0:0:
256,192,72333,1,8,0:0:0:0:
256,192,72400,1,0,0:0:0:0:
256,192,72600,1,0,0:0:0:0:
256,192,72800,1,8,0:0:0:0:
256,192,72866,1,8,0:0:0:0:
256,192,72933,1,8,0:0:0:0:
256,192,73000,1,0,0:0:0:0:
256,192,73100,1,0,0:0:0:0:
256,192,73200,1,8,0:0:0:0:
256,192,73266,1,8,0:0:0:0:
256,192,73333,1,8,0:0:0:0:
256,192,73400,1,8,0:0:0:0:
256,192,73466,1,8,0:0:0:0:
256,192,73533,1,8,0:0:0:0:
256,192,73600,1,0,0:0:0:0:
256,192,73700,1,8,0:0:0:0:
256,192,73800,1,0,0:0:0:0:
256,192,73866,1,0,0:0:0:0:
256,192,73933,1,0,0:0:0:0:
256,192,74000,1,8,0:0:0:0:
256,192,74100,1,8,0:0:0:0:
256,192,74200,1,0,0:0:0:0:
256,192,74300,1,0,0:0:0:0:
256,192,74400,1,8,0:0:0:0:
256,192,74466,1,8,0:0:0:0:
256,192,74533,1,8,0:0:0:0:
256,192,74600,1,0,0:0:0:0:
256,192,74700,1,0,0:0:0:0:
256,192,74800,1,8,0:0:0:0:
256,192,74866,1,0,0:0:0:0:
256,192,74933,1,0,0:0:0:0:
256,192,75000,1,8,0:0:0:0:
256,192,75100,1,0,0:0:0:0:
256,192,75200,1,8,0:0:0:0:
256,192,75266,1,8,0:0:0:0:
256,192,75333,1,8,0:0:0:0:
256,192,75400,1,0,0:0:0:0:
256,192,75466,1,0,0:0:0:0:
256,192,75533,1,0,0:0:0:0:
256,192,75600,1,8,0:0:0:0:
256,192,75700,1,8,0:0:0:0:
256,192,75800,1,0,0:0:0:0:
256,192,75900,1,0,0:0:0:0:
256,192,76000,1,8,0:0:0:0:
256,192,76066,1,8,0:0:0:0:
256,192,76133,1,8,0:0:0:0:
256,192,76200,1,0,0:0:0:0:
256,192,76300,1,0,0:0:0:0:
256,192,76400,1,8,0:0:0:0:
256,192,76500,1,8,0:0:0:0:
256,192,76600,1,8,0:0:0:0:
256,192,76700,1,8,0:0:0:0:
256,192,76800,1,0,0:0:0:0:
256,192,77000,1,8,0:0:0:0:
256,192,77100,1,8,0:0:0:0:
256,192,77200,1,0,0:0:0:0:
256,192,77400,1,8,0:0:0:0:
256,192,77600,1,0,0:0:0:0:
256,192,77700,1,0,0:0:0:0:
256,192,77800,1,8,0:0:0:0:
256,192,77900,1,8,0:0:0:0:
256,192,78000,1,0,0:0:0:0:
256,192,78100,1,8,0:0:0:0:
256,192,78200,1,8,0:0:0:0:
256,192,78400,1,8,0:0:0:0:
256,192,78500,1,8,0:0:0:0:
256,192,78600,1,0,0:0:0:0:
256,192,78700,1,0,0:0:0:0:
256,192,78800,1,8,0:0:0:0:
256,192,79000,1,0,0:0:0:0:
256,192,79100,1,0,0:0:0:0:
256,192,79200,1,8,0:0:0:0:
256,192,79300,1,0,0:0:0:0:
256,192,79400,1,8,0:0:0:0:
256,192,79600,1,8,0:0:0:0:
256,192,79800,1,8,0:0:0:0:
256,192,79900,1,8,0:0:0:0:
256,192,80000,1,0,0:0:0:0:
256,192,80200,1,0,0:0:0:0:
256,192,80300,1,0,0:0:0:0:
256,192,80400,1,8,0:0:0:0:
256,192,80500,1,0,0:0:0:0:
256,192,80600,1,8,0:0:0:0:
256,192,80700,1,8,0:0:0:0:
256,192,80800,1,8,0:0:0:0:
256,192,80900,1,0,0:0:0:0:
256,192,81000,1,8,0:0:0:0:
256,192,81100,1,0,0:0:0:0:
256,192,81200,1,8,0:0:0:0:
256,192,81300,1,8,0:0:0:0:
256,192,81400,1,8,0:0:0:0:
256,192,81466,1,0,0:0:0:0:
256,192,81533,1,0,0:0:0:0:
256,192,81600,1,8,0:0:0:0:
256,192,81800,1,4,0:0:0:0:
256,192,82000,1,4,0:0:0:0:
256,192,82200,1,4,0:0:0:0:
256,192,83200,1,4,0:0:0:0:
256,192,83400,1,8,0:0:0:0:
256,192,83600,1,0,0:0:0:0:
256,192,83700,1,8,0:0:0:0:
256,192,83900,1,0,0:0:0:0:
256,192,84000,1,8,0:0:0:0:
256,192,84100,1,8,0:0:0:0:
256,192,84200,1,0,0:0:0:0:
256,192,84300,1,8,0:0:0:0:
256,192,84500,1,0,0:0:0:0:
256,192,84600,1,8,0:0:0:0:
256,192,84700,1,0,0:0:0:0:
256,192,84800,1,0,0:0:0:0:
256,192,85000,1,8,0:0:0:0:
256,192,85200,1,0,0:0:0:0:
256,192,85300,1,8,0:0:0:0:
256,192,85500,1,0,0:0:0:0:
256,192,85600,1,8,0:0:0:0:
256,192,85700,1,0,0:0:0:0:
256,192,85800,1,8,0:0:0:0:
256,192,85900,1,8,0:0:0:0:
256,192,86100,1,0,0:0:0:0:
256,192,86200,1,0,0:0:0:0:
256,192,86300,1,8,0:0:0:0:
256,192,86400,1,0,0:0:0:0:
256,192,86600,1,8,0:0:0:0:
256,192,86800,1,0,0:0:0:0:
256,192,86900,1,8,0:0:0:0:
256,192,87100,1,0,0:0:0:0:
256,192,87200,1,8,0:0:0:0:
256,192,87300,1,8,0:0:0:0:
256,192,87400,1,0,0:0:0:0:
256,192,87500,1,8,0:0:0:0:
256,192,87700,1,0,0:0:0:0:
256,192,87800,1,8,0:0:0:0:
256,192,87900,1,8,0:0:0:0:
256,192,88000,1,8,0:0:0:0:
256,192,88200,1,8,0:0:0:0:
256,192,88400,1,8,0:0:0:0:
256,192,88500,1,8,0:0:0:0:
256,192,88600,1,0,0:0:0:0:
256,192,88800,1,0,0:0:0:0:
256,192,88900,1,0,0:0:0:0:
256,192,89000,1,8,0:0:0:0:
256,192,89066,1,0,0:0:0:0:
256,192,89133,1,0,0:0:0:0:
256,192,89200,1,8,0:0:0:0:
256,192,89400,1,8,0:0:0:0:
256,192,89600,1,8,0:0:0:0:
256,192,89700,1,0,0:0:0:0:
256,192,89800,1,0,0:0:0:0:
256,192,89900,1,8,0:0:0:0:
256,192,90000,1,8,0:0:0:0:
256,192,90100,1,0,0:0:0:0:
256,192,90200,1,8,0:0:0:0:
256,192,90300,1,8,0:0:0:0:
256,192,90400,1,0,0:0:0:0:
256,192,90466,1,0,0:0:0:0:
256,192,90533,1,0,0:0:0:0:
256,192,90600,1,8,0:0:0:0:
256,192,90800,1,8,0:0:0:0:
256,192,90900,1,8,0:0:0:0:
256,192,91000,1,0,0:0:0:0:
256,192,91200,1,8,0:0:0:0:
256,192,91300,1,8,0:0:0:0:
256,192,91400,1,0,0:0:0:0:
256,192,91500,1,8,0:0:0:0:
256,192,91600,1,8,0:0:0:0:
256,192,91700,1,8,0:0:0:0:
256,192,91800,1,0,0:0:0:0:
256,192,91900,1,0,0:0:0:0:
256,192,92000,1,8,0:0:0:0:
256,192,92066,1,0,0:0:0:0:
256,192,92133,1,0,0:0:0:0:
256,192,92200,1,8,0:0:0:0:
256,192,92400,1,0,0:0:0:0:
256,192,92500,1,8,0:0:0:0:
256,192,92600,1,8,0:0:0:0:
256,192,92800,1,8,0:0:0:0:
256,192,92900,1,0,0:0:0:0:
256,192,93000,1,0,0:0:0:0:
256,192,93100,1,0,0:0:0:0:
256,192,93200,1,8,0:0:0:0:
256,192,93300,1,0,0:0:0:0:
256,192,93400,1,0,0:0:0:0:
256,192,93500,1,8,0:0:0:0:
256,192,93600,1,0,0:0:0:0:
256,192,93700,1,0,0:0:0:0:
256,192,93800,1,0,0:0:0:0:
256,192,93900,1,0,0:0:0:0:
256,192,94000,1,8,0:0:0:0:
256,192,94100,1,0,0:0:0:0:
256,192,94200,1,8,0:0:0:0:
256,192,94300,1,8,0:0:0:0:
256,192,94400,1,8,0:0:0:0:
256,192,94500,1,8,0:0:0:0:
256,192,94600,1,0,0:0:0:0:
256,192,94700,1,0,0:0:0:0:
256,192,94800,1,8,0:0:0:0:
256,192,94900,1,8,0:0:0:0:
256,192,95000,1,0,0:0:0:0:
256,192,95100,1,8,0:0:0:0:
256,192,95200,1,8,0:0:0:0:
256,192,95300,1,0,0:0:0:0:
256,192,95400,1,0,0:0:0:0:
256,192,95500,1,8,0:0:0:0:
256,192,95600,1,8,0:0:0:0:
256,192,95700,1,8,0:0:0:0:
256,192,95800,1,0,0:0:0:0:
256,192,95900,1,0,0:0:0:0:
256,192,96000,1,0,0:0:0:0:
256,192,96200,1,8,0:0:0:0:
256,192,96400,1,0,0:0:0:0:
256,192,96500,1,8,0:0:0:0:
256,192,96700,1,0,0:0:0:0:
256,192,96800,1,8,0:0:0:0:
256,192,96900,1,8,0:0:0:0:
256,192,97000,1,0,0:0:0:0:
256,192,97100,1,8,0:0:0:0:
256,192,97300,1,0,0:0:0:0:
256,192,97400,1,8,0:0:0:0:
256,192,97500,1,0,0:0:0:0:
256,192,97600,1,0,0:0:0:0:
256,192,97800,1,8,0:0:0:0:
256,192,98000,1,0,0:0:0:0:
256,192,98100,1,8,0:0:0:0:
256,192,98300,1,0,0:0:0:0:
256,192,98400,1,8,0:0:0:0:
256,192,98500,1,0,0:0:0:0:
256,192,98600,1,8,0:0:0:0:
256,192,98700,1,8,0:0:0:0:
256,192,98900,1,0,0:0:0:0:
256,192,99000,1,0,0:0:0:0:
256,192,99100,1,8,0:0:0:0:
256,192,99200,1,0,0:0:0:0:
256,192,99400,1,8,0:0:0:0:
256,192,99600,1,0,0:0:0:0:
256,192,99700,1,8,0:0:0:0:
256,192,99900,1,0,0:0:0:0:
256,192,100000,1,8,0:0:0:0:
256,192,100100,1,8,0:0:0:0:
256,192,100200,1,0,0:0:0:0:
256,192,100300,1,8,0:0:0:0:
256,192,100500,1,0,0:0:0:0:
256,192,100600,1,8,0:0:0:0:
256,192,100700,1,8,0:0:0:0:
256,192,100800,1,8,0:0:0:0:
256,192,101000,1,8,0:0:0:0:
256,192,101200,1,8,0:0:0:0:
256,192,101300,1,8,0:0:0:0:
256,192,101400,1,0,0:0:0:0:
256,192,101600,1,0,0:0:0:0:
256,192,101700,1,0,0:0:0:0:
256,192,101800,1,8,0:0:0:0:
256,192,101866,1,0,0:0:0:0:
256,192,101933,1,0,0:0:0:0:
256,192,102000,1,8,0:0:0:0:
256,192,102200,1,8,0:0:0:0:
256,192,102400,1,8,0:0:0:0:
256,192,102500,1,0,0:0:0:0:
256,192,102600,1,0,0:0:0:0:
256,192,102700,1,8,0:0:0:0:
256,192,102800,1,8,0:0:0:0:
256,192,102900,1,0,0:0:0:0:
256,192,103000,1,8,0:0:0:0:
256,192,103100,1,8,0:0:0:0:
256,192,103200,1,0,0:0:0:0:
256,192,103266,1,0,0:0:0:0:
256,192,103333,1,0,0:0:0:0:
256,192,103400,1,8,0:0:0:0:
256,192,103600,1,8,0:0:0:0:
256,192,103700,1,8,0:0:0:0:
256,192,103800,1,0,0:0:0:0:
256,192,104000,1,8,0:0:0:0:
256,192,104100,1,8,0:0:0:0:
256,192,104200,1,0,0:0:0:0:
256,192,104300,1,8,0:0:0:0:
256,192,104400,1,8,0:0:0:0:
256,192,104500,1,8,0:0:0:0:
256,192,104600,1,0,0:0:0:0:
256,192,104700,1,0,0:0:0:0:
256,192,104800,1,8,0:0:0:0:
256,192,104866,1,0,0:0:0:0:
256,192,104933,1,0,0:0:0:0:
256,192,105000,1,8,0:0:0:0:
256,192,105200,1,0,0:0:0:0:
256,192,105300,1,8,0:0:0:0:
256,192,105400,1,8,0:0:0:0:
256,192,105600,1,8,0:0:0:0:
256,192,105700,1,0,0:0:0:0:
256,192,105800,1,0,0:0:0:0:
256,192,105900,1,8,0:0:0:0:
256,192,106000,1,8,0:0:0:0:
256,192,106100,1,0,0:0:0:0:
256,192,106200,1,8,0:0:0:0:
256,192,106300,1,8,0:0:0:0:
256,192,106400,1,8,0:0:0:0:
256,192,106500,1,0,0:0:0:0:
256,192,106600,1,8,0:0:0:0:
256,192,106700,1,0,0:0:0:0:
256,192,106800,1,8,0:0:0:0:
256,192,106900,1,0,0:0:0:0:
256,192,107000,1,8,0:0:0:0:
256,192,107100,1,8,0:0:0:0:
256,192,107200,1,8,0:0:0:0:
256,192,107300,1,0,0:0:0:0:
256,192,107400,1,0,0:0:0:0:
256,192,107500,1,0,0:0:0:0:
256,192,107600,1,8,0:0:0:0:
256,192,107700,1,0,0:0:0:0:
256,192,107800,1,8,0:0:0:0:
256,192,107900,1,8,0:0:0:0:
256,192,108000,1,8,0:0:0:0:
256,192,108100,1,8,0:0:0:0:
256,192,108200,1,0,0:0:0:0:
256,192,108300,1,0,0:0:0:0:
256,192,108400,1,0,0:0:0:0:
256,192,108500,1,8,0:0:0:0:
256,192,108600,1,8,0:0:0:0:
256,192,108700,1,8,0:0:0:0:
256,192,108800,1,8,0:0:0:0:
256,192,108900,1,8,0:0:0:0:
256,192,109000,1,8,0:0:0:0:
256,192,109100,1,0,0:0:0:0:
256,192,109200,1,8,0:0:0:0:
256,192,109400,1,0,0:0:0:0:
256,192,109500,1,0,0:0:0:0:
256,192,109600,1,8,0:0:0:0:
256,192,109800,1,8,0:0:0:0:
256,192,109900,1,8,0:0:0:0:
256,192,110000,1,0,0:0:0:0:
256,192,110100,1,0,0:0:0:0:
256,192,110200,1,8,0:0:0:0:
256,192,110400,1,0,0:0:0:0:
256,192,110600,1,0,0:0:0:0:
256,192,110700,1,0,0:0:0:0:
256,192,110800,1,8,0:0:0:0:
256,192,111000,1,8,0:0:0:0:
256,192,111100,1,8,0:0:0:0:
256,192,111200,1,0,0:0:0:0:
256,192,111400,1,8,0:0:0:0:
256,192,111500,1,8,0:0:0:0:
256,192,111600,1,0,0:0:0:0:
256,192,111700,1,0,0:0:0:0:
256,192,111800,1,0,0:0:0:0:
256,192,112000,1,8,0:0:0:0:
256,192,112100,1,0,0:0:0:0:
256,192,112200,1,0,0:0:0:0:
256,192,112300,1,8,0:0:0:0:
256,192,112400,1,8,0:0:0:0:
256,192,112500,1,0,0:0:0:0:
256,192,112600,1,0,0:0:0:0:
256,192,112700,1,8,0:0:0:0:
256,192,112800,1,8,0:0:0:0:
256,192,112900,1,0,0:0:0:0:
256,192,113000,1,8,0:0:0:0:
256,192,113100,1,8,0:0:0:0:
256,192,113300,1,0,0:0:0:0:
256,192,113400,1,8,0:0:0:0:
256,192,113500,1,0,0:0:0:0:
256,192,113600,1,0,0:0:0:0:
256,192,113800,1,0,0:0:0:0:
256,192,113900,1,0,0:0:0:0:
256,192,114000,1,8,0:0:0:0:
256,192,114100,1,8,0:0:0:0:
256,192,114200,1,0,0:0:0:0:
256,192,114300,1,8,0:0:0:0:
256,192,114400,1,0,0:0:0:0:
256,192,114600,1,0,0:0:0:0:
256,192,114800,1,8,0:0:0:0:
256,192,114900,1,0,0:0:0:0:
256,192,115000,1,0,0:0:0:0:
256,192,115100,1,8,0:0:0:0:
256,192,115200,1,8,0:0:0:0:
256,192,115300,1,8,0:0:0:0:
256,192,115400,1,8,0:0:0:0:
256,192,115500,1,0,0:0:0:0:
256,192,115600,1,8,0:0:0:0:
256,192,115800,1,0,0:0:0:0:
256,192,115900,1,0,0:0:0:0:
256,192,116000,1,8,0:0:0:0:
256,192,116200,1,8,0:0:0:0:
256,192,116300,1,8,0:0:0:0:
256,192,116400,1,0,0:0:0:0:
256,192,116500,1,8,0:0:0:0:
256,192,116600,1,8,0:0:0:0:
256,192,116800,1,8,0:0:0:0:
256,192,117000,1,8,0:0:0:0:
256,192,117100,1,8,0:0:0:0:
256,192,117200,1,0,0:0:0:0:
256,192,117400,1,0,0:0:0:0:
256,192,117500,1,8,0:0:0:0:
256,192,117600,1,8,0:0:0:0:
256,192,117800,1,8,0:0:0:0:
256,192,117900,1,8,0:0:0:0:
256,192,118000,1,0,0:0:0:0:
256,192,118100,1,0,0:0:0:0:
256,192,118200,1,0,0:0:0:0:
256,192,118400,1,8,0:0:0:0:
256,192,118500,1,0,0:0:0:0:
256,192,118600,1,0,0:0:0:0:
256,192,118700,1,8,0:0:0:0:
256,192,118800,1,8,0:0:0:0:
256,192,118900,1,0,0:0:0:0:
256,192,119000,1,0,0:0:0:0:
256,192,119100,1,8,0:0:0:0:
256,192,119200,1,8,0:0:0:0:
256,192,119300,1,0,0:0:0:0:
256,192,119400,1,8,0:0:0:0:
256,192,119500,1,8,0:0:0:0:
256,192,119700,1,0,0:0:0:0:
256,192,119800,1,8,0:0:0:0:
256,192,119900,1,0,0:0:0:0:
256,192,120000,1,0,0:0:0:0:
256,192,120200,1,0,0:0:0:0:
256,192,120300,1,0,0:0:0:0:
256,192,120400,1,8,0:0:0:0:
256,192,120500,1,8,0:0:0:0:
256,192,120600,1,8,0:0:0:0:
256,192,120700,1,0,0:0:0:0:
256,192,120800,1,8,0:0:0:0:
256,192,121000,1,0,0:0:0:0:
256,192,121200,1,8,0:0:0:0:
256,192,121300,1,0,0:0:0:0:
256,192,121400,1,0,0:0:0:0:
256,192,121600,1,8,0:0:0:0:
256,192,121800,1,0,0:0:0:0:
256,192,121900,1,8,0:0:0:0:
256,192,122000,1,8,0:0:0:0:
256,192,122100,1,0,0:0:0:0:
256,192,122200,1,0,0:0:0:0:
256,192,122300,1,8,0:0:0:0:
256,192,122400,1,8,0:0:0:0:
256,192,122500,1,0,0:0:0:0:
256,192,122600,1,0,0:0:0:0:
256,192,122700,1,8,0:0:0:0:
256,192,122800,1,8,0:0:0:0:
256,192,122900,1,0,0:0:0:0:
256,192,123000,1,0,0:0:0:0:
256,192,123100,1,8,0:0:0:0:
256,192,123200,1,8,0:0:0:0:
256,192,123300,1,8,0:0:0:0:
256,192,123400,1,0,0:0:0:0:
256,192,123500,1,8,0:0:0:0:
256,192,123600,1,8,0:0:0:0:
256,192,123700,1,8,0:0:0:0:
256,192,123800,1,0,0:0:0:0:
256,192,123900,1,8,0:0:0:0:
256,192,124000,1,8,0:0:0:0:
256,192,124100,1,8,0:0:0:0:
256,192,124200,1,0,0:0:0:0:
256,192,124300,1,8,0:0:0:0:
256,192,124400,1,8,0:0:0:0:
256,192,124500,1,8,0:0:0:0:
256,192,124600,1,0,0:0:0:0:
256,192,124800,1,8,0:0:0:0:
256,192,125000,1,0,0:0:0:0:
256,192,125100,1,8,0:0:0:0:
256,192,125200,1,8,0:0:0:0:
256,192,125300,1,0,0:0:0:0:
256,192,125400,1,0,0:0:0:0:
256,192,125500,1,8,0:0:0:0:
256,192,125600,1,8,0:0:0:0:
256,192,125700,1,0,0:0:0:0:
256,192,125800,1,0,0:0:0:0:
256,192,125900,1,8,0:0:0:0:
256,192,126000,1,8,0:0:0:0:
256,192,126100,1,0,0:0:0:0:
256,192,126200,1,0,0:0:0:0:
256,192,126300,1,8,0:0:0:0:
256,192,126400,1,8,0:0:0:0:
256,192,126500,1,8,0:0:0:0:
256,192,126600,1,0,0:0:0:0:
256,192,126700,1,8,0:0:0:0:
256,192,126800,1,8,0:0:0:0:
256,192,126900,1,8,0:0:0:0:
256,192,127000,1,0,0:0:0:0:
256,192,127066,1,0,0:0:0:0:
256,192,127133,1,0,0:0:0:0:
256,192,127200,1,8,0:0:0:0:
256,192,127400,1,12,0:0:0:0:
256,192,127600,1,12,0:0:0:0:
256,192,127800,1,12,0:0:0:0:
