osu file format v14

[General]
AudioFilename: audio.mp3
AudioLeadIn: 0
PreviewTime: 60661
Countdown: 0
SampleSet: Normal
StackLeniency: 0.7
Mode: 1
LetterboxInBreaks: 0
WidescreenStoryboard: 0

[Editor]
Bookmarks: 21052,192194
DistanceSpacing: 1.6
BeatDivisor: 4
GridSize: 32
TimelineZoom: 0.8000002

[Metadata]
Title:Kusabi
TitleUnicode:楔
Artist:Baby's breath
ArtistUnicode:Baby’s breath
Creator:Nardoxyribonucleic
Version:Kantan
Source:天使の3P!
Tags:Taiko Tenshi no 3P! Ending iloveyou4ever JUDYDANNY
BeatmapID:1683932
BeatmapSetID:775538

[Difficulty]
HPDrainRate:7
CircleSize:5
OverallDifficulty:4
ApproachRate:5
SliderMultiplier:1.4
SliderTickRate:1

[Events]
//Background and Video events
0,0,"Jun.jpg",0,0
//Break Periods
//Storyboard Layer 0 (Background)
//Storyboard Layer 1 (Fail)
//Storyboard Layer 2 (Pass)
//Storyboard Layer 3 (Foreground)
//Storyboard Sound Samples

[TimingPoints]
1052,312.5,4,1,0,80,1,0
11052,-100,4,1,0,95,0,0
40895,-100,4,1,0,85,0,0
61052,-100,4,1,0,100,0,1
81052,-100,4,1,0,80,0,0
86052,-100,4,1,0,85,0,0
96364,-100,4,1,0,95,0,0
105895,-100,4,1,0,85,0,0
131052,-100,4,1,0,100,0,1
151052,428.571428571429,4,1,0,70,1,0
151052,-72.9181857955374,4,1,0,70,0,0
152766,-100,4,1,0,70,0,0
164766,-100,4,1,0,80,0,0
178480,-100,4,1,0,90,0,0
205909,312.5,4,1,0,85,1,0
215909,-100,4,1,0,70,0,0
220909,-100,4,1,0,80,0,0
229659,-100,4,1,0,100,0,1
249659,-100,4,1,0,95,0,0
262159,-100,4,1,0,50,0,0
262784,-100,4,1,0,40,0,0
263409,-100,4,1,0,30,0,0
264034,-100,4,1,0,20,0,0
264502,-100,4,1,0,10,0,0

[HitObjects]
256,192,1052,5,4,0:0:0:0:
256,192,3552,1,12,0:0:0:0:
256,192,4489,1,4,0:0:0:0:
256,192,5427,1,8,0:0:0:0:
256,192,5739,1,8,0:0:0:0:
256,192,6052,1,4,0:0:0:0:
256,192,8552,1,12,0:0:0:0:
256,192,9489,1,4,0:0:0:0:
256,192,10427,1,8,0:0:0:0:
256,192,11052,1,4,0:0:0:0:
256,192,12302,1,0,0:0:0:0:
256,192,12614,1,0,0:0:0:0:
256,192,12927,1,8,0:0:0:0:
256,192,13552,1,0,0:0:0:0:
256,192,14177,1,8,0:0:0:0:
256,192,14802,1,0,0:0:0:0:
256,192,15427,1,8,0:0:0:0:
256,192,15895,1,4,0:0:0:0:
256,192,17302,1,0,0:0:0:0:
256,192,17614,1,0,0:0:0:0:
256,192,17927,1,8,0:0:0:0:
256,192,18552,1,0,0:0:0:0:
256,192,19177,1,8,0:0:0:0:
256,192,19802,1,0,0:0:0:0:
256,192,20427,1,8,0:0:0:0:
256,192,20739,1,8,0:0:0:0:
256,192,21052,1,4,0:0:0:0:
256,192,22302,1,8,0:0:0:0:
256,192,22927,1,0,0:0:0:0:
256,192,23239,1,8,0:0:0:0:
256,192,23552,1,0,0:0:0:0:
256,192,24177,1,0,0:0:0:0:
256,192,24802,1,8,0:0:0:0:
256,192,25427,1,8,0:0:0:0:
256,192,25895,1,4,0:0:0:0:
256,192,27302,1,0,0:0:0:0:
256,192,27614,1,8,0:0:0:0:
256,192,27927,1,8,0:0:0:0:
256,192,28552,1,0,0:0:0:0:
256,192,29177,1,8,0:0:0:0:
256,192,29802,1,0,0:0:0:0:
256,192,30427,1,8,0:0:0:0:
256,192,30739,1,8,0:0:0:0:
256,192,31052,1,4,0:0:0:0:
256,192,32302,1,8,0:0:0:0:
256,192,32927,1,0,0:0:0:0:
256,192,33239,1,8,0:0:0:0:
256,192,33552,1,0,0:0:0:0:
256,192,34177,1,0,0:0:0:0:
256,192,34802,1,8,0:0:0:0:
256,192,35427,1,8,0:0:0:0:
256,192,35895,1,4,0:0:0:0:
256,192,37302,1,0,0:0:0:0:
256,192,37614,1,8,0:0:0:0:
256,192,37927,1,8,0:0:0:0:
256,192,38552,1,0,0:0:0:0:
256,192,39177,1,8,0:0:0:0:
256,192,39489,1,0,0:0:0:0:
256,192,39802,1,8,0:0:0:0:
256,192,40427,1,0,0:0:0:0:
256,192,40895,1,12,0:0:0:0:
256,192,42145,1,4,0:0:0:0:
256,192,43395,1,12,0:0:0:0:
256,192,44645,1,4,0:0:0:0:
256,192,45427,1,8,0:0:0:0:
256,192,45895,1,12,0:0:0:0:
256,192,47145,1,4,0:0:0:0:
256,192,48395,1,12,0:0:0:0:
256,192,49645,1,4,0:0:0:0:
256,192,50427,1,8,0:0:0:0:
256,192,50895,1,4,0:0:0:0:
256,192,52145,1,8,0:0:0:0:
256,192,52927,1,0,0:0:0:0:
256,192,53395,1,4,0:0:0:0:
256,192,54645,1,8,0:0:0:0:
256,192,55427,1,0,0:0:0:0:
256,192,56052,1,4,0:0:0:0:
256,192,56677,1,8,0:0:0:0:
256,192,57302,1,0,0:0:0:0:
256,192,57614,1,0,0:0:0:0:
256,192,57927,1,0,0:0:0:0:
256,192,58552,1,8,0:0:0:0:
256,192,59489,1,8,0:0:0:0:
256,192,60114,1,8,0:0:0:0:
256,192,60427,1,8,0:0:0:0:
256,192,61052,1,4,0:0:0:0:
256,192,61677,1,8,0:0:0:0:
256,192,62302,1,0,0:0:0:0:
256,192,62614,1,8,0:0:0:0:
256,192,62927,1,0,0:0:0:0:
256,192,63552,1,8,0:0:0:0:
256,192,64802,1,0,0:0:0:0:
256,192,65427,1,8,0:0:0:0:
256,192,65739,1,0,0:0:0:0:
256,192,66052,1,8,0:0:0:0:
256,192,66677,1,0,0:0:0:0:
256,192,67302,1,8,0:0:0:0:
256,192,67927,1,0,0:0:0:0:
256,192,68239,1,8,0:0:0:0:
256,192,68552,1,0,0:0:0:0:
256,192,69177,1,8,0:0:0:0:
256,192,69489,1,8,0:0:0:0:
256,192,69802,1,0,0:0:0:0:
256,192,70427,1,8,0:0:0:0:
256,192,71052,1,4,0:0:0:0:
256,192,71677,1,8,0:0:0:0:
256,192,72302,1,0,0:0:0:0:
256,192,72614,1,8,0:0:0:0:
256,192,72927,1,0,0:0:0:0:
256,192,73552,1,8,0:0:0:0:
256,192,74802,1,0,0:0:0:0:
256,192,75427,1,8,0:0:0:0:
256,192,75739,1,0,0:0:0:0:
256,192,76052,1,8,0:0:0:0:
256,192,76677,1,0,0:0:0:0:
256,192,77302,1,8,0:0:0:0:
256,192,77927,1,0,0:0:0:0:
256,192,78239,1,0,0:0:0:0:
256,192,78552,1,8,0:0:0:0:
256,192,79177,1,8,0:0:0:0:
256,192,79802,1,0,0:0:0:0:
256,192,81052,1,0,0:0:0:0:
256,192,81989,1,0,0:0:0:0:
256,192,82927,1,0,0:0:0:0:
256,192,83239,1,8,0:0:0:0:
256,192,83552,1,0,0:0:0:0:
256,192,84489,1,0,0:0:0:0:
256,192,85427,1,0,0:0:0:0:
256,192,85739,1,8,0:0:0:0:
256,192,86052,1,0,0:0:0:0:
256,192,88552,1,0,0:0:0:0:
256,192,90895,1,4,0:0:0:0:
256,192,91677,1,8,0:0:0:0:
256,192,92302,1,8,0:0:0:0:
256,192,92927,1,8,0:0:0:0:
256,192,93239,1,0,0:0:0:0:
256,192,93552,1,8,0:0:0:0:
256,192,94177,1,8,0:0:0:0:
256,192,94802,1,12,0:0:0:0:
256,192,95427,1,4,0:0:0:0:
256,192,96364,1,12,0:0:0:0:
256,192,96677,1,0,0:0:0:0:
256,192,97302,1,8,0:0:0:0:
256,192,97927,1,0,0:0:0:0:
256,192,98239,1,8,0:0:0:0:
256,192,98552,1,0,0:0:0:0:
256,192,99177,1,0,0:0:0:0:
256,192,99802,1,8,0:0:0:0:
256,192,100895,1,4,0:0:0:0:
256,192,102302,1,0,0:0:0:0:
256,192,102614,1,8,0:0:0:0:
256,192,102927,1,8,0:0:0:0:
256,192,103552,1,0,0:0:0:0:
256,192,104177,1,8,0:0:0:0:
256,192,104489,1,0,0:0:0:0:
256,192,104802,1,8,0:0:0:0:
256,192,105427,1,0,0:0:0:0:
256,192,105895,1,12,0:0:0:0:
256,192,107145,1,4,0:0:0:0:
256,192,108395,1,12,0:0:0:0:
256,192,109645,1,4,0:0:0:0:
256,192,110427,1,8,0:0:0:0:
256,192,110895,1,12,0:0:0:0:
256,192,112145,1,4,0:0:0:0:
256,192,113395,1,12,0:0:0:0:
256,192,114645,1,4,0:0:0:0:
256,192,115427,1,8,0:0:0:0:
256,192,115895,1,4,0:0:0:0:
256,192,117145,1,8,0:0:0:0:
256,192,117927,1,0,0:0:0:0:
256,192,118395,1,4,0:0:0:0:
256,192,119645,1,8,0:0:0:0:
256,192,120427,1,8,0:0:0:0:
256,192,120895,1,4,0:0:0:0:
256,192,122145,1,8,0:0:0:0:
256,192,122927,1,0,0:0:0:0:
256,192,123395,1,4,0:0:0:0:
256,192,124645,1,8,0:0:0:0:
256,192,125427,1,0,0:0:0:0:
256,192,126052,1,4,0:0:0:0:
256,192,126677,1,8,0:0:0:0:
256,192,127302,1,0,0:0:0:0:
256,192,127614,1,0,0:0:0:0:
256,192,127927,1,0,0:0:0:0:
256,192,128552,1,8,0:0:0:0:
256,192,129489,1,8,0:0:0:0:
256,192,129802,1,8,0:0:0:0:
256,192,131052,1,4,0:0:0:0:
256,192,131677,1,8,0:0:0:0:
256,192,132302,1,0,0:0:0:0:
256,192,132614,1,8,0:0:0:0:
256,192,132927,1,0,0:0:0:0:
256,192,133552,1,8,0:0:0:0:
256,192,134802,1,0,0:0:0:0:
256,192,135427,1,8,0:0:0:0:
256,192,135739,1,0,0:0:0:0:
256,192,136052,1,8,0:0:0:0:
256,192,136677,1,0,0:0:0:0:
256,192,137302,1,8,0:0:0:0:
256,192,137927,1,0,0:0:0:0:
256,192,138239,1,8,0:0:0:0:
256,192,138552,1,0,0:0:0:0:
256,192,139177,1,8,0:0:0:0:
256,192,139489,1,8,0:0:0:0:
256,192,139802,1,0,0:0:0:0:
256,192,140427,1,8,0:0:0:0:
256,192,141052,1,4,0:0:0:0:
256,192,141677,1,8,0:0:0:0:
256,192,142302,1,0,0:0:0:0:
256,192,142614,1,8,0:0:0:0:
256,192,142927,1,0,0:0:0:0:
256,192,143552,1,8,0:0:0:0:
256,192,144802,1,0,0:0:0:0:
256,192,145427,1,8,0:0:0:0:
256,192,145739,1,0,0:0:0:0:
256,192,146052,1,8,0:0:0:0:
256,192,146677,1,0,0:0:0:0:
256,192,147302,1,8,0:0:0:0:
256,192,147927,1,0,0:0:0:0:
256,192,148239,1,0,0:0:0:0:
256,192,148552,1,8,0:0:0:0:
256,192,149177,1,8,0:0:0:0:
256,192,149802,1,0,0:0:0:0:
256,192,151052,1,4,0:0:0:0:
256,192,152766,1,0,0:0:0:0:
256,192,153623,1,8,0:0:0:0:
256,192,154480,1,0,0:0:0:0:
256,192,156194,1,8,0:0:0:0:
256,192,157909,1,8,0:0:0:0:
256,192,159623,1,0,0:0:0:0:
256,192,160480,1,0,0:0:0:0:
256,192,161337,1,8,0:0:0:0:
256,192,163052,1,8,0:0:0:0:
256,192,164766,1,0,0:0:0:0:
256,192,165194,1,0,0:0:0:0:
256,192,165623,1,0,0:0:0:0:
256,192,166266,1,0,0:0:0:0:
256,192,166909,1,0,0:0:0:0:
256,192,167337,1,8,0:0:0:0:
256,192,168194,1,0,0:0:0:0:
256,192,168623,1,0,0:0:0:0:
256,192,169052,1,0,0:0:0:0:
256,192,170337,1,0,0:0:0:0:
256,192,170766,1,12,0:0:0:0:
256,192,171623,1,0,0:0:0:0:
256,192,172052,1,0,0:0:0:0:
256,192,172480,1,0,0:0:0:0:
256,192,173123,1,0,0:0:0:0:
256,192,174194,1,8,0:0:0:0:
256,192,175052,1,0,0:0:0:0:
256,192,175480,1,0,0:0:0:0:
256,192,175909,1,0,0:0:0:0:
256,192,176766,1,8,0:0:0:0:
256,192,177194,1,0,0:0:0:0:
256,192,177623,1,8,0:0:0:0:
256,192,178052,1,8,0:0:0:0:
256,192,178480,1,4,0:0:0:0:
256,192,179337,1,0,0:0:0:0:
256,192,179766,1,8,0:0:0:0:
256,192,180194,1,0,0:0:0:0:
256,192,181052,1,8,0:0:0:0:
256,192,181909,1,0,0:0:0:0:
256,192,182766,1,0,0:0:0:0:
256,192,183194,1,0,0:0:0:0:
256,192,183623,1,8,0:0:0:0:
256,192,184480,1,8,0:0:0:0:
256,192,185337,1,0,0:0:0:0:
256,192,187052,1,0,0:0:0:0:
256,192,187909,1,8,0:0:0:0:
256,192,188337,1,0,0:0:0:0:
256,192,188766,1,8,0:0:0:0:
256,192,189623,1,8,0:0:0:0:
256,192,190480,1,0,0:0:0:0:
256,192,190909,1,0,0:0:0:0:
256,192,191337,1,8,0:0:0:0:
256,192,191766,1,8,0:0:0:0:
256,192,192194,1,4,0:0:0:0:
256,192,193052,1,0,0:0:0:0:
256,192,193480,1,8,0:0:0:0:
256,192,193909,1,0,0:0:0:0:
256,192,194766,1,8,0:0:0:0:
256,192,195623,1,0,0:0:0:0:
256,192,196480,1,0,0:0:0:0:
256,192,196909,1,0,0:0:0:0:
256,192,197337,1,8,0:0:0:0:
256,192,198194,1,8,0:0:0:0:
256,192,199052,1,0,0:0:0:0:
256,192,200766,1,0,0:0:0:0:
256,192,201623,1,0,0:0:0:0:
256,192,202480,1,8,0:0:0:0:
256,192,202909,1,8,0:0:0:0:
256,192,203337,1,0,0:0:0:0:
256,192,203766,1,0,0:0:0:0:
256,192,204194,1,12,0:0:0:0:
256,192,205052,1,12,0:0:0:0:
256,192,205909,1,4,0:0:0:0:
256,192,207159,1,0,0:0:0:0:
256,192,208409,1,12,0:0:0:0:
256,192,209346,1,4,0:0:0:0:
256,192,210284,1,8,0:0:0:0:
256,192,210596,1,8,0:0:0:0:
256,192,210909,1,4,0:0:0:0:
256,192,212159,1,0,0:0:0:0:
256,192,213409,1,12,0:0:0:0:
256,192,214346,1,4,0:0:0:0:
256,192,215284,1,8,0:0:0:0:
256,192,215596,1,0,0:0:0:0:
256,192,215909,1,8,0:0:0:0:
256,192,216534,1,0,0:0:0:0:
256,192,217159,1,8,0:0:0:0:
256,192,217784,1,8,0:0:0:0:
256,192,218096,1,8,0:0:0:0:
256,192,218409,1,4,0:0:0:0:
256,192,219346,1,4,0:0:0:0:
256,192,220284,1,8,0:0:0:0:
256,192,220909,1,12,0:0:0:0:
256,192,222159,1,8,0:0:0:0:
256,192,222784,1,0,0:0:0:0:
256,192,223096,1,8,0:0:0:0:
256,192,223409,1,4,0:0:0:0:
256,192,224659,1,0,0:0:0:0:
256,192,225284,1,8,0:0:0:0:
256,192,225596,1,0,0:0:0:0:
256,192,225909,1,12,0:0:0:0:
256,192,227159,1,4,0:0:0:0:
256,192,227471,1,8,0:0:0:0:
256,192,227784,1,8,0:0:0:0:
256,192,228096,1,8,0:0:0:0:
256,192,228409,1,0,0:0:0:0:
256,192,229659,1,4,0:0:0:0:
256,192,230284,1,8,0:0:0:0:
256,192,230909,1,0,0:0:0:0:
256,192,231221,1,8,0:0:0:0:
256,192,231534,1,0,0:0:0:0:
256,192,232159,1,8,0:0:0:0:
256,192,233409,1,0,0:0:0:0:
256,192,234034,1,8,0:0:0:0:
256,192,234346,1,0,0:0:0:0:
256,192,234659,1,8,0:0:0:0:
256,192,235284,1,0,0:0:0:0:
256,192,235909,1,8,0:0:0:0:
256,192,236534,1,0,0:0:0:0:
256,192,236846,1,8,0:0:0:0:
256,192,237159,1,0,0:0:0:0:
256,192,237784,1,8,0:0:0:0:
256,192,238096,1,8,0:0:0:0:
256,192,238409,1,0,0:0:0:0:
256,192,239034,1,8,0:0:0:0:
256,192,239659,1,4,0:0:0:0:
256,192,240284,1,8,0:0:0:0:
256,192,240909,1,0,0:0:0:0:
256,192,241221,1,8,0:0:0:0:
256,192,241534,1,0,0:0:0:0:
256,192,242159,1,8,0:0:0:0:
256,192,243409,1,0,0:0:0:0:
256,192,244034,1,8,0:0:0:0:
256,192,244346,1,0,0:0:0:0:
256,192,244659,1,8,0:0:0:0:
256,192,245284,1,0,0:0:0:0:
256,192,245909,1,8,0:0:0:0:
256,192,246534,1,0,0:0:0:0:
256,192,246846,1,0,0:0:0:0:
256,192,247159,1,8,0:0:0:0:
256,192,247784,1,8,0:0:0:0:
256,192,248409,1,0,0:0:0:0:
256,192,249034,1,0,0:0:0:0:
256,192,249346,1,8,0:0:0:0:
256,192,249659,1,4,0:0:0:0:
256,192,250909,1,0,0:0:0:0:
256,192,251221,1,0,0:0:0:0:
256,192,251534,1,8,0:0:0:0:
256,192,252159,1,0,0:0:0:0:
256,192,252784,1,8,0:0:0:0:
256,192,253409,1,0,0:0:0:0:
256,192,254034,1,8,0:0:0:0:
256,192,254502,1,4,0:0:0:0:
256,192,255909,1,0,0:0:0:0:
256,192,256221,1,0,0:0:0:0:
256,192,256534,1,8,0:0:0:0:
256,192,257159,1,0,0:0:0:0:
256,192,257784,1,8,0:0:0:0:
256,192,258409,1,0,0:0:0:0:
256,192,259034,1,8,0:0:0:0:
256,192,259346,1,8,0:0:0:0:
256,192,259659,1,4,0:0:0:0:
256,192,260596,1,4,0:0:0:0:
256,192,261534,1,8,0:0:0:0:
256,192,262002,1,4,0:0:0:0:
256,192,262159,12,0,264502,0:0:0:0:
