osu file format v14

[General]
AudioFilename: audio.mp3
AudioLeadIn: 0
PreviewTime: 60661
Countdown: 0
SampleSet: Normal
StackLeniency: 0.7
Mode: 1
LetterboxInBreaks: 0
WidescreenStoryboard: 0

[Editor]
Bookmarks: 1052,21052,40348,40505,59958,60114,60270,60427,61052,61364,61520,61833,61989,62614,62927,63239,63552,64489,64802,65114,65270,65739,66052,86364,86677,87614,87927,88864,89177,90218,90322,90427,90531,90635,90739,96052,100895,106052,131052,152766,153623,162194,163909,164766,165194,165623,166052,166480,166909,167337,167766,168194,168623,169052,169480,169909,170337,170766,171194,171623,172052,172480,172909,173337,173766,174194,174623,175052,175480,175909,176337,176766,177194,177623,178052,178480,192194,205909,206221,218409,220752,227784,227940,228096,228252
DistanceSpacing: 1.6
BeatDivisor: 4
GridSize: 32
TimelineZoom: 2.4

[Metadata]
Title:Kusabi
TitleUnicode:楔
Artist:Baby's breath
ArtistUnicode:Baby’s breath
Creator:Nardoxyribonucleic
Version:JuDa's Oni
Source:天使の3P!
Tags:Taiko Tenshi no 3P! Ending iloveyou4ever JUDYDANNY
BeatmapID:1634260
BeatmapSetID:775538

[Difficulty]
HPDrainRate:5.5
CircleSize:5
OverallDifficulty:5.5
ApproachRate:5
SliderMultiplier:1.4
SliderTickRate:1

[Events]
//Background and Video events
0,0,"Jun.jpg",0,0
//Break Periods
//Storyboard Layer 0 (Background)
//Storyboard Layer 1 (Fail)
//Storyboard Layer 2 (Pass)
//Storyboard Layer 3 (Foreground)
//Storyboard Sound Samples

[TimingPoints]
1052,312.5,4,1,0,80,1,0
11052,-100,4,1,0,95,0,0
40895,-100,4,1,0,85,0,0
61052,-100,4,1,0,100,0,1
81052,-100,4,1,0,80,0,0
86052,-100,4,1,0,85,0,0
96364,-100,4,1,0,95,0,0
105895,-100,4,1,0,85,0,0
131052,-100,4,1,0,100,0,1
151052,428.571428571429,4,1,0,70,1,0
151052,-72.9181857955374,4,1,0,70,0,0
152766,-100,4,1,0,70,0,0
163051,-105.263157894737,4,1,0,70,0,0
163909,-107.52688172043,4,1,0,70,0,0
164337,-109.89010989011,4,1,0,70,0,0
164766,-111.111111111111,4,1,0,80,0,0
177623,-105.263157894737,4,1,0,80,0,0
178480,-100,4,1,0,90,0,0
205909,312.5,4,1,0,85,1,0
215909,-100,4,1,0,70,0,0
220909,-100,4,1,0,80,0,0
229659,-100,4,1,0,100,0,1
249659,-100,4,1,0,95,0,0
262159,-100,4,1,0,50,0,0
262784,-100,4,1,0,40,0,0
263409,-100,4,1,0,30,0,0
264034,-100,4,1,0,20,0,0
264502,-100,4,1,0,10,0,0

[HitObjects]
224,173,1052,5,4,0:0:0:0:
264,188,2302,1,0,0:0:0:0:
264,188,2770,1,0,0:0:0:0:
264,188,3239,1,0,0:0:0:0:
224,173,3552,1,4,0:0:0:0:
224,173,4020,1,4,0:0:0:0:
224,173,4489,1,4,0:0:0:0:
104,93,4958,1,8,0:0:0:0:
123,105,5036,1,0,0:0:0:0:
141,117,5114,1,0,0:0:0:0:
196,154,5270,1,0,0:0:0:0:
196,154,5427,1,8,0:0:0:0:
192,128,5505,1,0,0:0:0:0:
196,154,5583,1,0,0:0:0:0:
196,154,5739,1,8,0:0:0:0:
192,128,5817,1,8,0:0:0:0:
128,160,5895,1,8,0:0:0:0:
224,173,6052,1,4,0:0:0:0:
197,158,7302,1,0,0:0:0:0:
197,158,7770,1,0,0:0:0:0:
197,158,8239,1,0,0:0:0:0:
197,158,8552,1,4,0:0:0:0:
224,173,9020,1,4,0:0:0:0:
224,173,9489,1,4,0:0:0:0:
70,87,9958,1,8,0:0:0:0:
96,102,10036,1,0,0:0:0:0:
125,118,10114,1,0,0:0:0:0:
172,144,10270,1,0,0:0:0:0:
214,168,10427,1,12,0:0:0:0:
162,139,10583,1,12,0:0:0:0:
224,192,11052,5,4,0:0:0:0:
224,192,11364,1,8,0:0:0:0:
224,192,11520,1,0,0:0:0:0:
224,192,11598,1,0,0:0:0:0:
224,192,11677,1,0,0:0:0:0:
224,192,11833,1,0,0:0:0:0:
224,192,11989,1,8,0:0:0:0:
224,192,12145,1,0,0:0:0:0:
224,192,12458,1,0,0:0:0:0:
224,192,12614,1,8,0:0:0:0:
224,192,12770,1,0,0:0:0:0:
224,192,12848,1,0,0:0:0:0:
224,192,12927,1,8,0:0:0:0:
224,192,13083,1,0,0:0:0:0:
224,192,13239,1,8,0:0:0:0:
224,192,13395,1,0,0:0:0:0:
224,192,13708,1,0,0:0:0:0:
224,192,13864,1,8,0:0:0:0:
224,192,14020,1,0,0:0:0:0:
224,192,14098,1,0,0:0:0:0:
224,192,14177,1,0,0:0:0:0:
224,192,14333,1,0,0:0:0:0:
224,192,14489,1,8,0:0:0:0:
224,192,14645,1,0,0:0:0:0:
224,192,14958,1,0,0:0:0:0:
224,192,15114,1,8,0:0:0:0:
205,153,15270,1,0,0:0:0:0:
193,133,15348,1,0,0:0:0:0:
224,192,15427,1,8,0:0:0:0:
224,192,15583,1,8,0:0:0:0:
224,192,15739,1,8,0:0:0:0:
224,192,15895,1,4,0:0:0:0:
224,192,16208,1,0,0:0:0:0:
224,192,16364,1,8,0:0:0:0:
224,192,16520,1,0,0:0:0:0:
224,192,16598,1,0,0:0:0:0:
224,192,16677,1,0,0:0:0:0:
224,192,16833,1,0,0:0:0:0:
224,192,16989,1,8,0:0:0:0:
224,192,17145,1,0,0:0:0:0:
224,192,17458,1,0,0:0:0:0:
224,192,17614,1,8,0:0:0:0:
224,192,17770,1,0,0:0:0:0:
224,192,17848,1,0,0:0:0:0:
224,192,17927,1,8,0:0:0:0:
224,192,18083,1,0,0:0:0:0:
224,192,18239,1,8,0:0:0:0:
224,192,18395,1,0,0:0:0:0:
224,192,18708,1,0,0:0:0:0:
224,192,18864,1,8,0:0:0:0:
224,192,19020,1,0,0:0:0:0:
224,192,19098,1,0,0:0:0:0:
224,192,19177,1,0,0:0:0:0:
224,192,19333,1,0,0:0:0:0:
224,192,19489,1,8,0:0:0:0:
224,192,19645,1,0,0:0:0:0:
224,192,19958,1,0,0:0:0:0:
224,192,20114,1,8,0:0:0:0:
205,142,20270,1,0,0:0:0:0:
192,113,20348,1,0,0:0:0:0:
224,192,20427,1,8,0:0:0:0:
224,192,20505,1,8,0:0:0:0:
224,192,20583,1,0,0:0:0:0:
224,192,20739,1,8,0:0:0:0:
224,192,20817,1,8,0:0:0:0:
224,192,20895,1,8,0:0:0:0:
224,192,20973,1,8,0:0:0:0:
224,192,21052,5,0,0:0:0:0:
288,96,21364,1,8,0:0:0:0:
256,160,21520,1,0,0:0:0:0:
224,192,21598,1,0,0:0:0:0:
224,192,21677,1,0,0:0:0:0:
256,160,21833,1,0,0:0:0:0:
224,192,21989,1,8,0:0:0:0:
256,160,22145,1,0,0:0:0:0:
160,224,22458,1,0,0:0:0:0:
224,192,22614,1,8,0:0:0:0:
256,128,22770,1,0,0:0:0:0:
288,128,22848,1,8,0:0:0:0:
256,160,22927,1,0,0:0:0:0:
192,192,23083,1,0,0:0:0:0:
256,160,23239,1,8,0:0:0:0:
224,192,23395,1,0,0:0:0:0:
288,96,23708,1,0,0:0:0:0:
256,128,23864,1,8,0:0:0:0:
224,160,24020,1,0,0:0:0:0:
256,192,24098,1,0,0:0:0:0:
224,160,24177,1,0,0:0:0:0:
256,192,24333,1,0,0:0:0:0:
224,160,24489,1,8,0:0:0:0:
256,192,24645,1,0,0:0:0:0:
192,128,24958,1,0,0:0:0:0:
224,160,25114,1,8,0:0:0:0:
256,192,25270,1,0,0:0:0:0:
224,160,25348,1,8,0:0:0:0:
256,192,25427,1,0,0:0:0:0:
224,160,25583,1,0,0:0:0:0:
256,192,25739,1,8,0:0:0:0:
224,160,25895,1,4,0:0:0:0:
288,224,26208,1,0,0:0:0:0:
256,192,26364,1,8,0:0:0:0:
224,160,26520,1,0,0:0:0:0:
214,145,26598,1,0,0:0:0:0:
256,192,26677,1,8,0:0:0:0:
224,160,26833,1,0,0:0:0:0:
256,192,26989,1,8,0:0:0:0:
224,160,27145,1,0,0:0:0:0:
320,224,27458,1,0,0:0:0:0:
256,192,27614,1,8,0:0:0:0:
224,160,27770,1,0,0:0:0:0:
256,192,27848,1,0,0:0:0:0:
256,192,27927,1,8,0:0:0:0:
224,160,28083,1,0,0:0:0:0:
256,192,28239,1,8,0:0:0:0:
224,160,28395,1,4,0:0:0:0:
288,224,28708,1,0,0:0:0:0:
256,192,28864,1,8,0:0:0:0:
224,160,29020,1,0,0:0:0:0:
216,141,29098,1,0,0:0:0:0:
256,192,29177,1,8,0:0:0:0:
224,160,29333,1,0,0:0:0:0:
256,192,29489,1,8,0:0:0:0:
224,160,29645,1,0,0:0:0:0:
215,133,29723,1,0,0:0:0:0:
190,114,29802,1,8,0:0:0:0:
217,145,29880,1,8,0:0:0:0:
288,224,29958,1,0,0:0:0:0:
256,192,30114,1,8,0:0:0:0:
224,160,30270,1,0,0:0:0:0:
184,88,30348,1,0,0:0:0:0:
224,160,30427,1,8,0:0:0:0:
256,192,30583,1,0,0:0:0:0:
224,160,30739,1,8,0:0:0:0:
256,192,30817,1,8,0:0:0:0:
224,160,30895,1,8,0:0:0:0:
256,192,30973,1,8,0:0:0:0:
256,160,31052,5,0,0:0:0:0:
160,224,31364,1,8,0:0:0:0:
224,192,31520,1,0,0:0:0:0:
256,160,31598,1,0,0:0:0:0:
224,160,31677,1,0,0:0:0:0:
256,192,31833,1,0,0:0:0:0:
224,160,31989,1,8,0:0:0:0:
256,192,32145,1,0,0:0:0:0:
192,128,32458,1,0,0:0:0:0:
224,160,32614,1,8,0:0:0:0:
256,192,32770,1,0,0:0:0:0:
224,160,32848,1,8,0:0:0:0:
256,192,32927,1,0,0:0:0:0:
224,160,33083,1,0,0:0:0:0:
256,192,33239,1,8,0:0:0:0:
224,160,33395,1,0,0:0:0:0:
288,224,33708,1,0,0:0:0:0:
256,192,33864,1,8,0:0:0:0:
224,160,34020,1,0,0:0:0:0:
256,192,34098,1,0,0:0:0:0:
224,160,34177,1,0,0:0:0:0:
256,192,34333,1,0,0:0:0:0:
224,128,34489,1,8,0:0:0:0:
256,192,34645,1,0,0:0:0:0:
192,128,34958,1,0,0:0:0:0:
224,160,35114,1,8,0:0:0:0:
256,192,35270,1,0,0:0:0:0:
224,160,35348,1,8,0:0:0:0:
256,192,35427,1,0,0:0:0:0:
224,160,35583,1,0,0:0:0:0:
256,192,35739,1,8,0:0:0:0:
224,160,35895,1,4,0:0:0:0:
288,224,36208,1,0,0:0:0:0:
256,192,36364,1,8,0:0:0:0:
224,160,36520,1,0,0:0:0:0:
218,146,36598,1,0,0:0:0:0:
288,192,36677,1,8,0:0:0:0:
224,160,36833,1,0,0:0:0:0:
256,192,36989,1,8,0:0:0:0:
224,160,37145,1,0,0:0:0:0:
288,224,37458,1,0,0:0:0:0:
256,192,37614,1,8,0:0:0:0:
224,160,37770,1,0,0:0:0:0:
256,192,37848,1,0,0:0:0:0:
224,160,37927,1,8,0:0:0:0:
288,192,38083,1,0,0:0:0:0:
256,160,38239,1,8,0:0:0:0:
224,192,38395,1,4,0:0:0:0:
288,96,38708,1,0,0:0:0:0:
256,128,38864,1,8,0:0:0:0:
224,192,39020,1,0,0:0:0:0:
219,181,39098,1,0,0:0:0:0:
256,160,39177,1,8,0:0:0:0:
224,192,39333,1,0,0:0:0:0:
256,160,39489,1,8,0:0:0:0:
224,192,39645,1,0,0:0:0:0:
256,160,39802,1,8,0:0:0:0:
244,145,39880,1,8,0:0:0:0:
224,192,39958,1,0,0:0:0:0:
224,160,40036,1,0,0:0:0:0:
256,160,40114,1,8,0:0:0:0:
224,192,40270,1,0,0:0:0:0:
222,188,40427,1,8,0:0:0:0:
240,139,40583,1,0,0:0:0:0:
240,139,40661,1,0,0:0:0:0:
224,160,40739,1,0,0:0:0:0:
256,192,40895,5,4,0:0:0:0:
192,128,41208,1,0,0:0:0:0:
224,160,41364,1,0,0:0:0:0:
256,192,41520,1,0,0:0:0:0:
224,160,41677,1,8,0:0:0:0:
224,160,41989,1,8,0:0:0:0:
256,192,42145,1,4,0:0:0:0:
192,96,42458,1,0,0:0:0:0:
224,160,42614,1,0,0:0:0:0:
256,192,42770,1,0,0:0:0:0:
224,160,42927,1,8,0:0:0:0:
224,160,43239,1,8,0:0:0:0:
256,192,43395,1,4,0:0:0:0:
192,128,43708,1,0,0:0:0:0:
224,160,43864,1,8,0:0:0:0:
256,192,44020,1,0,0:0:0:0:
224,160,44177,1,8,0:0:0:0:
224,160,44489,1,8,0:0:0:0:
256,192,44645,1,4,0:0:0:0:
192,128,44958,1,0,0:0:0:0:
224,160,45114,1,8,0:0:0:0:
256,192,45270,1,0,0:0:0:0:
224,160,45427,1,8,0:0:0:0:
256,192,45583,1,8,0:0:0:0:
236,175,45661,1,8,0:0:0:0:
224,160,45739,1,0,0:0:0:0:
256,192,45895,1,4,0:0:0:0:
192,96,46208,1,0,0:0:0:0:
224,160,46364,1,0,0:0:0:0:
256,192,46520,1,0,0:0:0:0:
224,160,46677,1,8,0:0:0:0:
192,128,46989,1,8,0:0:0:0:
256,192,47145,1,4,0:0:0:0:
192,128,47458,1,0,0:0:0:0:
224,160,47614,1,0,0:0:0:0:
256,192,47770,1,0,0:0:0:0:
224,160,47927,1,8,0:0:0:0:
217,159,48239,1,8,0:0:0:0:
256,192,48395,1,4,0:0:0:0:
192,96,48708,1,0,0:0:0:0:
192,128,48864,1,8,0:0:0:0:
288,192,49020,1,0,0:0:0:0:
224,160,49177,1,8,0:0:0:0:
192,128,49489,1,8,0:0:0:0:
256,192,49645,1,4,0:0:0:0:
192,128,49958,1,0,0:0:0:0:
192,128,50114,1,8,0:0:0:0:
256,192,50270,1,0,0:0:0:0:
224,160,50427,1,8,0:0:0:0:
256,192,50583,1,8,0:0:0:0:
224,160,50661,1,8,0:0:0:0:
256,192,50739,1,8,0:0:0:0:
224,160,50895,1,4,0:0:0:0:
320,256,51208,1,0,0:0:0:0:
288,224,51364,1,8,0:0:0:0:
224,160,51677,1,0,0:0:0:0:
288,224,51833,1,0,0:0:0:0:
224,160,51989,1,8,0:0:0:0:
256,192,52145,1,0,0:0:0:0:
192,128,52458,1,0,0:0:0:0:
224,160,52614,1,8,0:0:0:0:
288,224,52927,1,0,0:0:0:0:
256,192,53083,1,8,0:0:0:0:
224,160,53239,1,8,0:0:0:0:
256,192,53395,1,4,0:0:0:0:
192,128,53708,1,0,0:0:0:0:
224,160,53864,1,8,0:0:0:0:
288,224,54177,1,8,0:0:0:0:
256,192,54333,1,0,0:0:0:0:
224,160,54489,1,8,0:0:0:0:
256,192,54645,1,0,0:0:0:0:
224,160,54958,1,0,0:0:0:0:
288,192,55114,1,8,0:0:0:0:
192,128,55427,1,0,0:0:0:0:
224,160,55583,1,0,0:0:0:0:
256,192,55739,1,8,0:0:0:0:
224,160,55817,1,8,0:0:0:0:
224,160,55895,1,8,0:0:0:0:
256,192,55973,1,8,0:0:0:0:
256,192,56052,1,0,0:0:0:0:
192,128,56364,1,8,0:0:0:0:
192,128,56677,1,0,0:0:0:0:
192,128,56833,1,8,0:0:0:0:
192,64,56989,1,0,0:0:0:0:
192,64,57145,1,0,0:0:0:0:
192,128,57302,1,8,0:0:0:0:
256,192,57614,1,0,0:0:0:0:
222,164,57770,1,8,0:0:0:0:
178,127,57927,1,0,0:0:0:0:
178,127,58005,1,0,0:0:0:0:
224,128,58083,1,0,0:0:0:0:
224,128,58239,1,8,0:0:0:0:
202,118,58317,1,0,0:0:0:0:
224,128,58395,1,0,0:0:0:0:
224,128,58473,1,0,0:0:0:0:
224,128,58552,1,8,0:0:0:0:
224,128,58708,1,8,0:0:0:0:
224,128,59020,1,8,0:0:0:0:
224,128,59177,1,8,0:0:0:0:
224,128,59489,1,8,0:0:0:0:
224,128,59645,1,8,0:0:0:0:
224,128,59958,1,12,0:0:0:0:
224,128,60114,1,12,0:0:0:0:
224,128,60270,1,12,0:0:0:0:
224,128,60427,1,12,0:0:0:0:
224,128,60739,1,12,0:0:0:0:
224,128,61052,5,4,0:0:0:0:
320,160,61364,1,8,0:0:0:0:
256,128,61520,1,8,0:0:0:0:
256,128,61598,1,8,0:0:0:0:
256,128,61677,1,0,0:0:0:0:
256,128,61833,1,0,0:0:0:0:
247,109,61989,1,8,0:0:0:0:
256,128,62302,1,0,0:0:0:0:
192,32,62458,1,0,0:0:0:0:
256,128,62614,1,8,0:0:0:0:
204,132,62770,1,8,0:0:0:0:
256,128,62927,1,0,0:0:0:0:
224,128,63083,1,0,0:0:0:0:
201,120,63161,1,0,0:0:0:0:
256,128,63239,1,8,0:0:0:0:
201,120,63395,1,8,0:0:0:0:
256,128,63552,1,0,0:0:0:0:
256,128,63864,1,8,0:0:0:0:
256,128,64020,1,0,0:0:0:0:
256,128,64098,1,0,0:0:0:0:
256,128,64177,1,0,0:0:0:0:
256,128,64333,1,0,0:0:0:0:
256,128,64489,1,8,0:0:0:0:
256,128,64802,1,0,0:0:0:0:
224,64,64958,1,0,0:0:0:0:
256,128,65114,1,8,0:0:0:0:
231,92,65270,1,0,0:0:0:0:
231,92,65348,1,8,0:0:0:0:
256,128,65427,1,0,0:0:0:0:
256,128,65583,1,0,0:0:0:0:
256,128,65739,1,8,0:0:0:0:
205,140,65895,1,8,0:0:0:0:
256,128,66052,1,0,0:0:0:0:
256,128,66364,1,8,0:0:0:0:
256,128,66520,1,0,0:0:0:0:
256,128,66598,1,0,0:0:0:0:
256,128,66677,1,0,0:0:0:0:
256,128,66833,1,0,0:0:0:0:
256,128,66989,1,8,0:0:0:0:
256,128,67302,1,0,0:0:0:0:
224,64,67458,1,0,0:0:0:0:
256,128,67614,1,8,0:0:0:0:
228,88,67770,1,0,0:0:0:0:
228,88,67848,1,8,0:0:0:0:
256,128,67927,1,0,0:0:0:0:
256,128,68083,1,0,0:0:0:0:
256,128,68239,1,8,0:0:0:0:
256,128,68552,1,0,0:0:0:0:
256,128,68864,1,8,0:0:0:0:
256,128,69020,1,8,0:0:0:0:
256,128,69098,1,8,0:0:0:0:
256,128,69177,1,0,0:0:0:0:
256,128,69333,1,0,0:0:0:0:
256,128,69489,1,8,0:0:0:0:
222,80,69645,1,0,0:0:0:0:
256,128,69802,1,0,0:0:0:0:
256,128,69880,1,0,0:0:0:0:
256,128,69958,1,8,0:0:0:0:
256,128,70114,1,8,0:0:0:0:
256,128,70270,1,0,0:0:0:0:
256,128,70348,1,0,0:0:0:0:
256,128,70427,1,8,0:0:0:0:
256,128,70505,1,8,0:0:0:0:
256,128,70583,1,0,0:0:0:0:
256,128,70739,1,8,0:0:0:0:
256,128,70817,1,8,0:0:0:0:
256,128,70895,1,8,0:0:0:0:
256,128,71052,5,4,0:0:0:0:
256,128,71364,1,8,0:0:0:0:
256,128,71520,1,8,0:0:0:0:
256,128,71598,1,8,0:0:0:0:
256,128,71677,1,0,0:0:0:0:
256,128,71833,1,0,0:0:0:0:
256,128,71989,1,8,0:0:0:0:
256,128,72302,1,0,0:0:0:0:
224,64,72458,1,0,0:0:0:0:
256,128,72614,1,8,0:0:0:0:
224,96,72770,1,8,0:0:0:0:
256,128,72927,1,0,0:0:0:0:
256,128,73083,1,0,0:0:0:0:
256,96,73161,1,0,0:0:0:0:
256,128,73239,1,8,0:0:0:0:
248,77,73395,1,8,0:0:0:0:
256,128,73552,1,0,0:0:0:0:
256,128,73864,1,8,0:0:0:0:
256,128,74020,1,0,0:0:0:0:
256,128,74098,1,0,0:0:0:0:
256,128,74177,1,0,0:0:0:0:
256,128,74333,1,0,0:0:0:0:
256,128,74489,1,8,0:0:0:0:
256,128,74802,1,0,0:0:0:0:
224,64,74958,1,0,0:0:0:0:
256,128,75114,1,8,0:0:0:0:
248,80,75270,1,0,0:0:0:0:
256,96,75348,1,8,0:0:0:0:
256,128,75427,1,0,0:0:0:0:
256,128,75583,1,0,0:0:0:0:
256,128,75739,1,8,0:0:0:0:
248,75,75895,1,8,0:0:0:0:
256,128,76052,1,0,0:0:0:0:
256,128,76364,1,8,0:0:0:0:
256,128,76520,1,0,0:0:0:0:
256,128,76598,1,0,0:0:0:0:
256,128,76677,1,0,0:0:0:0:
256,128,76833,1,0,0:0:0:0:
256,128,76989,1,8,0:0:0:0:
256,128,77302,1,0,0:0:0:0:
224,96,77458,1,0,0:0:0:0:
256,128,77614,1,8,0:0:0:0:
249,82,77770,1,0,0:0:0:0:
249,82,77848,1,8,0:0:0:0:
256,128,77927,1,0,0:0:0:0:
256,128,78083,1,0,0:0:0:0:
256,128,78239,1,8,0:0:0:0:
256,128,78552,1,0,0:0:0:0:
256,128,78864,1,8,0:0:0:0:
224,64,79020,1,8,0:0:0:0:
224,96,79098,1,8,0:0:0:0:
256,128,79177,1,0,0:0:0:0:
256,128,79333,1,0,0:0:0:0:
256,128,79489,1,8,0:0:0:0:
248,80,79645,1,0,0:0:0:0:
256,128,79802,1,8,0:0:0:0:
256,128,79958,1,0,0:0:0:0:
256,128,80036,1,0,0:0:0:0:
256,128,80114,1,0,0:0:0:0:
256,128,80192,1,0,0:0:0:0:
256,128,80270,1,8,0:0:0:0:
256,128,80427,1,0,0:0:0:0:
256,128,80505,1,0,0:0:0:0:
256,128,80583,1,0,0:0:0:0:
256,128,80661,1,0,0:0:0:0:
256,128,80739,1,8,0:0:0:0:
160,128,80895,1,0,0:0:0:0:
160,128,80973,1,0,0:0:0:0:
256,128,81052,1,0,0:0:0:0:
256,128,81208,1,0,0:0:0:0:
256,128,81364,1,0,0:0:0:0:
256,128,81520,1,0,0:0:0:0:
256,128,81677,1,8,0:0:0:0:
256,128,81989,1,0,0:0:0:0:
256,128,82145,1,0,0:0:0:0:
256,128,82302,1,0,0:0:0:0:
256,128,82458,1,0,0:0:0:0:
256,128,82614,1,8,0:0:0:0:
256,128,82927,1,0,0:0:0:0:
256,128,83083,1,0,0:0:0:0:
256,128,83239,1,8,0:0:0:0:
256,128,83552,1,0,0:0:0:0:
256,128,83708,1,0,0:0:0:0:
256,128,83864,1,0,0:0:0:0:
256,128,84020,1,0,0:0:0:0:
256,128,84177,1,8,0:0:0:0:
256,128,84489,1,0,0:0:0:0:
256,128,84645,1,0,0:0:0:0:
256,128,84802,1,0,0:0:0:0:
256,128,84958,1,0,0:0:0:0:
256,128,85114,1,8,0:0:0:0:
256,128,85427,1,0,0:0:0:0:
256,128,85583,1,0,0:0:0:0:
256,128,85739,1,8,0:0:0:0:
256,128,85895,1,8,0:0:0:0:
256,128,85973,1,8,0:0:0:0:
256,128,86052,1,0,0:0:0:0:
256,128,86208,1,0,0:0:0:0:
130,45,88552,1,0,0:0:0:0:
130,45,88708,1,0,0:0:0:0:
173,24,90427,1,8,0:0:0:0:
173,24,90505,1,8,0:0:0:0:
173,24,90583,1,0,0:0:0:0:
173,24,90661,1,0,0:0:0:0:
173,24,90739,1,8,0:0:0:0:
130,45,90895,1,4,0:0:0:0:
130,45,91208,1,0,0:0:0:0:
130,45,91520,1,0,0:0:0:0:
130,45,91677,1,8,0:0:0:0:
130,45,91833,1,0,0:0:0:0:
130,45,92145,1,0,0:0:0:0:
130,45,92302,1,8,0:0:0:0:
130,45,92458,1,0,0:0:0:0:
130,45,92536,1,0,0:0:0:0:
130,45,92614,1,8,0:0:0:0:
130,45,92770,1,8,0:0:0:0:
130,45,92927,1,8,0:0:0:0:
130,45,93083,1,0,0:0:0:0:
130,45,93395,1,0,0:0:0:0:
130,45,93552,1,8,0:0:0:0:
130,45,93708,1,8,0:0:0:0:
130,45,93786,1,8,0:0:0:0:
130,45,93864,1,0,0:0:0:0:
130,45,94020,1,0,0:0:0:0:
130,45,94177,1,8,0:0:0:0:
160,0,94333,1,0,0:0:0:0:
160,64,94411,1,8,0:0:0:0:
130,45,94489,1,0,0:0:0:0:
130,45,94645,1,0,0:0:0:0:
130,45,94802,1,12,0:0:0:0:
130,45,94958,1,12,0:0:0:0:
130,45,95427,1,12,0:0:0:0:
130,45,95583,1,12,0:0:0:0:
160,224,96364,1,12,0:0:0:0:
224,192,96520,1,0,0:0:0:0:
256,160,96598,1,0,0:0:0:0:
224,160,96677,1,0,0:0:0:0:
256,192,96833,1,0,0:0:0:0:
224,160,96989,1,8,0:0:0:0:
256,192,97145,1,0,0:0:0:0:
192,128,97458,1,0,0:0:0:0:
224,160,97614,1,8,0:0:0:0:
256,192,97770,1,0,0:0:0:0:
224,160,97848,1,8,0:0:0:0:
256,192,97927,1,0,0:0:0:0:
224,160,98083,1,0,0:0:0:0:
256,192,98239,1,8,0:0:0:0:
224,160,98395,1,0,0:0:0:0:
288,224,98708,1,0,0:0:0:0:
256,192,98864,1,8,0:0:0:0:
224,160,99020,1,0,0:0:0:0:
256,192,99098,1,0,0:0:0:0:
224,160,99177,1,0,0:0:0:0:
256,192,99333,1,0,0:0:0:0:
224,128,99489,1,8,0:0:0:0:
256,192,99645,1,0,0:0:0:0:
192,128,99958,1,0,0:0:0:0:
224,160,100114,1,8,0:0:0:0:
256,192,100270,1,0,0:0:0:0:
224,160,100348,1,8,0:0:0:0:
256,192,100427,1,0,0:0:0:0:
224,160,100583,1,0,0:0:0:0:
256,192,100739,1,8,0:0:0:0:
170,0,100895,1,4,0:0:0:0:
288,224,101208,1,0,0:0:0:0:
256,192,101364,1,8,0:0:0:0:
224,160,101520,1,0,0:0:0:0:
218,146,101598,1,0,0:0:0:0:
288,192,101677,1,8,0:0:0:0:
224,160,101833,1,0,0:0:0:0:
256,192,101989,1,8,0:0:0:0:
224,160,102145,1,0,0:0:0:0:
288,224,102458,1,0,0:0:0:0:
256,192,102614,1,8,0:0:0:0:
224,160,102770,1,0,0:0:0:0:
256,192,102848,1,0,0:0:0:0:
224,160,102927,1,8,0:0:0:0:
288,192,103083,1,0,0:0:0:0:
256,160,103239,1,8,0:0:0:0:
224,192,103395,1,4,0:0:0:0:
288,96,103708,1,0,0:0:0:0:
256,128,103864,1,8,0:0:0:0:
224,192,104020,1,0,0:0:0:0:
219,181,104098,1,0,0:0:0:0:
256,160,104177,1,8,0:0:0:0:
224,192,104333,1,0,0:0:0:0:
256,160,104489,1,8,0:0:0:0:
224,192,104645,1,0,0:0:0:0:
244,145,104802,1,8,0:0:0:0:
192,32,104880,1,8,0:0:0:0:
224,192,104958,1,0,0:0:0:0:
224,160,105036,1,0,0:0:0:0:
256,160,105114,1,8,0:0:0:0:
224,192,105270,1,0,0:0:0:0:
160,32,105348,1,0,0:0:0:0:
128,64,105427,1,8,0:0:0:0:
128,64,105505,1,8,0:0:0:0:
128,64,105583,1,0,0:0:0:0:
128,64,105661,1,0,0:0:0:0:
160,32,105739,1,0,0:0:0:0:
256,192,105895,5,4,0:0:0:0:
192,128,106208,1,0,0:0:0:0:
224,160,106364,1,0,0:0:0:0:
256,192,106520,1,0,0:0:0:0:
224,160,106677,1,8,0:0:0:0:
224,160,106989,1,8,0:0:0:0:
256,192,107145,1,4,0:0:0:0:
192,96,107458,1,0,0:0:0:0:
224,160,107614,1,0,0:0:0:0:
256,192,107770,1,0,0:0:0:0:
224,160,107927,1,8,0:0:0:0:
224,160,108239,1,8,0:0:0:0:
256,192,108395,1,4,0:0:0:0:
192,128,108708,1,0,0:0:0:0:
224,160,108864,1,8,0:0:0:0:
256,192,109020,1,0,0:0:0:0:
224,160,109177,1,8,0:0:0:0:
224,160,109489,1,8,0:0:0:0:
256,192,109645,1,4,0:0:0:0:
192,128,109958,1,0,0:0:0:0:
224,160,110114,1,8,0:0:0:0:
256,192,110270,1,0,0:0:0:0:
224,160,110427,1,8,0:0:0:0:
256,192,110583,1,0,0:0:0:0:
236,175,110661,1,0,0:0:0:0:
224,160,110739,1,0,0:0:0:0:
256,192,110895,1,4,0:0:0:0:
192,96,111208,1,0,0:0:0:0:
224,160,111364,1,0,0:0:0:0:
256,192,111520,1,0,0:0:0:0:
224,160,111677,1,8,0:0:0:0:
192,128,111989,1,8,0:0:0:0:
256,192,112145,1,4,0:0:0:0:
192,128,112458,1,0,0:0:0:0:
224,160,112614,1,0,0:0:0:0:
256,192,112770,1,0,0:0:0:0:
224,160,112927,1,8,0:0:0:0:
217,159,113239,1,8,0:0:0:0:
256,192,113395,1,4,0:0:0:0:
192,96,113708,1,0,0:0:0:0:
192,128,113864,1,8,0:0:0:0:
288,192,114020,1,0,0:0:0:0:
224,160,114177,1,8,0:0:0:0:
192,128,114489,1,8,0:0:0:0:
256,192,114645,1,4,0:0:0:0:
192,128,114958,1,0,0:0:0:0:
192,128,115114,1,8,0:0:0:0:
256,192,115270,1,0,0:0:0:0:
224,160,115427,1,8,0:0:0:0:
256,192,115583,1,8,0:0:0:0:
192,32,115661,1,8,0:0:0:0:
256,192,115739,1,8,0:0:0:0:
224,160,115895,1,4,0:0:0:0:
320,256,116208,1,0,0:0:0:0:
288,224,116364,1,8,0:0:0:0:
224,160,116677,1,0,0:0:0:0:
288,224,116833,1,0,0:0:0:0:
224,160,116989,1,8,0:0:0:0:
256,192,117145,1,0,0:0:0:0:
192,128,117458,1,0,0:0:0:0:
224,160,117614,1,8,0:0:0:0:
160,64,117770,1,0,0:0:0:0:
160,64,117848,1,0,0:0:0:0:
288,224,117927,1,0,0:0:0:0:
256,192,118083,1,8,0:0:0:0:
224,160,118239,1,8,0:0:0:0:
256,192,118395,1,4,0:0:0:0:
192,128,118708,1,0,0:0:0:0:
224,160,118864,1,8,0:0:0:0:
288,224,119177,1,8,0:0:0:0:
256,192,119333,1,0,0:0:0:0:
224,160,119489,1,8,0:0:0:0:
256,192,119645,1,0,0:0:0:0:
224,160,119958,1,0,0:0:0:0:
288,192,120114,1,8,0:0:0:0:
192,32,120270,1,0,0:0:0:0:
192,32,120427,1,8,0:0:0:0:
224,160,120583,1,8,0:0:0:0:
224,160,120661,1,8,0:0:0:0:
256,192,120739,1,8,0:0:0:0:
256,192,120895,1,4,0:0:0:0:
151,73,121208,1,0,0:0:0:0:
151,73,121364,1,8,0:0:0:0:
151,73,121677,1,0,0:0:0:0:
151,73,121833,1,0,0:0:0:0:
151,73,121989,1,8,0:0:0:0:
151,73,122145,1,0,0:0:0:0:
151,73,122458,1,0,0:0:0:0:
151,73,122614,1,8,0:0:0:0:
160,32,122770,1,0,0:0:0:0:
160,32,122848,1,0,0:0:0:0:
151,73,122927,1,0,0:0:0:0:
151,73,123083,1,8,0:0:0:0:
151,73,123239,1,8,0:0:0:0:
151,73,123395,1,4,0:0:0:0:
151,73,123708,1,0,0:0:0:0:
151,73,123864,1,8,0:0:0:0:
151,73,124177,1,8,0:0:0:0:
151,73,124333,1,0,0:0:0:0:
151,73,124489,1,8,0:0:0:0:
151,73,124645,1,0,0:0:0:0:
151,73,124958,1,0,0:0:0:0:
151,73,125114,1,8,0:0:0:0:
160,64,125270,1,8,0:0:0:0:
151,73,125427,1,0,0:0:0:0:
151,73,125583,1,0,0:0:0:0:
151,73,125739,1,8,0:0:0:0:
151,73,125817,1,8,0:0:0:0:
151,73,125895,1,8,0:0:0:0:
151,73,125973,1,8,0:0:0:0:
151,73,126052,1,0,0:0:0:0:
151,73,126364,1,8,0:0:0:0:
151,73,126677,1,0,0:0:0:0:
151,73,126833,1,8,0:0:0:0:
151,73,126989,1,0,0:0:0:0:
151,73,127145,1,0,0:0:0:0:
151,73,127302,1,8,0:0:0:0:
151,73,127614,5,8,0:0:0:0:
151,73,127770,1,8,0:0:0:0:
151,73,127927,1,0,0:0:0:0:
192,32,128005,1,0,0:0:0:0:
151,73,128083,1,0,0:0:0:0:
151,73,128239,1,8,0:0:0:0:
160,32,128317,1,0,0:0:0:0:
136,60,128395,1,0,0:0:0:0:
160,64,128473,1,0,0:0:0:0:
138,83,128552,5,8,0:0:0:0:
138,83,128708,1,0,0:0:0:0:
136,60,128786,1,0,0:0:0:0:
138,83,128864,1,0,0:0:0:0:
138,83,129020,1,8,0:0:0:0:
138,83,129177,1,0,0:0:0:0:
136,60,129255,1,0,0:0:0:0:
138,83,129333,1,0,0:0:0:0:
138,83,129489,1,8,0:0:0:0:
156,24,129645,1,0,0:0:0:0:
156,24,129723,1,0,0:0:0:0:
138,83,129802,1,8,0:0:0:0:
138,83,129958,1,0,0:0:0:0:
138,83,130114,1,0,0:0:0:0:
138,83,130270,1,8,0:0:0:0:
224,128,131052,5,4,0:0:0:0:
320,160,131364,1,8,0:0:0:0:
256,128,131520,1,8,0:0:0:0:
256,128,131598,1,8,0:0:0:0:
256,128,131677,1,0,0:0:0:0:
256,128,131833,1,0,0:0:0:0:
247,109,131989,1,8,0:0:0:0:
256,128,132302,1,0,0:0:0:0:
224,96,132458,1,0,0:0:0:0:
256,128,132614,1,8,0:0:0:0:
204,132,132770,1,8,0:0:0:0:
256,128,132927,1,0,0:0:0:0:
224,128,133083,1,0,0:0:0:0:
201,120,133161,1,0,0:0:0:0:
256,128,133239,1,8,0:0:0:0:
201,120,133395,1,8,0:0:0:0:
256,128,133552,1,0,0:0:0:0:
256,128,133864,1,8,0:0:0:0:
256,128,134020,1,0,0:0:0:0:
256,128,134098,1,0,0:0:0:0:
256,128,134177,1,0,0:0:0:0:
256,128,134333,1,0,0:0:0:0:
256,128,134489,1,8,0:0:0:0:
231,92,134645,1,8,0:0:0:0:
256,128,134802,1,0,0:0:0:0:
231,92,134958,1,0,0:0:0:0:
231,92,135036,1,0,0:0:0:0:
256,128,135114,1,8,0:0:0:0:
231,92,135270,1,0,0:0:0:0:
231,92,135348,1,8,0:0:0:0:
256,128,135427,1,0,0:0:0:0:
256,128,135583,1,0,0:0:0:0:
256,128,135739,1,8,0:0:0:0:
205,140,135895,1,8,0:0:0:0:
256,128,136052,1,0,0:0:0:0:
256,128,136364,1,8,0:0:0:0:
256,128,136520,1,0,0:0:0:0:
256,128,136598,1,0,0:0:0:0:
256,128,136677,1,0,0:0:0:0:
256,128,136833,1,0,0:0:0:0:
256,128,136989,1,8,0:0:0:0:
228,88,137145,1,8,0:0:0:0:
228,88,137223,1,8,0:0:0:0:
256,128,137302,1,0,0:0:0:0:
228,88,137458,1,0,0:0:0:0:
256,128,137614,1,8,0:0:0:0:
228,88,137770,1,0,0:0:0:0:
228,88,137848,1,8,0:0:0:0:
256,128,137927,1,0,0:0:0:0:
256,128,138083,1,0,0:0:0:0:
256,128,138239,1,8,0:0:0:0:
256,128,138552,1,0,0:0:0:0:
256,128,138864,1,8,0:0:0:0:
256,128,139020,1,8,0:0:0:0:
256,128,139098,1,8,0:0:0:0:
256,128,139177,1,0,0:0:0:0:
256,128,139333,1,0,0:0:0:0:
256,128,139489,1,8,0:0:0:0:
222,80,139645,1,0,0:0:0:0:
256,128,139802,1,8,0:0:0:0:
256,128,139880,1,8,0:0:0:0:
256,128,139958,1,0,0:0:0:0:
256,96,140036,1,0,0:0:0:0:
256,128,140114,1,8,0:0:0:0:
256,128,140270,1,0,0:0:0:0:
256,128,140348,1,0,0:0:0:0:
256,128,140427,1,8,0:0:0:0:
256,128,140505,1,0,0:0:0:0:
256,128,140583,1,8,0:0:0:0:
256,128,140739,1,8,0:0:0:0:
256,128,140817,1,8,0:0:0:0:
256,128,140895,1,8,0:0:0:0:
256,128,141052,5,4,0:0:0:0:
256,128,141364,1,8,0:0:0:0:
256,128,141520,1,8,0:0:0:0:
256,128,141598,1,8,0:0:0:0:
256,128,141677,1,0,0:0:0:0:
256,128,141833,1,0,0:0:0:0:
256,128,141989,1,8,0:0:0:0:
224,128,142067,1,8,0:0:0:0:
192,96,142145,1,8,0:0:0:0:
224,128,142223,1,8,0:0:0:0:
256,128,142302,1,0,0:0:0:0:
224,96,142458,1,0,0:0:0:0:
256,128,142614,1,8,0:0:0:0:
224,96,142770,1,8,0:0:0:0:
256,128,142927,1,0,0:0:0:0:
256,128,143083,1,0,0:0:0:0:
256,96,143161,1,0,0:0:0:0:
256,128,143239,1,8,0:0:0:0:
248,77,143395,1,8,0:0:0:0:
256,128,143552,1,0,0:0:0:0:
256,128,143864,1,8,0:0:0:0:
256,128,144020,1,0,0:0:0:0:
256,128,144098,1,0,0:0:0:0:
256,128,144177,1,0,0:0:0:0:
256,128,144333,1,0,0:0:0:0:
256,128,144489,1,8,0:0:0:0:
256,128,144802,1,0,0:0:0:0:
224,96,144958,1,0,0:0:0:0:
256,128,145114,1,8,0:0:0:0:
248,80,145270,1,0,0:0:0:0:
256,96,145348,1,8,0:0:0:0:
256,128,145427,1,0,0:0:0:0:
256,128,145583,1,0,0:0:0:0:
256,128,145739,1,8,0:0:0:0:
248,75,145895,1,8,0:0:0:0:
256,128,146052,1,0,0:0:0:0:
256,128,146364,1,8,0:0:0:0:
256,128,146520,1,0,0:0:0:0:
256,128,146598,1,0,0:0:0:0:
256,128,146677,1,0,0:0:0:0:
256,128,146833,1,0,0:0:0:0:
256,128,146989,1,8,0:0:0:0:
224,96,147145,1,8,0:0:0:0:
224,96,147223,1,8,0:0:0:0:
256,128,147302,1,0,0:0:0:0:
224,96,147458,1,0,0:0:0:0:
256,128,147614,1,8,0:0:0:0:
249,82,147770,1,0,0:0:0:0:
249,82,147848,1,8,0:0:0:0:
256,128,147927,1,0,0:0:0:0:
256,128,148083,1,0,0:0:0:0:
256,128,148239,1,8,0:0:0:0:
256,128,148552,1,0,0:0:0:0:
256,128,148864,1,8,0:0:0:0:
224,64,149020,1,8,0:0:0:0:
224,96,149098,1,8,0:0:0:0:
256,128,149177,1,0,0:0:0:0:
256,128,149333,1,0,0:0:0:0:
256,128,149489,1,8,0:0:0:0:
248,80,149645,1,0,0:0:0:0:
256,128,149802,1,8,0:0:0:0:
256,128,149958,5,0,0:0:0:0:
256,128,150036,1,0,0:0:0:0:
256,128,150114,1,0,0:0:0:0:
256,128,150192,1,0,0:0:0:0:
256,128,150270,1,8,0:0:0:0:
256,128,150427,1,0,0:0:0:0:
256,128,150505,1,0,0:0:0:0:
256,128,150583,1,0,0:0:0:0:
256,128,150661,1,0,0:0:0:0:
256,128,150739,1,8,0:0:0:0:
224,96,151052,1,4,0:0:0:0:
198,94,152766,1,4,0:0:0:0:
198,94,153623,1,4,0:0:0:0:
198,94,154480,1,8,0:0:0:0:
198,94,156194,5,0,0:0:0:0:
146,86,157373,5,8,0:0:0:0:
183,24,157694,1,0,0:0:0:0:
186,77,157802,1,0,0:0:0:0:
146,86,157909,1,8,0:0:0:0:
146,86,159623,1,0,0:0:0:0:
146,86,160480,1,0,0:0:0:0:
164,43,160909,1,8,0:0:0:0:
146,86,161337,1,0,0:0:0:0:
416,96,163052,1,8,0:0:0:0:
146,86,163909,1,0,0:0:0:0:
146,86,164337,1,8,0:0:0:0:
146,86,164552,1,8,0:0:0:0:
146,86,164766,1,0,0:0:0:0:
146,86,164873,1,0,0:0:0:0:
146,86,165194,1,0,0:0:0:0:
146,86,165302,1,0,0:0:0:0:
146,86,165623,1,0,0:0:0:0:
146,86,165730,1,0,0:0:0:0:
146,86,165837,1,0,0:0:0:0:
146,86,165944,1,0,0:0:0:0:
146,86,166052,1,8,0:0:0:0:
146,86,166266,1,0,0:0:0:0:
146,86,166373,1,0,0:0:0:0:
146,86,166694,1,0,0:0:0:0:
146,86,166802,1,0,0:0:0:0:
146,86,166909,1,0,0:0:0:0:
146,86,167016,1,0,0:0:0:0:
146,86,167337,1,0,0:0:0:0:
146,86,167444,1,0,0:0:0:0:
146,86,167552,1,0,0:0:0:0:
146,86,167659,1,0,0:0:0:0:
146,86,167766,1,8,0:0:0:0:
146,86,168194,1,0,0:0:0:0:
146,86,168302,1,0,0:0:0:0:
146,86,168623,1,0,0:0:0:0:
146,86,168730,1,0,0:0:0:0:
146,86,169052,1,0,0:0:0:0:
146,86,169159,1,0,0:0:0:0:
146,86,169266,1,0,0:0:0:0:
146,86,169373,1,0,0:0:0:0:
146,86,169480,1,8,0:0:0:0:
146,86,169694,1,0,0:0:0:0:
146,86,169802,1,0,0:0:0:0:
178,23,169909,1,0,0:0:0:0:
149,93,170016,1,8,0:0:0:0:
149,93,170230,1,0,0:0:0:0:
149,93,170337,1,0,0:0:0:0:
149,93,170766,1,12,0:0:0:0:
149,93,171194,1,12,0:0:0:0:
149,93,171623,1,0,0:0:0:0:
132,86,171730,1,0,0:0:0:0:
132,86,172052,1,0,0:0:0:0:
132,86,172159,1,0,0:0:0:0:
131,85,172480,1,0,0:0:0:0:
131,85,172587,1,0,0:0:0:0:
131,85,172694,1,0,0:0:0:0:
131,85,172802,1,0,0:0:0:0:
131,85,172909,1,8,0:0:0:0:
131,85,173123,1,0,0:0:0:0:
131,85,173230,1,0,0:0:0:0:
131,85,173552,1,0,0:0:0:0:
131,85,173659,1,0,0:0:0:0:
131,85,173980,1,0,0:0:0:0:
131,85,174087,1,0,0:0:0:0:
131,85,174194,1,8,0:0:0:0:
131,85,174302,1,8,0:0:0:0:
160,32,174409,1,0,0:0:0:0:
160,32,174623,1,8,0:0:0:0:
126,69,174766,1,8,0:0:0:0:
126,69,174909,1,8,0:0:0:0:
126,69,175052,1,0,0:0:0:0:
141,53,175159,1,0,0:0:0:0:
143,28,175480,1,0,0:0:0:0:
143,28,175587,1,0,0:0:0:0:
146,19,175909,1,0,0:0:0:0:
146,19,176016,1,0,0:0:0:0:
146,19,176123,1,0,0:0:0:0:
146,19,176230,1,0,0:0:0:0:
146,19,176337,1,8,0:0:0:0:
146,19,176552,1,0,0:0:0:0:
146,19,176659,1,0,0:0:0:0:
193,8,176766,1,0,0:0:0:0:
146,19,176873,1,8,0:0:0:0:
146,19,177087,1,0,0:0:0:0:
146,19,177194,1,0,0:0:0:0:
146,19,177623,1,8,0:0:0:0:
159,3,177730,1,8,0:0:0:0:
146,19,177837,1,0,0:0:0:0:
146,19,177944,1,0,0:0:0:0:
146,19,178052,1,8,0:0:0:0:
160,3,178159,1,8,0:0:0:0:
146,19,178266,1,8,0:0:0:0:
146,19,178480,5,4,0:0:0:0:
146,19,178694,1,0,0:0:0:0:
164,10,178802,1,0,0:0:0:0:
146,19,178909,1,8,0:0:0:0:
146,19,179123,1,0,0:0:0:0:
164,10,179337,1,8,0:0:0:0:
160,32,179444,1,0,0:0:0:0:
164,10,179552,1,0,0:0:0:0:
164,10,179659,1,0,0:0:0:0:
164,10,179766,1,8,0:0:0:0:
164,10,179980,1,0,0:0:0:0:
164,10,180194,1,8,0:0:0:0:
164,10,180302,1,0,0:0:0:0:
164,10,180409,1,0,0:0:0:0:
164,10,180623,1,8,0:0:0:0:
164,10,180837,1,0,0:0:0:0:
164,10,181052,1,8,0:0:0:0:
160,32,181159,1,0,0:0:0:0:
164,10,181373,1,0,0:0:0:0:
164,10,181480,1,8,0:0:0:0:
164,10,181909,5,0,0:0:0:0:
164,10,182123,1,0,0:0:0:0:
164,10,182230,1,0,0:0:0:0:
164,10,182337,1,8,0:0:0:0:
164,10,182552,1,0,0:0:0:0:
164,10,182766,1,8,0:0:0:0:
160,0,182873,1,8,0:0:0:0:
164,10,182980,1,0,0:0:0:0:
164,10,183087,1,0,0:0:0:0:
164,10,183194,1,8,0:0:0:0:
164,10,183409,1,0,0:0:0:0:
164,10,183623,1,8,0:0:0:0:
164,10,183730,1,8,0:0:0:0:
164,10,183837,1,0,0:0:0:0:
164,10,184052,1,8,0:0:0:0:
164,10,184266,1,8,0:0:0:0:
175,3,184480,1,0,0:0:0:0:
164,10,184587,1,8,0:0:0:0:
160,0,184802,1,0,0:0:0:0:
164,10,184909,1,8,0:0:0:0:
164,10,185337,5,0,0:0:0:0:
172,3,185552,1,0,0:0:0:0:
172,3,185659,1,0,0:0:0:0:
164,10,185766,1,8,0:0:0:0:
168,23,185980,1,0,0:0:0:0:
164,10,186194,1,8,0:0:0:0:
168,23,186302,1,0,0:0:0:0:
168,23,186409,1,0,0:0:0:0:
164,10,186623,1,8,0:0:0:0:
168,23,186837,1,0,0:0:0:0:
192,0,186944,1,0,0:0:0:0:
164,10,187052,1,8,0:0:0:0:
167,23,187266,1,0,0:0:0:0:
164,10,187480,1,8,0:0:0:0:
161,0,187694,1,0,0:0:0:0:
160,0,187802,1,0,0:0:0:0:
164,10,187909,1,8,0:0:0:0:
161,0,188016,1,0,0:0:0:0:
161,0,188230,1,0,0:0:0:0:
164,10,188337,1,8,0:0:0:0:
164,10,188766,5,0,0:0:0:0:
161,0,188980,1,0,0:0:0:0:
159,28,189087,1,0,0:0:0:0:
164,10,189194,1,8,0:0:0:0:
159,23,189409,1,0,0:0:0:0:
160,0,189516,1,8,0:0:0:0:
164,10,189623,1,0,0:0:0:0:
159,22,189730,1,0,0:0:0:0:
159,22,189944,1,0,0:0:0:0:
164,10,190052,1,8,0:0:0:0:
156,23,190266,1,0,0:0:0:0:
156,23,190480,1,8,0:0:0:0:
156,23,190694,1,0,0:0:0:0:
156,23,190802,1,0,0:0:0:0:
156,23,190909,1,8,0:0:0:0:
160,64,191016,1,8,0:0:0:0:
160,32,191123,1,0,0:0:0:0:
135,73,191337,1,8,0:0:0:0:
135,73,191552,1,8,0:0:0:0:
135,73,191659,1,8,0:0:0:0:
135,73,191873,1,8,0:0:0:0:
135,73,191980,1,8,0:0:0:0:
135,73,192194,5,4,0:0:0:0:
148,36,192409,1,0,0:0:0:0:
148,36,192516,1,0,0:0:0:0:
148,36,192623,1,8,0:0:0:0:
146,19,192837,1,0,0:0:0:0:
164,10,193052,1,8,0:0:0:0:
164,10,193159,1,0,0:0:0:0:
164,10,193266,1,0,0:0:0:0:
160,32,193373,1,0,0:0:0:0:
164,10,193480,1,8,0:0:0:0:
164,10,193694,1,0,0:0:0:0:
164,10,193909,1,8,0:0:0:0:
164,10,194123,1,0,0:0:0:0:
164,10,194230,1,0,0:0:0:0:
164,10,194337,1,8,0:0:0:0:
164,10,194444,1,0,0:0:0:0:
164,10,194552,1,8,0:0:0:0:
164,10,194766,1,0,0:0:0:0:
164,10,194873,1,0,0:0:0:0:
192,0,195087,1,0,0:0:0:0:
164,10,195194,1,8,0:0:0:0:
164,10,195623,1,0,0:0:0:0:
164,10,195837,1,0,0:0:0:0:
164,10,195944,1,0,0:0:0:0:
164,10,196052,1,8,0:0:0:0:
164,10,196266,1,0,0:0:0:0:
164,10,196480,1,8,0:0:0:0:
164,10,196587,1,8,0:0:0:0:
164,10,196694,1,0,0:0:0:0:
192,0,196802,1,0,0:0:0:0:
164,10,196909,1,8,0:0:0:0:
164,10,197123,1,0,0:0:0:0:
164,10,197337,1,8,0:0:0:0:
164,10,197444,1,8,0:0:0:0:
164,10,197552,1,0,0:0:0:0:
164,10,197766,1,8,0:0:0:0:
164,10,197980,1,0,0:0:0:0:
175,3,198087,1,8,0:0:0:0:
164,10,198194,1,0,0:0:0:0:
164,10,198302,1,8,0:0:0:0:
160,0,198516,1,0,0:0:0:0:
164,10,198623,1,8,0:0:0:0:
164,10,199052,1,0,0:0:0:0:
172,3,199266,1,0,0:0:0:0:
172,3,199373,1,0,0:0:0:0:
164,10,199480,1,8,0:0:0:0:
168,23,199694,1,0,0:0:0:0:
164,10,199909,1,8,0:0:0:0:
160,32,200016,1,0,0:0:0:0:
168,23,200123,1,0,0:0:0:0:
192,0,200230,1,0,0:0:0:0:
164,10,200337,1,8,0:0:0:0:
168,23,200552,1,0,0:0:0:0:
168,23,200659,1,0,0:0:0:0:
164,10,200766,1,8,0:0:0:0:
168,23,200873,1,8,0:0:0:0:
167,23,200980,1,0,0:0:0:0:
164,10,201194,1,8,0:0:0:0:
161,0,201409,1,0,0:0:0:0:
161,0,201516,1,0,0:0:0:0:
164,10,201623,1,8,0:0:0:0:
161,0,201730,1,0,0:0:0:0:
161,0,201944,1,0,0:0:0:0:
164,10,202052,1,8,0:0:0:0:
160,0,202266,1,8,0:0:0:0:
160,32,202373,1,8,0:0:0:0:
164,10,202480,1,0,0:0:0:0:
161,0,202694,1,0,0:0:0:0:
159,28,202802,1,0,0:0:0:0:
164,10,202909,1,8,0:0:0:0:
159,23,203123,5,0,0:0:0:0:
160,32,203230,1,0,0:0:0:0:
164,10,203337,1,8,0:0:0:0:
159,22,203444,1,0,0:0:0:0:
159,22,203552,1,0,0:0:0:0:
159,22,203659,1,0,0:0:0:0:
164,10,203766,1,8,0:0:0:0:
156,23,203980,1,0,0:0:0:0:
156,23,204194,1,12,0:0:0:0:
140,63,205052,1,12,0:0:0:0:
140,63,205909,1,4,0:0:0:0:
140,63,206221,1,8,0:0:0:0:
140,63,206534,1,0,0:0:0:0:
140,63,206846,1,0,0:0:0:0:
140,63,207159,1,8,0:0:0:0:
140,63,207471,1,0,0:0:0:0:
140,63,207627,1,8,0:0:0:0:
140,63,207784,1,0,0:0:0:0:
140,63,208096,1,0,0:0:0:0:
140,63,208409,1,4,0:0:0:0:
189,39,208565,1,8,0:0:0:0:
189,39,208643,1,8,0:0:0:0:
189,39,208721,1,8,0:0:0:0:
189,39,208877,1,4,0:0:0:0:
189,39,209034,1,8,0:0:0:0:
189,39,209112,1,8,0:0:0:0:
189,39,209190,1,8,0:0:0:0:
189,39,209346,1,4,0:0:0:0:
177,37,209502,1,8,0:0:0:0:
177,37,209580,1,8,0:0:0:0:
177,37,209659,1,8,0:0:0:0:
177,37,209815,1,0,0:0:0:0:
170,21,209893,1,0,0:0:0:0:
177,37,209971,1,0,0:0:0:0:
177,37,210127,1,0,0:0:0:0:
177,37,210284,1,8,0:0:0:0:
177,37,210362,1,0,0:0:0:0:
177,37,210440,1,0,0:0:0:0:
177,37,210596,1,8,0:0:0:0:
177,37,210674,1,0,0:0:0:0:
177,37,210752,1,0,0:0:0:0:
177,37,210909,1,4,0:0:0:0:
170,57,211221,1,0,0:0:0:0:
170,57,211534,1,0,0:0:0:0:
170,57,211846,1,0,0:0:0:0:
170,57,212159,1,8,0:0:0:0:
170,57,212471,1,0,0:0:0:0:
170,57,212627,1,8,0:0:0:0:
170,57,212784,1,0,0:0:0:0:
170,57,213096,1,0,0:0:0:0:
170,57,213409,1,4,0:0:0:0:
170,57,213565,1,8,0:0:0:0:
170,57,213643,1,8,0:0:0:0:
170,57,213721,1,8,0:0:0:0:
170,57,213877,1,4,0:0:0:0:
170,57,214034,1,8,0:0:0:0:
174,13,214112,1,8,0:0:0:0:
170,57,214190,1,8,0:0:0:0:
170,57,214346,1,4,0:0:0:0:
170,57,214502,1,8,0:0:0:0:
170,57,214580,1,8,0:0:0:0:
170,57,214659,1,8,0:0:0:0:
170,57,214815,1,0,0:0:0:0:
174,13,214893,1,0,0:0:0:0:
170,57,214971,1,0,0:0:0:0:
170,57,215127,1,0,0:0:0:0:
170,57,215284,1,8,0:0:0:0:
170,57,215362,1,0,0:0:0:0:
170,57,215440,1,0,0:0:0:0:
160,64,215518,1,0,0:0:0:0:
170,57,215596,1,8,0:0:0:0:
170,57,215674,1,0,0:0:0:0:
128,32,215752,1,0,0:0:0:0:
192,32,215830,1,0,0:0:0:0:
169,17,215909,1,8,0:0:0:0:
169,17,216221,1,8,0:0:0:0:
160,32,216377,1,8,0:0:0:0:
160,32,216455,1,8,0:0:0:0:
169,17,216534,1,8,0:0:0:0:
169,53,216690,1,0,0:0:0:0:
169,53,216846,1,8,0:0:0:0:
169,53,217002,1,0,0:0:0:0:
169,53,217159,1,8,0:0:0:0:
162,25,217237,1,0,0:0:0:0:
169,53,217315,1,0,0:0:0:0:
169,53,217393,1,0,0:0:0:0:
169,53,217471,1,0,0:0:0:0:
169,53,217627,1,8,0:0:0:0:
169,53,217784,1,8,0:0:0:0:
169,53,217940,1,8,0:0:0:0:
169,53,218096,1,8,0:0:0:0:
169,53,218252,1,8,0:0:0:0:
169,53,218409,1,0,0:0:0:0:
173,37,218877,1,0,0:0:0:0:
173,37,219346,1,0,0:0:0:0:
173,37,219815,1,0,0:0:0:0:
149,82,219971,1,12,0:0:0:0:
150,59,220127,1,0,0:0:0:0:
149,82,220284,1,8,0:0:0:0:
149,82,220440,1,0,0:0:0:0:
192,32,220518,1,0,0:0:0:0:
149,82,220596,1,0,0:0:0:0:
192,32,220674,1,0,0:0:0:0:
160,32,220752,1,8,0:0:0:0:
160,32,220830,1,8,0:0:0:0:
149,82,220909,1,0,0:0:0:0:
135,115,221221,1,0,0:0:0:0:
135,115,221534,1,0,0:0:0:0:
145,24,221690,1,8,0:0:0:0:
135,115,221846,1,0,0:0:0:0:
145,24,222002,1,8,0:0:0:0:
135,115,222159,1,0,0:0:0:0:
135,115,222471,1,0,0:0:0:0:
135,115,222784,1,0,0:0:0:0:
135,115,222940,1,8,0:0:0:0:
135,115,223096,1,8,0:0:0:0:
145,24,223252,1,0,0:0:0:0:
145,18,223409,1,8,0:0:0:0:
135,115,223721,1,0,0:0:0:0:
135,115,224034,1,0,0:0:0:0:
135,115,224190,1,8,0:0:0:0:
135,115,224346,1,0,0:0:0:0:
160,32,224502,1,8,0:0:0:0:
145,18,224659,1,0,0:0:0:0:
135,115,224971,1,0,0:0:0:0:
135,115,225127,1,8,0:0:0:0:
135,115,225284,1,0,0:0:0:0:
135,115,225440,1,0,0:0:0:0:
135,115,225596,1,0,0:0:0:0:
135,115,225909,1,8,0:0:0:0:
135,115,226221,1,0,0:0:0:0:
133,122,226377,1,8,0:0:0:0:
133,122,226534,1,0,0:0:0:0:
133,122,226690,1,8,0:0:0:0:
157,30,226768,1,8,0:0:0:0:
157,30,226846,1,8,0:0:0:0:
160,32,227002,1,8,0:0:0:0:
133,122,227159,1,0,0:0:0:0:
133,122,227315,1,8,0:0:0:0:
133,122,227471,1,8,0:0:0:0:
133,122,227627,1,8,0:0:0:0:
133,122,227784,1,12,0:0:0:0:
133,122,227940,1,12,0:0:0:0:
133,122,228096,1,12,0:0:0:0:
133,122,228252,1,12,0:0:0:0:
224,128,229659,5,4,0:0:0:0:
320,160,229971,1,8,0:0:0:0:
256,128,230127,1,8,0:0:0:0:
256,128,230205,1,8,0:0:0:0:
256,128,230284,1,0,0:0:0:0:
256,128,230440,1,0,0:0:0:0:
247,109,230596,1,8,0:0:0:0:
224,96,230674,1,8,0:0:0:0:
224,128,230752,1,8,0:0:0:0:
256,128,230909,1,0,0:0:0:0:
224,96,231065,1,0,0:0:0:0:
256,128,231221,1,8,0:0:0:0:
204,132,231377,1,8,0:0:0:0:
256,128,231534,1,0,0:0:0:0:
224,128,231690,1,0,0:0:0:0:
201,120,231768,1,0,0:0:0:0:
256,128,231846,1,8,0:0:0:0:
201,120,232002,1,8,0:0:0:0:
256,128,232159,1,0,0:0:0:0:
256,128,232471,1,8,0:0:0:0:
256,128,232627,1,0,0:0:0:0:
256,128,232705,1,0,0:0:0:0:
256,128,232784,1,0,0:0:0:0:
256,128,232940,1,0,0:0:0:0:
256,128,233096,1,8,0:0:0:0:
231,92,233252,1,8,0:0:0:0:
256,128,233409,1,0,0:0:0:0:
231,92,233565,1,0,0:0:0:0:
231,92,233643,1,0,0:0:0:0:
256,128,233721,1,8,0:0:0:0:
231,92,233877,1,0,0:0:0:0:
231,92,233955,1,8,0:0:0:0:
256,128,234034,1,0,0:0:0:0:
256,128,234190,1,0,0:0:0:0:
256,128,234346,1,8,0:0:0:0:
205,140,234502,1,8,0:0:0:0:
256,128,234659,1,0,0:0:0:0:
256,128,234971,1,8,0:0:0:0:
256,128,235127,1,0,0:0:0:0:
256,128,235205,1,0,0:0:0:0:
256,128,235284,1,0,0:0:0:0:
256,128,235440,1,0,0:0:0:0:
256,128,235596,1,8,0:0:0:0:
228,88,235752,1,8,0:0:0:0:
228,88,235830,1,8,0:0:0:0:
256,128,235909,1,0,0:0:0:0:
228,88,236065,1,0,0:0:0:0:
256,128,236221,1,8,0:0:0:0:
228,88,236377,1,0,0:0:0:0:
228,88,236455,1,8,0:0:0:0:
256,128,236534,1,0,0:0:0:0:
256,128,236690,1,0,0:0:0:0:
256,128,236846,1,8,0:0:0:0:
256,128,237159,1,0,0:0:0:0:
181,13,237315,1,0,0:0:0:0:
256,128,237471,1,8,0:0:0:0:
256,128,237627,1,8,0:0:0:0:
256,128,237705,1,8,0:0:0:0:
256,128,237784,1,0,0:0:0:0:
256,128,237940,1,8,0:0:0:0:
256,128,238096,1,8,0:0:0:0:
222,80,238252,1,0,0:0:0:0:
192,32,238409,1,0,0:0:0:0:
256,128,238487,1,0,0:0:0:0:
256,128,238565,1,8,0:0:0:0:
192,32,238643,1,0,0:0:0:0:
256,128,238721,1,8,0:0:0:0:
256,128,238877,1,0,0:0:0:0:
256,128,238955,1,0,0:0:0:0:
256,128,239034,1,8,0:0:0:0:
256,128,239112,1,8,0:0:0:0:
256,128,239190,1,0,0:0:0:0:
170,4,239268,1,0,0:0:0:0:
256,128,239346,1,8,0:0:0:0:
256,128,239424,1,8,0:0:0:0:
256,128,239502,1,8,0:0:0:0:
256,128,239659,5,4,0:0:0:0:
256,128,239971,1,8,0:0:0:0:
256,128,240127,1,8,0:0:0:0:
256,128,240205,1,8,0:0:0:0:
256,128,240284,1,0,0:0:0:0:
256,128,240440,1,0,0:0:0:0:
256,128,240596,1,8,0:0:0:0:
224,128,240674,1,8,0:0:0:0:
192,96,240752,1,8,0:0:0:0:
224,128,240830,1,8,0:0:0:0:
256,128,240909,1,0,0:0:0:0:
224,96,241065,1,0,0:0:0:0:
256,128,241221,1,8,0:0:0:0:
224,96,241377,1,8,0:0:0:0:
192,32,241455,1,8,0:0:0:0:
256,128,241534,1,0,0:0:0:0:
256,128,241690,1,0,0:0:0:0:
256,96,241768,1,0,0:0:0:0:
256,128,241846,1,8,0:0:0:0:
248,77,242002,1,8,0:0:0:0:
256,128,242159,1,0,0:0:0:0:
256,128,242471,1,8,0:0:0:0:
256,128,242627,1,0,0:0:0:0:
256,128,242705,1,0,0:0:0:0:
256,128,242784,1,0,0:0:0:0:
256,128,242940,1,0,0:0:0:0:
256,128,243096,1,8,0:0:0:0:
192,32,243252,1,8,0:0:0:0:
256,128,243409,1,0,0:0:0:0:
224,96,243565,1,0,0:0:0:0:
224,64,243643,1,0,0:0:0:0:
256,128,243721,1,8,0:0:0:0:
248,80,243877,1,0,0:0:0:0:
256,96,243955,1,8,0:0:0:0:
256,128,244034,1,0,0:0:0:0:
256,128,244190,1,0,0:0:0:0:
256,128,244346,1,8,0:0:0:0:
248,75,244502,1,8,0:0:0:0:
256,128,244659,1,0,0:0:0:0:
256,128,244971,1,8,0:0:0:0:
256,128,245127,1,0,0:0:0:0:
256,128,245205,1,0,0:0:0:0:
256,128,245284,1,0,0:0:0:0:
256,128,245440,1,0,0:0:0:0:
256,128,245596,1,8,0:0:0:0:
224,96,245752,1,8,0:0:0:0:
224,96,245830,1,8,0:0:0:0:
256,128,245909,1,0,0:0:0:0:
224,96,246065,1,0,0:0:0:0:
256,128,246221,1,8,0:0:0:0:
249,82,246377,1,0,0:0:0:0:
249,82,246455,1,8,0:0:0:0:
256,128,246534,1,0,0:0:0:0:
256,128,246690,1,0,0:0:0:0:
256,128,246846,1,8,0:0:0:0:
256,128,247159,1,0,0:0:0:0:
192,32,247315,1,0,0:0:0:0:
256,128,247471,1,8,0:0:0:0:
224,64,247627,1,8,0:0:0:0:
224,96,247705,1,8,0:0:0:0:
256,128,247784,1,0,0:0:0:0:
256,128,247940,1,0,0:0:0:0:
192,32,248018,1,0,0:0:0:0:
256,128,248096,1,8,0:0:0:0:
248,80,248252,1,0,0:0:0:0:
256,128,248409,1,8,0:0:0:0:
256,128,248565,1,0,0:0:0:0:
256,128,248643,1,0,0:0:0:0:
256,128,248721,1,0,0:0:0:0:
256,128,248799,1,0,0:0:0:0:
256,128,248877,1,8,0:0:0:0:
256,128,249034,1,0,0:0:0:0:
256,128,249112,1,0,0:0:0:0:
256,128,249190,1,0,0:0:0:0:
256,128,249268,1,0,0:0:0:0:
256,128,249346,1,8,0:0:0:0:
256,128,249502,1,0,0:0:0:0:
224,96,249580,1,0,0:0:0:0:
256,128,249659,1,0,0:0:0:0:
224,192,249971,1,8,0:0:0:0:
224,192,250127,1,0,0:0:0:0:
224,192,250205,1,0,0:0:0:0:
224,192,250284,1,0,0:0:0:0:
224,192,250440,1,0,0:0:0:0:
224,192,250596,1,8,0:0:0:0:
224,192,250752,1,0,0:0:0:0:
224,192,251065,1,0,0:0:0:0:
224,192,251221,1,8,0:0:0:0:
224,192,251377,1,0,0:0:0:0:
224,192,251455,1,0,0:0:0:0:
224,192,251534,1,8,0:0:0:0:
224,192,251690,1,0,0:0:0:0:
224,192,251846,1,8,0:0:0:0:
224,192,252002,1,0,0:0:0:0:
224,192,252315,1,0,0:0:0:0:
224,192,252471,1,8,0:0:0:0:
224,192,252627,1,0,0:0:0:0:
224,192,252705,1,0,0:0:0:0:
224,192,252784,1,0,0:0:0:0:
224,192,252940,1,0,0:0:0:0:
224,192,253096,1,8,0:0:0:0:
224,192,253252,1,0,0:0:0:0:
224,192,253565,1,0,0:0:0:0:
224,192,253721,1,8,0:0:0:0:
205,153,253877,1,0,0:0:0:0:
224,192,254034,1,8,0:0:0:0:
193,133,254112,1,8,0:0:0:0:
224,192,254190,1,0,0:0:0:0:
156,13,254268,1,0,0:0:0:0:
224,192,254346,1,8,0:0:0:0:
224,192,254502,1,4,0:0:0:0:
224,192,254815,1,0,0:0:0:0:
224,192,254971,1,8,0:0:0:0:
224,192,255127,1,0,0:0:0:0:
224,192,255205,1,0,0:0:0:0:
224,192,255284,1,0,0:0:0:0:
224,192,255440,1,0,0:0:0:0:
224,192,255596,1,8,0:0:0:0:
224,192,255752,1,0,0:0:0:0:
224,192,256065,1,0,0:0:0:0:
224,192,256221,1,8,0:0:0:0:
224,192,256377,1,0,0:0:0:0:
224,192,256455,1,0,0:0:0:0:
224,192,256534,1,8,0:0:0:0:
224,192,256690,1,0,0:0:0:0:
224,192,256846,1,8,0:0:0:0:
224,192,257002,1,0,0:0:0:0:
224,192,257315,1,0,0:0:0:0:
224,192,257471,1,8,0:0:0:0:
224,192,257627,1,0,0:0:0:0:
224,192,257705,1,0,0:0:0:0:
224,192,257784,1,0,0:0:0:0:
224,192,257940,1,0,0:0:0:0:
224,192,258096,1,8,0:0:0:0:
224,192,258252,1,0,0:0:0:0:
224,192,258565,1,0,0:0:0:0:
224,192,258721,1,8,0:0:0:0:
205,142,258877,1,0,0:0:0:0:
224,192,259034,1,8,0:0:0:0:
224,192,259112,1,8,0:0:0:0:
224,192,259190,1,0,0:0:0:0:
192,113,259268,1,0,0:0:0:0:
224,192,259346,1,8,0:0:0:0:
224,192,259424,1,8,0:0:0:0:
224,192,259502,1,8,0:0:0:0:
224,192,259580,1,8,0:0:0:0:
224,192,259659,5,0,0:0:0:0:
161,17,260127,1,0,0:0:0:0:
161,17,260596,1,0,0:0:0:0:
161,17,260909,1,8,0:0:0:0:
161,17,261065,1,0,0:0:0:0:
161,17,261221,1,0,0:0:0:0:
161,17,261377,1,0,0:0:0:0:
161,17,261534,1,8,0:0:0:0:
161,17,261690,1,8,0:0:0:0:
161,17,261846,1,8,0:0:0:0:
161,17,262002,1,4,0:0:0:0:
256,192,262159,12,0,264502,0:0:0:0:
