osu file format v14

[General]
AudioFilename: audio.mp3
AudioLeadIn: 0
PreviewTime: 61353
Countdown: 0
SampleSet: Normal
StackLeniency: 0.7
Mode: 1
LetterboxInBreaks: 0
WidescreenStoryboard: 1

[Editor]
DistanceSpacing: 0.1
BeatDivisor: 2
GridSize: 32
TimelineZoom: 0.5999998

[Metadata]
Title:Habataki no Birthday (TV Size)
TitleUnicode:羽ばたきのバースデイ (TV Size)
Artist:Baby's breath
ArtistUnicode:Baby's breath
Creator:Joltzzz
Version:Kantan
Source:天使の3P!
Tags:anime japanese pop jpop j-pop op opening Tenshi no 3P! Angel's 3Piece! 五島潤 Jun Gotou 紅葉谷希美 Nozomi Momijidani 金城そら Sora Kaneshiro 大野柚布子 Yuko Ono 遠藤ゆりか Yurika Endo 古賀葵 Aoi Koga
BeatmapID:3814475
BeatmapSetID:1391695

[Difficulty]
HPDrainRate:8
CircleSize:2
OverallDifficulty:3
ApproachRate:10
SliderMultiplier:1.4
SliderTickRate:1

[Events]
//Background and Video events
0,0,"bg.jpg",0,55
//Break Periods
//Storyboard Layer 0 (Background)
//Storyboard Layer 1 (Fail)
//Storyboard Layer 2 (Pass)
//Storyboard Layer 3 (Foreground)
//Storyboard Layer 4 (Overlay)
//Storyboard Sound Samples

[TimingPoints]
1188,331.491712707182,4,1,0,50,1,0
6491,-100,4,1,0,60,0,0
12127,-100,4,1,0,65,0,0
14447,-100,4,1,0,75,0,0
25055,-100,4,1,0,60,0,0
35663,-100,4,1,0,70,0,0
51574,-100,4,1,0,60,0,0
56878,-100,4,1,0,75,0,0
62182,-100,4,1,0,85,0,1
86049,-100,4,1,0,70,0,0

[HitObjects]
256,192,1188,5,8,0:0:0:0:
256,192,2348,1,8,0:0:0:0:
256,192,3011,1,0,0:0:0:0:
256,192,3839,1,0,0:0:0:0:
256,192,4502,1,8,0:0:0:0:
256,192,5000,1,8,0:0:0:0:
256,192,6491,1,0,0:0:0:0:
256,192,7154,1,0,0:0:0:0:
256,192,7652,1,8,0:0:0:0:
256,192,8315,1,8,0:0:0:0:
256,192,9143,1,0,0:0:0:0:
256,192,9806,1,8,0:0:0:0:
256,192,10304,1,0,0:0:0:0:
256,192,11464,1,0,0:0:0:0:
256,192,12127,1,12,0:0:0:0:
256,192,12624,1,12,0:0:0:0:
256,192,13121,1,4,0:0:0:0:
256,192,14116,1,8,0:0:0:0:
256,192,14447,1,4,0:0:0:0:
256,192,15607,1,8,0:0:0:0:
256,192,16270,1,0,0:0:0:0:
256,192,16768,1,8,0:0:0:0:
256,192,17099,1,4,0:0:0:0:
256,192,18259,1,8,0:0:0:0:
256,192,18922,1,0,0:0:0:0:
256,192,19420,1,8,0:0:0:0:
256,192,19751,1,4,0:0:0:0:
256,192,20911,1,0,0:0:0:0:
256,192,21574,1,8,0:0:0:0:
256,192,22071,1,0,0:0:0:0:
256,192,22403,1,12,0:0:0:0:
256,192,22900,1,12,0:0:0:0:
256,192,23397,1,0,0:0:0:0:
256,192,23729,1,12,0:0:0:0:
256,192,24226,1,8,0:0:0:0:
256,192,25055,1,4,0:0:0:0:
256,192,26381,1,0,0:0:0:0:
256,192,27044,1,0,0:0:0:0:
256,192,27707,1,8,0:0:0:0:
256,192,28370,1,0,0:0:0:0:
256,192,29033,1,8,0:0:0:0:
256,192,30359,1,0,0:0:0:0:
256,192,31022,1,8,0:0:0:0:
256,192,31519,1,8,0:0:0:0:
256,192,32182,1,0,0:0:0:0:
256,192,33011,1,0,0:0:0:0:
256,192,33674,1,0,0:0:0:0:
256,192,35663,1,12,0:0:0:0:
256,192,36989,1,0,0:0:0:0:
256,192,37486,1,0,0:0:0:0:
256,192,37983,1,8,0:0:0:0:
256,192,38315,1,0,0:0:0:0:
256,192,38978,1,0,0:0:0:0:
256,192,39641,1,8,0:0:0:0:
256,192,40635,1,0,0:0:0:0:
256,192,40967,1,12,0:0:0:0:
256,192,41464,1,12,0:0:0:0:
256,192,42127,1,12,0:0:0:0:
256,192,42790,1,4,0:0:0:0:
256,192,43287,1,8,0:0:0:0:
256,192,43618,1,4,0:0:0:0:
256,192,44447,1,0,0:0:0:0:
256,192,44779,1,12,0:0:0:0:
256,192,45276,1,8,0:0:0:0:
256,192,45607,1,8,0:0:0:0:
256,192,46270,1,4,0:0:0:0:
256,192,46933,1,8,0:0:0:0:
256,192,47431,1,4,0:0:0:0:
256,192,47928,1,8,0:0:0:0:
256,192,48259,1,8,0:0:0:0:
256,192,48591,1,0,0:0:0:0:
256,192,48922,1,12,0:0:0:0:
256,192,49585,1,8,0:0:0:0:
256,192,50083,1,12,0:0:0:0:
256,192,50580,1,0,0:0:0:0:
256,192,50911,1,8,0:0:0:0:
256,192,51574,1,4,0:0:0:0:
256,192,52237,1,8,0:0:0:0:
256,192,52734,1,0,0:0:0:0:
256,192,53563,1,8,0:0:0:0:
256,192,54226,1,4,0:0:0:0:
256,192,55221,1,8,0:0:0:0:
256,192,55718,1,0,0:0:0:0:
256,192,56215,1,8,0:0:0:0:
256,192,56878,1,12,0:0:0:0:
256,192,57375,1,8,0:0:0:0:
256,192,57707,1,0,0:0:0:0:
256,192,58038,1,8,0:0:0:0:
256,192,58370,1,0,0:1:0:0:
256,192,59199,1,8,0:0:0:0:
256,192,59530,1,4,0:0:0:0:
256,192,60027,1,0,0:0:0:0:
256,192,60359,1,8,0:0:0:0:
256,192,60690,1,12,0:0:0:0:
256,192,61022,1,4,0:0:0:0:
256,192,62182,5,12,0:0:0:0:
256,192,62845,1,8,0:0:0:0:
256,192,63508,1,0,0:0:0:0:
256,192,63839,1,8,0:0:0:0:
256,192,64171,1,0,0:0:0:0:
256,192,64834,1,12,0:0:0:0:
256,192,65497,1,0,0:0:0:0:
256,192,65828,1,0,0:0:0:0:
256,192,66160,1,8,0:0:0:0:
256,192,66823,1,0,0:0:0:0:
256,192,67486,1,4,0:0:0:0:
256,192,68812,1,0,0:0:0:0:
256,192,69475,1,0,0:0:0:0:
256,192,69806,1,8,0:0:0:0:
256,192,70138,1,4,0:0:0:0:
256,192,70635,1,12,0:0:0:0:
256,192,71132,1,4,0:0:0:0:
256,192,71629,1,12,0:0:0:0:
256,192,72127,1,8,0:0:0:0:
256,192,72790,1,12,0:0:0:0:
256,192,74116,1,0,0:0:0:0:
256,192,74779,1,0,0:0:0:0:
256,192,75110,1,8,0:0:0:0:
256,192,75442,1,4,0:0:0:0:
256,192,76105,1,12,0:0:0:0:
256,192,76768,1,4,0:0:0:0:
256,192,77431,1,8,0:0:0:0:
256,192,77762,1,8,0:0:0:0:
256,192,78094,1,4,0:0:0:0:
256,192,79420,1,0,0:0:0:0:
256,192,80083,1,0,0:0:0:0:
256,192,80414,1,8,0:0:0:0:
256,192,80746,1,12,0:0:0:0:
256,192,81408,1,8,0:0:0:0:
256,192,82071,1,0,0:0:0:0:
256,192,82734,1,0,0:0:0:0:
256,192,83066,1,8,0:0:0:0:
256,192,83729,1,12,0:0:0:0:
256,192,84226,1,12,0:0:0:0:
256,192,84723,1,12,0:0:0:0:
256,192,85386,1,0,0:0:0:0:
256,192,86049,1,0,0:0:0:0:
256,192,86381,1,8,0:0:0:0:
256,192,86878,1,8,0:0:0:0:
256,192,87210,1,8,0:0:0:0:
256,192,87375,8,0,88701,0:0:0:0:
