osu file format v14

[General]
AudioFilename: audio.mp3
AudioLeadIn: 0
PreviewTime: 61353
Countdown: 0
SampleSet: Normal
StackLeniency: 0.7
Mode: 1
LetterboxInBreaks: 0
WidescreenStoryboard: 1

[Editor]
DistanceSpacing: 0.1
BeatDivisor: 6
GridSize: 32
TimelineZoom: 2.000001

[Metadata]
Title:Habataki no Birthday (TV Size)
TitleUnicode:羽ばたきのバースデイ (TV Size)
Artist:Baby's breath
ArtistUnicode:Baby's breath
Creator:Joltzzz
Version:Inner Oni
Source:天使の3P!
Tags:anime japanese pop jpop j-pop op opening Tenshi no 3P! Angel's 3Piece! 五島潤 Jun Gotou 紅葉谷希美 Nozomi Momijidani 金城そら Sora Kaneshiro 大野柚布子 Yuko Ono 遠藤ゆりか Yurika Endo 古賀葵 Aoi Koga
BeatmapID:3787354
BeatmapSetID:1391695

[Difficulty]
HPDrainRate:6
CircleSize:2
OverallDifficulty:6
ApproachRate:10
SliderMultiplier:1.4
SliderTickRate:1

[Events]
//Background and Video events
0,0,"bg.jpg",0,55
//Break Periods
//Storyboard Layer 0 (Background)
//Storyboard Layer 1 (Fail)
//Storyboard Layer 2 (Pass)
//Storyboard Layer 3 (Foreground)
//Storyboard Layer 4 (Overlay)
//Storyboard Sound Samples

[TimingPoints]
1188,331.491712707182,4,1,0,50,1,0
6326,-99.009900990099,4,1,0,50,0,0
6408,-97.0873786407767,4,1,0,50,0,0
6491,-95.2380952380952,4,1,0,60,0,0
11298,-93.4579439252336,4,1,0,60,0,0
11381,-91.743119266055,4,1,0,60,0,0
11464,-90.0900900900901,4,1,0,60,0,0
11547,-88.4955752212389,4,1,0,60,0,0
11629,-86.9565217391304,4,1,0,60,0,0
12127,-66.6666666666667,4,1,0,65,0,0
13950,-125,4,1,0,65,0,0
14447,-95.2380952380952,4,1,0,75,0,0
22403,-83.3333333333333,4,1,0,75,0,0
22569,-95.2380952380952,4,1,0,75,0,0
23729,-83.3333333333333,4,1,0,75,0,0
23895,-95.2380952380952,4,1,0,75,0,0
25055,-111.111111111111,4,1,0,60,0,0
34005,-109.89010989011,4,1,0,60,0,0
34171,-107.52688172043,4,1,0,60,0,0
34254,-106.382978723404,4,1,0,60,0,0
34337,-105.263157894737,4,1,0,60,0,0
34502,-83.3333333333333,4,1,0,60,0,0
34834,-76.9230769230769,4,1,0,60,0,0
35165,-71.4285714285714,4,1,0,60,0,0
35663,-100,4,1,0,70,0,0
40967,-90.9090909090909,4,1,0,70,0,0
41132,-100,4,1,0,70,0,0
41464,-90.9090909090909,4,1,0,70,0,0
41795,-100,4,1,0,70,0,0
42127,-90.9090909090909,4,1,0,70,0,0
42292,-100,4,1,0,70,0,0
42458,-100,4,1,0,70,0,0
42790,-90.9090909090909,4,1,0,70,0,0
43121,-100,4,1,0,70,0,0
43618,-95.2380952380952,4,1,0,70,0,0
44779,-93.4579439252336,4,1,0,70,0,0
45027,-96.1538461538461,4,1,0,70,0,0
45110,-99.009900990099,4,1,0,70,0,0
45276,-102.040816326531,4,1,0,70,0,0
45442,-105.263157894737,4,1,0,70,0,0
45607,-108.695652173913,4,1,0,70,0,0
45690,-112.359550561798,4,1,0,70,0,0
45773,-116.279069767442,4,1,0,70,0,0
45856,-120.481927710843,4,1,0,70,0,0
45939,-125,4,1,0,70,0,0
46270,-74.0740740740741,4,1,0,70,0,0
46768,-76.9230769230769,4,1,0,70,0,0
46850,-80,4,1,0,70,0,0
46933,-83.3333333333333,4,1,0,70,0,0
47099,-86.9565217391304,4,1,0,70,0,0
47265,-90.9090909090909,4,1,0,70,0,0
47431,-95.2380952380952,4,1,0,70,0,0
47762,-100,4,1,0,70,0,0
48922,-74.0740740740741,4,1,0,70,0,0
49420,-76.9230769230769,4,1,0,70,0,0
49475,-80,4,1,0,70,0,0
49530,-83.3333333333333,4,1,0,70,0,0
49585,-86.9565217391304,4,1,0,70,0,0
49751,-90.9090909090909,4,1,0,70,0,0
49917,-86.9565217391304,4,1,0,70,0,0
50083,-76.9230769230769,4,1,0,70,0,0
50414,-83.3333333333333,4,1,0,70,0,0
50580,-90.9090909090909,4,1,0,70,0,0
50746,-100,4,1,0,70,0,0
50911,-105.263157894737,4,1,0,70,0,0
51077,-111.111111111111,4,1,0,70,0,0
51243,-117.647058823529,4,1,0,70,0,0
51574,-125,4,1,0,60,0,0
54226,-111.111111111111,4,1,0,60,0,0
56878,-100,4,1,0,75,0,0
59696,-95.2380952380952,4,1,0,75,0,0
59862,-92.5925925925926,4,1,0,75,0,0
60027,-90.0900900900901,4,1,0,75,0,0
60193,-87.719298245614,4,1,0,75,0,0
60359,-85.4700854700855,4,1,0,75,0,0
60525,-83.3333333333333,4,1,0,75,0,0
60690,-80,4,1,0,75,0,0
61022,-76.9230769230769,4,1,0,75,0,0
62182,-86.9565217391304,4,1,0,85,0,1
70138,-71.4285714285714,4,1,0,85,0,1
70304,-72.463768115942,4,1,0,85,0,1
70386,-73.5294117647059,4,1,0,85,0,1
70469,-74.6268656716418,4,1,0,85,0,1
70635,-75.7575757575758,4,1,0,85,0,1
70801,-76.9230769230769,4,1,0,85,0,1
70884,-78.125,4,1,0,85,0,1
70967,-79.3650793650794,4,1,0,85,0,1
71132,-80.6451612903226,4,1,0,85,0,1
71298,-81.9672131147541,4,1,0,85,0,1
71381,-83.3333333333333,4,1,0,85,0,1
71464,-84.7457627118644,4,1,0,85,0,1
71629,-86.2068965517241,4,1,0,85,0,1
71795,-87.719298245614,4,1,0,85,0,1
71878,-89.2857142857143,4,1,0,85,0,1
71961,-90.9090909090909,4,1,0,85,0,1
72127,-89.2857142857143,4,1,0,85,0,1
72210,-87.719298245614,4,1,0,85,0,1
72292,-86.2068965517241,4,1,0,85,0,1
72375,-84.7457627118644,4,1,0,85,0,1
72458,-83.3333333333333,4,1,0,85,0,1
72541,-81.9672131147541,4,1,0,85,0,1
72624,-80.6451612903226,4,1,0,85,0,1
72707,-79.3650793650794,4,1,0,85,0,1
72790,-76.9230769230769,4,1,0,85,0,1
72955,-86.9565217391304,4,1,0,85,0,1
82734,-86.5051903114187,4,1,0,85,0,1
82817,-85.4700854700855,4,1,0,85,0,1
82900,-84.7457627118644,4,1,0,85,0,1
82983,-84.0336134453781,4,1,0,85,0,1
83066,-83.3333333333333,4,1,0,85,0,1
83149,-82.6446280991736,4,1,0,85,0,1
83232,-81.9672131147541,4,1,0,85,0,1
83315,-81.3008130081301,4,1,0,85,0,1
83397,-80,4,1,0,85,0,1
83729,-76.9230769230769,4,1,0,85,0,1
83895,-80,4,1,0,85,0,1
83978,-83.3333333333333,4,1,0,85,0,1
84060,-86.9565217391304,4,1,0,85,0,1
84226,-90.9090909090909,4,1,0,85,0,1
84392,-95.2380952380952,4,1,0,85,0,1
84475,-100,4,1,0,85,0,1
84558,-105.263157894737,4,1,0,85,0,1
84723,-111.111111111111,4,1,0,85,0,1
85221,-86.9565217391304,4,1,0,85,0,1
85386,-90.9090909090909,4,1,0,85,0,1
85552,-95.2380952380952,4,1,0,85,0,1
85718,-100,4,1,0,85,0,1
85801,-102.040816326531,4,1,0,85,0,1
85884,-104.166666666667,4,1,0,85,0,1
85967,-106.382978723404,4,1,0,85,0,1
86049,-111.111111111111,4,1,0,70,0,0

[HitObjects]
256,192,1188,5,8,0:0:0:0:
256,192,1353,1,0,0:0:0:0:
256,192,1519,1,8,0:0:0:0:
256,192,1685,1,8,0:0:0:0:
256,192,1850,1,8,0:0:0:0:
256,192,2016,1,0,0:0:0:0:
256,192,2182,1,0,0:0:0:0:
256,192,2348,1,8,0:0:0:0:
256,192,2845,1,8,0:0:0:0:
256,192,3011,1,0,0:0:0:0:
256,192,3342,1,0,0:0:0:0:
256,192,3508,1,8,0:0:0:0:
256,192,3839,1,0,0:0:0:0:
256,192,4337,1,0,0:0:0:0:
256,192,4502,1,8,0:0:0:0:
256,192,4834,1,0,0:0:0:0:
256,192,5000,1,8,0:0:0:0:
256,192,5165,1,0,0:0:0:0:
256,192,5497,1,0,0:0:0:0:
256,192,5663,1,0,0:0:0:0:
256,192,5828,1,8,0:0:0:0:
256,192,5994,1,0,0:0:0:0:
256,192,6160,1,8,0:0:0:0:
256,192,6326,1,8,0:0:0:0:
256,192,6408,1,8,0:0:0:0:
256,192,6491,1,0,0:0:0:0:
256,192,6823,1,0,0:0:0:0:
256,192,7154,1,0,0:0:0:0:
256,192,7320,1,8,0:0:0:0:
256,192,7486,1,0,0:0:0:0:
256,192,7652,1,8,0:0:0:0:
256,192,7817,1,0,0:0:0:0:
256,192,7983,1,0,0:0:0:0:
256,192,8066,1,0,0:0:0:0:
256,192,8149,1,8,0:0:0:0:
256,192,8315,1,8,0:0:0:0:
256,192,8480,1,0,0:0:0:0:
256,192,8646,1,0,0:0:0:0:
256,192,8729,1,0,0:0:0:0:
256,192,8812,1,8,0:0:0:0:
256,192,8978,1,8,0:0:0:0:
256,192,9143,1,0,0:0:0:0:
256,192,9475,1,0,0:0:0:0:
256,192,9641,1,0,0:0:0:0:
256,192,9806,1,8,0:0:0:0:
256,192,9889,1,8,0:0:0:0:
256,192,9972,1,0,0:0:0:0:
256,192,10138,1,8,0:0:0:0:
256,192,10304,1,8,0:0:0:0:
256,192,10469,1,0,0:0:0:0:
256,192,10635,1,0,0:0:0:0:
256,192,10801,1,8,0:0:0:0:
256,192,10884,1,0,0:0:0:0:
256,192,10967,1,8,0:0:0:0:
256,192,11132,1,0,0:0:0:0:
256,192,11298,1,0,0:0:0:0:
256,192,11381,1,0,0:0:0:0:
256,192,11464,1,8,0:0:0:0:
256,192,11629,1,8,0:0:0:0:
256,192,12127,1,12,0:0:0:0:
256,192,12624,1,12,0:0:0:0:
256,192,13121,1,4,0:0:0:0:
256,192,13950,1,0,0:0:0:0:
256,192,14033,1,0,0:0:0:0:
256,192,14116,1,8,0:0:0:0:
256,192,14447,1,4,0:0:0:0:
256,192,14613,1,0,0:0:0:0:
256,192,14696,1,0,0:0:0:0:
256,192,14779,1,8,0:0:0:0:
256,192,14944,1,8,0:0:0:0:
256,192,15110,1,0,0:0:0:0:
256,192,15193,1,0,0:0:0:0:
256,192,15276,1,8,0:0:0:0:
256,192,15359,1,8,0:0:0:0:
256,192,15442,1,0,0:0:0:0:
256,192,15607,1,8,0:0:0:0:
256,192,15773,1,0,0:0:0:0:
256,192,15856,1,0,0:0:0:0:
256,192,15939,1,8,0:0:0:0:
256,192,16105,1,0,0:0:0:0:
256,192,16270,1,8,0:0:0:0:
256,192,16353,1,8,0:0:0:0:
256,192,16436,1,0,0:0:0:0:
256,192,16519,1,0,0:0:0:0:
256,192,16602,1,8,0:0:0:0:
256,192,16768,1,8,0:0:0:0:
256,192,16933,1,8,0:0:0:0:
256,192,17016,1,8,0:0:0:0:
256,192,17099,1,4,0:0:0:0:
256,192,17431,1,8,0:0:0:0:
256,192,17596,1,0,0:0:0:0:
256,192,17679,1,8,0:0:0:0:
256,192,17762,1,0,0:0:0:0:
256,192,17928,1,0,0:0:0:0:
256,192,18011,1,0,0:0:0:0:
256,192,18094,1,8,0:0:0:0:
256,192,18176,1,0,0:0:0:0:
256,192,18259,1,8,0:0:0:0:
256,192,18425,1,0,0:0:0:0:
256,192,18591,1,0,0:0:0:0:
256,192,18674,1,0,0:0:0:0:
256,192,18757,1,8,0:0:0:0:
256,192,18922,1,8,0:0:0:0:
256,192,19005,1,8,0:0:0:0:
256,192,19088,1,0,0:0:0:0:
256,192,19254,1,0,0:0:0:0:
256,192,19337,1,0,0:0:0:0:
256,192,19420,1,8,0:0:0:0:
256,192,19502,1,0,0:0:0:0:
256,192,19585,1,8,0:0:0:0:
256,192,19668,1,8,0:0:0:0:
256,192,19751,1,4,0:0:0:0:
256,192,20083,1,8,0:0:0:0:
256,192,20248,1,8,0:0:0:0:
256,192,20331,1,8,0:0:0:0:
256,192,20414,1,0,0:0:0:0:
256,192,20580,1,0,0:0:0:0:
256,192,20663,1,0,0:0:0:0:
256,192,20746,1,8,0:0:0:0:
256,192,20911,1,8,0:0:0:0:
256,192,21077,1,0,0:0:0:0:
256,192,21243,1,0,0:0:0:0:
256,192,21326,1,0,0:0:0:0:
256,192,21408,1,8,0:0:0:0:
256,192,21574,1,8,0:0:0:0:
256,192,21740,1,0,0:0:0:0:
256,192,21823,1,8,0:0:0:0:
256,192,21906,1,0,0:0:0:0:
256,192,21989,1,0,0:0:0:0:
256,192,22071,1,8,0:0:0:0:
256,192,22237,1,0,0:0:0:0:
256,192,22403,1,12,0:0:0:0:
256,192,22569,1,0,0:0:0:0:
256,192,22652,1,0,0:0:0:0:
256,192,22734,1,0,0:0:0:0:
256,192,22900,1,12,0:0:0:0:
256,192,23232,1,0,0:0:0:0:
256,192,23315,1,0,0:0:0:0:
256,192,23397,1,8,0:0:0:0:
256,192,23563,1,0,0:0:0:0:
256,192,23729,1,12,0:0:0:0:
256,192,23895,1,0,0:0:0:0:
256,192,23978,1,0,0:0:0:0:
256,192,24060,1,0,0:0:0:0:
256,192,24226,1,8,0:0:0:0:
256,192,24558,1,8,0:0:0:0:
256,192,24723,1,8,0:0:0:0:
256,192,25055,1,4,0:0:0:0:
256,192,25386,1,0,0:0:0:0:
256,192,25552,1,8,0:0:0:0:
256,192,25718,1,0,0:0:0:0:
256,192,26049,1,0,0:0:0:0:
256,192,26381,1,0,0:0:0:0:
256,192,26712,1,0,0:0:0:0:
256,192,27044,1,0,0:0:0:0:
256,192,27210,1,8,0:0:0:0:
256,192,27375,1,0,0:0:0:0:
256,192,27541,1,8,0:0:0:0:
256,192,27707,1,8,0:0:0:0:
256,192,28038,1,0,0:0:0:0:
256,192,28204,1,8,0:0:0:0:
256,192,28370,1,0,0:0:0:0:
256,192,28701,1,0,0:0:0:0:
256,192,28867,1,8,0:0:0:0:
256,192,29033,1,8,0:0:0:0:
256,192,29364,1,0,0:0:0:0:
256,192,29696,1,0,0:0:0:0:
256,192,30027,1,0,0:0:0:0:
256,192,30193,1,8,0:0:0:0:
256,192,30359,1,0,0:0:0:0:
256,192,30690,1,8,0:0:0:0:
256,192,30856,1,0,0:0:0:0:
256,192,31022,1,8,0:0:0:0:
256,192,31353,1,8,0:0:0:0:
256,192,31519,1,8,0:0:0:0:
256,192,31685,1,0,0:0:0:0:
256,192,32016,1,8,0:0:0:0:
256,192,32182,1,0,0:0:0:0:
256,192,32348,1,0,0:0:0:0:
256,192,32513,1,8,0:0:0:0:
256,192,32679,1,0,0:0:0:0:
256,192,32845,1,8,0:0:0:0:
256,192,33011,1,0,0:0:0:0:
256,192,33342,1,0,0:0:0:0:
256,192,33508,1,8,0:0:0:0:
256,192,33674,1,0,0:0:0:0:
256,192,34005,1,0,0:0:0:0:
256,192,34171,1,0,0:0:0:0:
256,192,34254,1,0,0:0:0:0:
256,192,34337,1,8,0:0:0:0:
256,192,34502,1,12,0:0:0:0:
256,192,34834,1,4,0:0:0:0:
256,192,35165,1,4,0:0:0:0:
256,192,35663,1,12,0:0:0:0:
256,192,35994,1,8,0:0:0:0:
256,192,36160,1,0,0:0:0:0:
256,192,36243,1,0,0:0:0:0:
256,192,36326,1,0,0:0:0:0:
256,192,36491,1,0,0:0:0:0:
256,192,36657,1,8,0:0:0:0:
256,192,36823,1,0,0:0:0:0:
256,192,36906,1,8,0:0:0:0:
256,192,36989,1,0,0:0:0:0:
256,192,37154,1,0,0:0:0:0:
256,192,37237,1,0,0:0:0:0:
256,192,37320,1,8,0:0:0:0:
256,192,37486,1,0,0:0:0:0:
256,192,37817,1,0,0:0:0:0:
256,192,37900,1,0,0:0:0:0:
256,192,37983,1,8,0:0:0:0:
256,192,38149,1,8,0:0:0:0:
256,192,38315,1,0,0:0:0:0:
256,192,38480,1,0,0:0:0:0:
256,192,38646,1,8,0:0:0:0:
256,192,38812,1,8,0:0:0:0:
256,192,38895,1,8,0:0:0:0:
256,192,38978,1,0,0:0:0:0:
256,192,39143,1,0,0:0:0:0:
256,192,39309,1,8,0:0:0:0:
256,192,39475,1,0,0:0:0:0:
256,192,39558,1,8,0:0:0:0:
256,192,39641,1,0,0:0:0:0:
256,192,39806,1,0,0:0:0:0:
256,192,39972,1,8,0:0:0:0:
256,192,40138,1,0,0:0:0:0:
256,192,40469,1,0,0:0:0:0:
256,192,40635,1,8,0:0:0:0:
256,192,40718,1,8,0:0:0:0:
256,192,40801,1,0,0:0:0:0:
256,192,40967,1,12,0:0:0:0:
256,192,41132,1,0,0:0:0:0:
256,192,41215,1,0,0:0:0:0:
256,192,41298,1,0,0:0:0:0:
256,192,41464,1,12,0:0:0:0:
256,192,41795,1,0,0:0:0:0:
256,192,41961,1,0,0:0:0:0:
256,192,42044,1,0,0:0:0:0:
256,192,42127,1,12,0:0:0:0:
256,192,42458,1,0,0:0:0:0:
256,192,42624,1,8,0:0:0:0:
256,192,42790,1,4,0:0:0:0:
256,192,43121,1,0,0:0:0:0:
256,192,43204,1,0,0:0:0:0:
256,192,43287,1,8,0:0:0:0:
256,192,43618,1,4,0:0:0:0:
256,192,43784,1,8,0:0:0:0:
256,192,43867,1,0,0:0:0:0:
256,192,43950,1,8,0:0:0:0:
256,192,44116,1,8,0:0:0:0:
256,192,44199,1,8,0:0:0:0:
256,192,44281,1,0,0:0:0:0:
256,192,44447,1,0,0:0:0:0:
256,192,44613,1,0,0:0:0:0:
256,192,44779,1,12,0:0:0:0:
256,192,45027,1,0,0:0:0:0:
256,192,45110,1,8,0:0:0:0:
256,192,45276,1,8,0:0:0:0:
256,192,45442,1,8,0:0:0:0:
256,192,45607,1,8,0:0:0:0:
256,192,45690,1,0,0:0:0:0:
256,192,45773,1,0,0:0:0:0:
256,192,45856,1,0,0:0:0:0:
256,192,45939,1,8,0:0:0:0:
256,192,46270,1,4,0:0:0:0:
256,192,46436,1,4,0:0:0:0:
256,192,46768,1,0,0:0:0:0:
256,192,46850,1,0,0:0:0:0:
256,192,46933,1,8,0:0:0:0:
256,192,47099,1,0,0:0:0:0:
256,192,47265,1,8,0:0:0:0:
256,192,47431,1,4,0:0:0:0:
256,192,47762,1,8,0:0:0:0:
256,192,47928,1,8,0:0:0:0:
256,192,48094,1,0,0:0:0:0:
256,192,48259,1,8,0:0:0:0:
256,192,48342,1,0,0:0:0:0:
256,192,48425,1,0,0:0:0:0:
256,192,48508,1,0,0:0:0:0:
256,192,48591,1,8,0:0:0:0:
256,192,48757,1,0,0:0:0:0:
256,192,48922,1,12,0:0:0:0:
256,192,49088,1,12,0:0:0:0:
256,192,49420,1,0,0:0:0:0:
256,192,49475,1,0,0:0:0:0:
256,192,49530,1,0,0:0:0:0:
256,192,49585,1,8,0:0:0:0:
256,192,49751,1,0,0:0:0:0:
256,192,49917,1,0,0:0:0:0:
256,192,50083,1,12,0:0:0:0:
256,192,50414,1,8,0:0:0:0:
256,192,50580,1,0,0:0:0:0:
256,192,50746,1,8,0:0:0:0:
256,192,50911,1,8,0:0:0:0:
256,192,51077,1,0,0:0:0:0:
256,192,51243,1,8,0:0:0:0:
256,192,51574,1,4,0:0:0:0:
256,192,51906,1,0,0:0:0:0:
256,192,52071,1,0,0:0:0:0:
256,192,52237,1,8,0:0:0:0:
256,192,52403,1,0,0:0:0:0:
256,192,52569,1,8,0:0:0:0:
256,192,52734,1,8,0:0:0:0:
256,192,53066,1,0,0:0:0:0:
256,192,53232,1,0,0:0:0:0:
256,192,53563,1,8,0:0:0:0:
256,192,53729,1,0,0:0:0:0:
256,192,53895,1,8,0:0:0:0:
256,192,54226,1,4,0:0:0:0:
256,192,54392,1,8,0:0:0:0:
256,192,54475,1,8,0:0:0:0:
256,192,54558,1,0,0:0:0:0:
256,192,54723,1,8,0:0:0:0:
256,192,54889,1,0,0:0:0:0:
256,192,55055,1,0,0:0:0:0:
256,192,55221,1,8,0:0:0:0:
256,192,55386,1,8,0:0:0:0:
256,192,55469,1,8,0:0:0:0:
256,192,55552,1,0,0:0:0:0:
256,192,55718,1,8,0:0:0:0:
256,192,55884,1,0,0:0:0:0:
256,192,56049,1,0,0:0:0:0:
256,192,56215,1,8,0:0:0:0:
256,192,56381,1,0,0:0:0:0:
256,192,56464,1,0,0:0:0:0:
256,192,56547,1,8,0:0:0:0:
256,192,56878,1,12,0:0:0:0:
256,192,57044,1,0,0:0:0:0:
256,192,57127,1,0,0:0:0:0:
256,192,57210,1,0,0:0:0:0:
256,192,57292,1,0,0:0:0:0:
256,192,57375,1,8,0:0:0:0:
256,192,57541,1,0,0:0:0:0:
256,192,57707,1,8,0:0:0:0:
256,192,57790,1,8,0:0:0:0:
256,192,57873,1,0,0:0:0:0:
256,192,58038,1,8,0:0:0:0:
256,192,58204,1,0,0:0:0:0:
256,192,58287,1,0,0:0:0:0:
256,192,58370,1,8,0:0:0:0:
256,192,58453,1,8,0:0:0:0:
256,192,58536,1,0,0:0:0:0:
256,192,58701,1,0,0:0:0:0:
256,192,58784,1,0,0:0:0:0:
256,192,58867,1,8,0:0:0:0:
256,192,59033,1,0,0:0:0:0:
256,192,59199,1,8,0:0:0:0:
256,192,59281,1,8,0:0:0:0:
256,192,59364,1,0,0:0:0:0:
256,192,59447,1,0,0:0:0:0:
256,192,59530,1,12,0:0:0:0:
256,192,59696,1,8,0:0:0:0:
256,192,59862,1,8,0:0:0:0:
256,192,60027,1,0,0:0:0:0:
256,192,60193,1,8,0:0:0:0:
256,192,60359,1,8,0:0:0:0:
256,192,60525,1,0,0:0:0:0:
256,192,60690,1,12,0:0:0:0:
256,192,61022,1,4,0:0:0:0:
256,192,62182,5,12,0:0:0:0:
256,192,62348,1,0,0:0:0:0:
256,192,62431,1,0,0:0:0:0:
256,192,62513,1,8,0:0:0:0:
256,192,62679,1,0,0:0:0:0:
256,192,62845,1,8,0:0:0:0:
256,192,63011,1,0,0:0:0:0:
256,192,63094,1,0,0:0:0:0:
256,192,63176,1,8,0:0:0:0:
256,192,63259,1,0,0:0:0:0:
256,192,63342,1,8,0:0:0:0:
256,192,63508,1,0,0:0:0:0:
256,192,63674,1,0,0:0:0:0:
256,192,63839,1,8,0:0:0:0:
256,192,63922,1,0,0:0:0:0:
256,192,64005,1,8,0:0:0:0:
256,192,64088,1,8,0:0:0:0:
256,192,64171,1,0,0:0:0:0:
256,192,64337,1,8,0:0:0:0:
256,192,64502,1,0,0:0:0:0:
256,192,64585,1,8,0:0:0:0:
256,192,64668,1,0,0:0:0:0:
256,192,64751,1,0,0:0:0:0:
256,192,64834,1,12,0:0:0:0:
256,192,65000,1,0,0:0:0:0:
256,192,65083,1,8,0:0:0:0:
256,192,65165,1,0,0:0:0:0:
256,192,65331,1,8,0:0:0:0:
256,192,65414,1,0,0:0:0:0:
256,192,65497,1,0,0:0:0:0:
256,192,65580,1,0,0:0:0:0:
256,192,65663,1,8,0:0:0:0:
256,192,65828,1,0,0:0:0:0:
256,192,65994,1,8,0:0:0:0:
256,192,66077,1,8,0:0:0:0:
256,192,66160,1,8,0:0:0:0:
256,192,66243,1,8,0:0:0:0:
256,192,66326,1,0,0:0:0:0:
256,192,66491,1,0,0:0:0:0:
256,192,66574,1,0,0:0:0:0:
256,192,66657,1,8,0:0:0:0:
256,192,66740,1,8,0:0:0:0:
256,192,66823,1,0,0:0:0:0:
256,192,66989,1,0,0:0:0:0:
256,192,67154,1,8,0:0:0:0:
256,192,67237,1,0,0:0:0:0:
256,192,67320,1,8,0:0:0:0:
256,192,67403,1,8,0:0:0:0:
256,192,67486,1,4,0:0:0:0:
256,192,67817,1,8,0:0:0:0:
256,192,67983,1,8,0:0:0:0:
256,192,68066,1,8,0:0:0:0:
256,192,68149,1,0,0:0:0:0:
256,192,68315,1,8,0:0:0:0:
256,192,68397,1,0,0:0:0:0:
256,192,68480,1,0,0:0:0:0:
256,192,68563,1,0,0:0:0:0:
256,192,68646,1,8,0:0:0:0:
256,192,68812,1,0,0:0:0:0:
256,192,68978,1,8,0:0:0:0:
256,192,69060,1,8,0:0:0:0:
256,192,69143,1,0,0:0:0:0:
256,192,69226,1,0,0:0:0:0:
256,192,69309,1,8,0:0:0:0:
256,192,69475,1,0,0:0:0:0:
256,192,69641,1,0,0:0:0:0:
256,192,69806,1,8,0:0:0:0:
256,192,69889,1,0,0:0:0:0:
256,192,69972,1,8,0:0:0:0:
256,192,70055,1,8,0:0:0:0:
256,192,70138,1,4,0:0:0:0:
256,192,70304,1,8,0:0:0:0:
256,192,70386,1,8,0:0:0:0:
256,192,70469,1,0,0:0:0:0:
256,192,70635,1,12,0:0:0:0:
256,192,70801,1,0,0:0:0:0:
256,192,70884,1,0,0:0:0:0:
256,192,70967,1,8,0:0:0:0:
256,192,71132,1,4,0:0:0:0:
256,192,71298,1,8,0:0:0:0:
256,192,71381,1,0,0:0:0:0:
256,192,71464,1,8,0:0:0:0:
256,192,71629,1,4,0:0:0:0:
256,192,71795,1,8,0:0:0:0:
256,192,71878,1,8,0:0:0:0:
256,192,71961,1,0,0:0:0:0:
256,192,72127,1,0,0:0:0:0:
256,192,72210,1,0,0:0:0:0:
256,192,72292,1,8,0:0:0:0:
256,192,72375,1,8,0:0:0:0:
256,192,72458,1,8,0:0:0:0:
256,192,72541,1,0,0:0:0:0:
256,192,72624,1,8,0:0:0:0:
256,192,72707,1,8,0:0:0:0:
256,192,72790,1,4,0:0:0:0:
256,192,72955,1,8,0:0:0:0:
256,192,73038,1,0,0:0:0:0:
256,192,73121,1,8,0:0:0:0:
256,192,73287,1,0,0:0:0:0:
256,192,73453,1,8,0:0:0:0:
256,192,73536,1,0,0:0:0:0:
256,192,73618,1,8,0:0:0:0:
256,192,73701,1,8,0:0:0:0:
256,192,73784,1,0,0:0:0:0:
256,192,73950,1,8,0:0:0:0:
256,192,74116,1,0,0:0:0:0:
256,192,74281,1,0,0:0:0:0:
256,192,74364,1,0,0:0:0:0:
256,192,74447,1,8,0:0:0:0:
256,192,74530,1,0,0:0:0:0:
256,192,74613,1,8,0:0:0:0:
256,192,74779,1,0,0:0:0:0:
256,192,74944,1,0,0:0:0:0:
256,192,75110,1,8,0:0:0:0:
256,192,75193,1,8,0:0:0:0:
256,192,75276,1,8,0:0:0:0:
256,192,75359,1,8,0:0:0:0:
256,192,75442,1,4,0:0:0:0:
256,192,75607,1,0,0:0:0:0:
256,192,75773,1,8,0:0:0:0:
256,192,75856,1,8,0:0:0:0:
256,192,75939,1,0,0:0:0:0:
256,192,76022,1,8,0:0:0:0:
256,192,76105,1,4,0:0:0:0:
256,192,76270,1,0,0:0:0:0:
256,192,76436,1,8,0:0:0:0:
256,192,76519,1,0,0:0:0:0:
256,192,76602,1,8,0:0:0:0:
256,192,76685,1,8,0:0:0:0:
256,192,76768,1,4,0:0:0:0:
256,192,76933,1,0,0:0:0:0:
256,192,77016,1,0,0:0:0:0:
256,192,77099,1,8,0:0:0:0:
256,192,77265,1,0,0:0:0:0:
256,192,77431,1,8,0:0:0:0:
256,192,77513,1,8,0:0:0:0:
256,192,77596,1,0,0:0:0:0:
256,192,77679,1,0,0:0:0:0:
256,192,77762,1,8,0:0:0:0:
256,192,77928,1,8,0:0:0:0:
256,192,78011,1,8,0:0:0:0:
256,192,78094,1,4,0:0:0:0:
256,192,78425,1,8,0:0:0:0:
256,192,78591,1,0,0:0:0:0:
256,192,78757,1,8,0:0:0:0:
256,192,78839,1,8,0:0:0:0:
256,192,78922,1,0,0:0:0:0:
256,192,79005,1,0,0:0:0:0:
256,192,79088,1,8,0:0:0:0:
256,192,79254,1,8,0:0:0:0:
256,192,79420,1,0,0:0:0:0:
256,192,79585,1,0,0:0:0:0:
256,192,79668,1,0,0:0:0:0:
256,192,79751,1,8,0:0:0:0:
256,192,79834,1,0,0:0:0:0:
256,192,79917,1,8,0:0:0:0:
256,192,80083,1,0,0:0:0:0:
256,192,80248,1,0,0:0:0:0:
256,192,80414,1,8,0:0:0:0:
256,192,80497,1,8,0:0:0:0:
256,192,80580,1,0,0:0:0:0:
256,192,80663,1,0,0:0:0:0:
256,192,80746,1,12,0:0:0:0:
256,192,81077,1,8,0:0:0:0:
256,192,81243,1,0,0:0:0:0:
256,192,81408,1,8,0:0:0:0:
256,192,81491,1,0,0:0:0:0:
256,192,81574,1,0,0:0:0:0:
256,192,81657,1,0,0:0:0:0:
256,192,81740,1,8,0:0:0:0:
256,192,81906,1,8,0:0:0:0:
256,192,82071,1,0,0:0:0:0:
256,192,82154,1,0,0:0:0:0:
256,192,82237,1,8,0:0:0:0:
256,192,82320,1,0,0:0:0:0:
256,192,82403,1,8,0:0:0:0:
256,192,82569,1,8,0:0:0:0:
256,192,82734,1,0,0:0:0:0:
256,192,82817,1,0,0:0:0:0:
256,192,82900,1,8,0:0:0:0:
256,192,82983,1,8,0:0:0:0:
256,192,83066,1,0,0:0:0:0:
256,192,83149,1,8,0:0:0:0:
256,192,83232,1,8,0:0:0:0:
256,192,83315,1,8,0:0:0:0:
256,192,83397,1,0,0:0:0:0:
256,192,83729,1,12,0:0:0:0:
256,192,83895,1,0,0:0:0:0:
256,192,83978,1,0,0:0:0:0:
256,192,84060,1,0,0:0:0:0:
256,192,84226,1,12,0:0:0:0:
256,192,84392,1,0,0:0:0:0:
256,192,84475,1,0,0:0:0:0:
256,192,84558,1,0,0:0:0:0:
256,192,84723,1,12,0:0:0:0:
256,192,85221,1,0,0:0:0:0:
256,192,85386,1,0,0:0:0:0:
256,192,85552,1,0,0:0:0:0:
256,192,85718,1,0,0:0:0:0:
256,192,85801,1,0,0:0:0:0:
256,192,85884,1,8,0:0:0:0:
256,192,85967,1,8,0:0:0:0:
256,192,86049,1,0,0:0:0:0:
256,192,86215,1,0,0:0:0:0:
256,192,86381,1,8,0:0:0:0:
256,192,86547,1,0,0:0:0:0:
256,192,86712,1,0,0:0:0:0:
256,192,86878,1,8,0:0:0:0:
256,192,87044,1,0,0:0:0:0:
256,192,87210,1,8,0:0:0:0:
256,192,87375,8,0,88701,0:0:0:0:
