osu file format v14

[General]
AudioFilename: audio.mp3
AudioLeadIn: 0
PreviewTime: 61353
Countdown: 0
SampleSet: Normal
StackLeniency: 0.7
Mode: 1
LetterboxInBreaks: 0
WidescreenStoryboard: 1

[Editor]
DistanceSpacing: 0.2
BeatDivisor: 2
GridSize: 32
TimelineZoom: 1.6

[Metadata]
Title:Habataki no Birthday (TV Size)
TitleUnicode:羽ばたきのバースデイ (TV Size)
Artist:Baby's breath
ArtistUnicode:Baby's breath
Creator:Joltzzz
Version:Futsuu
Source:天使の3P!
Tags:anime japanese pop jpop j-pop op opening Tenshi no 3P! Angel's 3Piece! 五島潤 Jun Gotou 紅葉谷希美 Nozomi Momijidani 金城そら Sora Kaneshiro 大野柚布子 Yuko Ono 遠藤ゆりか Yurika Endo 古賀葵 Aoi Koga
BeatmapID:3814472
BeatmapSetID:1391695

[Difficulty]
HPDrainRate:7
CircleSize:2
OverallDifficulty:4
ApproachRate:10
SliderMultiplier:1.4
SliderTickRate:1

[Events]
//Background and Video events
0,0,"bg.jpg",0,55
//Break Periods
//Storyboard Layer 0 (Background)
//Storyboard Layer 1 (Fail)
//Storyboard Layer 2 (Pass)
//Storyboard Layer 3 (Foreground)
//Storyboard Layer 4 (Overlay)
//Storyboard Sound Samples

[TimingPoints]
1188,331.491712707182,4,1,0,50,1,0
6491,-100,4,1,0,60,0,0
12127,-100,4,1,0,65,0,0
14447,-100,4,1,0,75,0,0
25055,-100,4,1,0,60,0,0
35663,-100,4,1,0,70,0,0
51574,-100,4,1,0,60,0,0
56878,-100,4,1,0,75,0,0
62182,-100,4,1,0,85,0,1
86049,-100,4,1,0,70,0,0

[HitObjects]
256,192,1188,5,8,0:0:0:0:
256,192,1850,1,8,0:0:0:0:
256,192,2182,1,0,0:0:0:0:
256,192,2348,1,8,0:0:0:0:
256,192,2845,1,8,0:0:0:0:
256,192,3011,1,0,0:0:0:0:
256,192,3508,1,8,0:0:0:0:
256,192,3839,1,0,0:0:0:0:
256,192,4502,1,8,0:0:0:0:
256,192,5000,1,8,0:0:0:0:
256,192,5165,1,0,0:0:0:0:
256,192,5497,1,0,0:0:0:0:
256,192,5828,1,8,0:0:0:0:
256,192,6160,1,8,0:0:0:0:
256,192,6326,1,8,0:0:0:0:
256,192,6491,1,0,0:0:0:0:
256,192,7154,1,0,0:0:0:0:
256,192,7486,1,0,0:0:0:0:
256,192,7652,1,8,0:0:0:0:
256,192,8149,1,8,0:0:0:0:
256,192,8315,1,8,0:0:0:0:
256,192,8812,1,8,0:0:0:0:
256,192,9143,1,0,0:0:0:0:
256,192,9806,1,8,0:0:0:0:
256,192,10138,1,8,0:0:0:0:
256,192,10304,1,0,0:0:0:0:
256,192,10801,1,8,0:0:0:0:
256,192,10967,1,8,0:0:0:0:
256,192,11298,1,0,0:0:0:0:
256,192,11464,1,8,0:0:0:0:
256,192,11629,1,8,0:0:0:0:
256,192,12127,1,12,0:0:0:0:
256,192,12624,1,12,0:0:0:0:
256,192,13121,1,4,0:0:0:0:
256,192,13950,1,0,0:0:0:0:
256,192,14116,1,8,0:0:0:0:
256,192,14447,1,4,0:0:0:0:
256,192,15110,1,0,0:0:0:0:
256,192,15442,1,8,0:0:0:0:
256,192,15607,1,0,0:0:0:0:
256,192,15773,1,8,0:0:0:0:
256,192,16105,1,8,0:0:0:0:
256,192,16270,1,0,0:0:0:0:
256,192,16602,1,0,0:0:0:0:
256,192,16768,1,8,0:0:0:0:
256,192,17099,1,4,0:0:0:0:
256,192,17762,1,8,0:0:0:0:
256,192,18094,1,8,0:0:0:0:
256,192,18259,1,8,0:0:0:0:
256,192,18425,1,0,0:0:0:0:
256,192,18757,1,8,0:0:0:0:
256,192,18922,1,8,0:0:0:0:
256,192,19254,1,0,0:0:0:0:
256,192,19420,1,8,0:0:0:0:
256,192,19751,1,4,0:0:0:0:
256,192,20414,1,0,0:0:0:0:
256,192,20746,1,8,0:0:0:0:
256,192,20911,1,8,0:0:0:0:
256,192,21077,1,0,0:0:0:0:
256,192,21408,1,8,0:0:0:0:
256,192,21740,1,0,0:0:0:0:
256,192,21906,1,0,0:0:0:0:
256,192,22071,1,8,0:0:0:0:
256,192,22403,1,12,0:0:0:0:
256,192,22734,1,0,0:0:0:0:
256,192,22900,1,12,0:0:0:0:
256,192,23397,1,8,0:0:0:0:
256,192,23729,1,12,0:0:0:0:
256,192,24060,1,0,0:0:0:0:
256,192,24226,1,8,0:0:0:0:
256,192,24558,1,8,0:0:0:0:
256,192,24723,1,8,0:0:0:0:
256,192,25055,1,4,0:0:0:0:
256,192,25718,1,0,0:0:0:0:
256,192,26049,1,0,0:0:0:0:
256,192,26381,1,0,0:0:0:0:
256,192,27044,1,0,0:0:0:0:
256,192,27375,1,0,0:0:0:0:
256,192,27707,1,8,0:0:0:0:
256,192,28204,1,8,0:0:0:0:
256,192,28370,1,0,0:0:0:0:
256,192,28867,1,8,0:0:0:0:
256,192,29033,1,8,0:0:0:0:
256,192,29696,1,0,0:0:0:0:
256,192,30027,1,0,0:0:0:0:
256,192,30193,1,8,0:0:0:0:
256,192,30359,1,0,0:0:0:0:
256,192,30690,1,8,0:0:0:0:
256,192,31022,1,8,0:0:0:0:
256,192,31353,1,8,0:0:0:0:
256,192,31519,1,8,0:0:0:0:
256,192,32016,1,8,0:0:0:0:
256,192,32182,1,0,0:0:0:0:
256,192,32513,1,8,0:0:0:0:
256,192,33011,1,0,0:0:0:0:
256,192,33508,1,8,0:0:0:0:
256,192,33674,1,0,0:0:0:0:
256,192,34337,1,8,0:0:0:0:
256,192,34502,1,12,0:0:0:0:
256,192,34834,1,4,0:0:0:0:
256,192,35165,1,4,0:0:0:0:
256,192,35663,1,12,0:0:0:0:
256,192,36326,1,0,0:0:0:0:
256,192,36491,1,0,0:0:0:0:
256,192,36657,1,8,0:0:0:0:
256,192,36989,1,0,0:0:0:0:
256,192,37320,1,8,0:0:0:0:
256,192,37486,1,0,0:0:0:0:
256,192,37817,1,0,0:0:0:0:
256,192,37983,1,8,0:0:0:0:
256,192,38315,1,0,0:0:0:0:
256,192,38978,1,0,0:0:0:0:
256,192,39309,1,8,0:0:0:0:
256,192,39641,1,0,0:0:0:0:
256,192,39806,1,0,0:0:0:0:
256,192,39972,1,8,0:0:0:0:
256,192,40138,1,0,0:0:0:0:
256,192,40469,1,0,0:0:0:0:
256,192,40635,1,8,0:0:0:0:
256,192,40967,1,12,0:0:0:0:
256,192,41464,1,12,0:0:0:0:
256,192,41961,1,0,0:0:0:0:
256,192,42127,1,12,0:0:0:0:
256,192,42790,1,4,0:0:0:0:
256,192,43121,1,0,0:0:0:0:
256,192,43287,1,8,0:0:0:0:
256,192,43618,1,4,0:0:0:0:
256,192,43950,1,8,0:0:0:0:
256,192,44116,1,8,0:0:0:0:
256,192,44447,1,0,0:0:0:0:
256,192,44779,1,12,0:0:0:0:
256,192,45110,1,8,0:0:0:0:
256,192,45276,1,8,0:0:0:0:
256,192,45442,1,0,0:0:0:0:
256,192,45607,1,8,0:0:0:0:
256,192,45939,1,8,0:0:0:0:
256,192,46270,1,4,0:0:0:0:
256,192,46436,1,4,0:0:0:0:
256,192,46933,1,8,0:0:0:0:
256,192,47431,1,4,0:0:0:0:
256,192,47928,1,8,0:0:0:0:
256,192,48591,1,0,0:0:0:0:
256,192,48922,1,12,0:0:0:0:
256,192,49088,1,12,0:0:0:0:
256,192,49585,1,8,0:0:0:0:
256,192,50083,1,4,0:0:0:0:
256,192,50911,1,8,0:0:0:0:
256,192,51243,1,0,0:0:0:0:
256,192,51574,1,4,0:0:0:0:
256,192,52237,1,8,0:0:0:0:
256,192,52569,1,8,0:0:0:0:
256,192,52734,1,8,0:0:0:0:
256,192,53066,1,0,0:0:0:0:
256,192,53232,1,0,0:0:0:0:
256,192,53563,1,8,0:0:0:0:
256,192,53895,1,8,0:0:0:0:
256,192,54226,1,4,0:0:0:0:
256,192,54558,1,0,0:0:0:0:
256,192,54723,1,8,0:0:0:0:
256,192,55221,1,8,0:0:0:0:
256,192,55386,1,0,0:0:0:0:
256,192,55718,1,8,0:0:0:0:
256,192,56215,1,8,0:0:0:0:
256,192,56878,1,12,0:0:0:0:
256,192,57210,1,0,0:0:0:0:
256,192,57375,1,8,0:0:0:0:
256,192,57707,1,8,0:0:0:0:
256,192,57873,1,0,0:0:0:0:
256,192,58038,1,8,0:0:0:0:
256,192,58370,1,8,0:0:0:0:
256,192,58536,1,0,0:0:0:0:
256,192,58701,1,0,0:0:0:0:
256,192,58867,1,8,0:0:0:0:
256,192,59199,1,0,0:0:0:0:
256,192,59530,1,12,0:0:0:0:
256,192,59862,1,8,0:0:0:0:
256,192,60027,1,0,0:0:0:0:
256,192,60359,1,8,0:0:0:0:
256,192,60525,1,0,0:0:0:0:
256,192,60690,1,12,0:0:0:0:
256,192,61022,1,4,0:0:0:0:
256,192,62182,5,12,0:0:0:0:
256,192,62513,1,0,0:0:0:0:
256,192,62845,1,8,0:0:0:0:
256,192,63176,1,0,0:0:0:0:
256,192,63342,1,8,0:0:0:0:
256,192,63508,1,0,0:0:0:0:
256,192,63839,1,8,0:0:0:0:
256,192,64005,1,0,0:0:0:0:
256,192,64337,1,8,0:0:0:0:
256,192,64668,1,0,0:0:0:0:
256,192,64834,1,12,0:0:0:0:
256,192,65331,1,8,0:0:0:0:
256,192,65663,1,0,0:0:0:0:
256,192,65994,1,0,0:0:0:0:
256,192,66160,1,8,0:0:0:0:
256,192,66491,1,0,0:0:0:0:
256,192,66657,1,8,0:0:0:0:
256,192,66823,1,0,0:0:0:0:
256,192,67486,1,4,0:0:0:0:
256,192,67817,1,8,0:0:0:0:
256,192,67983,1,8,0:0:0:0:
256,192,68315,1,8,0:0:0:0:
256,192,68480,1,0,0:0:0:0:
256,192,68646,1,8,0:0:0:0:
256,192,68978,1,8,0:0:0:0:
256,192,69309,1,0,0:0:0:0:
256,192,69806,1,8,0:0:0:0:
256,192,69972,1,8,0:0:0:0:
256,192,70138,1,4,0:0:0:0:
256,192,70469,1,0,0:0:0:0:
256,192,70635,1,12,0:0:0:0:
256,192,71132,1,4,0:0:0:0:
256,192,71464,1,0,0:0:0:0:
256,192,71629,1,12,0:0:0:0:
256,192,72127,1,8,0:0:0:0:
256,192,72790,1,12,0:0:0:0:
256,192,73121,1,0,0:0:0:0:
256,192,73287,1,8,0:0:0:0:
256,192,73453,1,8,0:0:0:0:
256,192,73784,1,0,0:0:0:0:
256,192,73950,1,8,0:0:0:0:
256,192,74116,1,0,0:0:0:0:
256,192,74447,1,8,0:0:0:0:
256,192,74613,1,8,0:0:0:0:
256,192,74944,1,0,0:0:0:0:
256,192,75110,1,8,0:0:0:0:
256,192,75442,1,4,0:0:0:0:
256,192,75773,1,8,0:0:0:0:
256,192,76105,1,12,0:0:0:0:
256,192,76436,1,8,0:0:0:0:
256,192,76602,1,8,0:0:0:0:
256,192,76768,1,4,0:0:0:0:
256,192,77431,1,8,0:0:0:0:
256,192,77762,1,8,0:0:0:0:
256,192,77928,1,8,0:0:0:0:
256,192,78094,1,4,0:0:0:0:
256,192,78425,1,0,0:0:0:0:
256,192,78757,1,0,0:0:0:0:
256,192,79088,1,8,0:0:0:0:
256,192,79254,1,8,0:0:0:0:
256,192,79420,1,0,0:0:0:0:
256,192,79751,1,8,0:0:0:0:
256,192,79917,1,8,0:0:0:0:
256,192,80248,1,0,0:0:0:0:
256,192,80414,1,8,0:0:0:0:
256,192,80746,1,12,0:0:0:0:
256,192,81408,1,8,0:0:0:0:
256,192,81740,1,8,0:0:0:0:
256,192,81906,1,8,0:0:0:0:
256,192,82071,1,0,0:0:0:0:
256,192,82403,1,8,0:0:0:0:
256,192,82569,1,8,0:0:0:0:
256,192,82900,1,0,0:0:0:0:
256,192,83066,1,8,0:0:0:0:
256,192,83232,1,0,0:0:0:0:
256,192,83729,1,12,0:0:0:0:
256,192,84226,1,12,0:0:0:0:
256,192,84723,1,12,0:0:0:0:
256,192,85221,1,0,0:0:0:0:
256,192,85386,1,0,0:0:0:0:
256,192,85718,1,0,0:0:0:0:
256,192,85884,1,8,0:0:0:0:
256,192,86049,1,0,0:0:0:0:
256,192,86381,1,8,0:0:0:0:
256,192,86712,1,0,0:0:0:0:
256,192,86878,1,8,0:0:0:0:
256,192,87210,1,8,0:0:0:0:
256,192,87375,8,0,88701,0:0:0:0:
