osu file format v14

[General]
AudioFilename: audio.mp3
AudioLeadIn: 0
PreviewTime: 62008
Countdown: 0
SampleSet: Soft
StackLeniency: 0.7
Mode: 0
LetterboxInBreaks: 0
WidescreenStoryboard: 0

[Editor]
DistanceSpacing: 1
BeatDivisor: 4
GridSize: 32
TimelineZoom: 1.7

[Metadata]
Title:Habataki no Birthday
TitleUnicode:羽ばたきのバースデイ
Artist:Baby's breath
ArtistUnicode:Baby's breath
Creator:ShogunMoon
Version:Normal
Source:天使の3P!
Tags:Tenshi no 3P! Angel's 3Piece! 五島 潤 Jun Gotou 大野柚布子 Oono Yuuko 紅葉谷希美 Nozomi Momijidani 遠藤 ゆりか Endo Yurika 金城そら Sora Kaneshiro 古賀 葵 Koga Aoi tv size opening naotoshi gaia hazu- irohas dailycare SnowNiNo_
BeatmapID:1416155
BeatmapSetID:661398

[Difficulty]
HPDrainRate:4
CircleSize:3.3
OverallDifficulty:4
ApproachRate:5
SliderMultiplier:1
SliderTickRate:1

[Events]
//Background and Video events
Video,0,"tenshi.mp4"
0,0,"lolii.jpg",0,0
//Break Periods
//Storyboard Layer 0 (Background)
//Storyboard Layer 1 (Fail)
//Storyboard Layer 2 (Pass)
//Storyboard Layer 3 (Foreground)
//Storyboard Sound Samples

[TimingPoints]
1014,331.491712707182,4,2,7,50,1,0
6317,-100,4,2,7,60,0,0
11953,-100,4,2,7,70,0,0
14273,-100,4,2,7,75,0,0
24881,-100,4,2,7,60,0,0
35489,-100,4,2,7,70,0,0
46096,-100,4,2,7,60,0,0
47257,-100,4,2,7,70,0,0
48748,-100,4,2,7,60,0,0
51400,-100,4,2,7,60,0,0
54052,-100,4,2,7,70,0,0
62008,-100,4,2,7,80,0,1
83223,-100,4,2,7,80,0,0
83555,-100,4,2,7,75,0,0
85875,-100,4,2,7,50,0,0
88527,-100,4,2,7,5,0,0

[Colours]
Combo1 : 0,128,64
Combo2 : 0,128,255
Combo3 : 241,223,1

[HitObjects]
74,109,848,5,0,0:0:0:0:
74,109,1014,2,0,P|120:90|182:99,1,100,2|2,0:0|0:0,0:0:0:0:
249,152,1676,2,0,P|242:199|236:258,1,100,2|2,0:0|0:0,0:0:0:0:
242,301,2174,2,0,P|293:282|347:289,1,100,2|0,0:0|0:0,0:0:0:0:
384,302,2671,1,2,0:0:0:0:
384,302,2837,2,0,P|394:222|412:133,1,150,2|2,0:0|0:0,0:0:0:0:
358,66,3665,6,0,P|266:26|177:88,2,200,2|2|0,0:0|0:0|0:0,0:0:0:0:
407,153,5323,1,2,0:0:0:0:
436,248,5654,2,0,L|429:308,1,50,2|0,0:0|0:0,0:0:0:0:
379,297,5986,2,0,L|386:354,1,50,2|0,0:0|0:0,0:0:0:0:
337,363,6317,6,0,P|291:344|231:354,1,100,2|2,3:2|3:2,0:0:0:0:
156,296,6980,2,0,L|90:288,2,50,2|0|2,3:2|0:0|3:2,0:0:0:0:
188,257,7478,2,0,P|212:193|175:110,1,150,2|2,0:0|3:2,0:0:0:0:
143,91,8141,2,0,L|301:75,1,150,2|2,0:0|3:2,0:0:0:0:
378,25,8969,6,0,L|498:36,1,100,2|2,3:2|3:2,0:0:0:0:
473,135,9632,2,0,L|532:129,2,50,2|0|2,3:2|0:0|3:2,0:0:0:0:
424,149,10130,2,0,B|404:196|404:196|423:298,1,150,2|2,0:0|3:2,0:0:0:0:
415,342,10793,2,0,P|347:325|267:352,1,150,2|4,0:0|3:0,0:0:0:0:
229,372,11455,1,8,3:2:0:0:
162,237,11953,6,0,L|11:225,1,150,6|6,3:2|3:2,0:0:0:0:
44,78,12947,2,0,B|158:23|153:153|287:81,1,250,6|0,3:2|3:2,0:0:0:0:
323,58,13942,1,6,3:2:0:0:
405,114,14273,6,0,L|398:216,1,100,6|8,3:2|0:0,0:0:0:0:
337,293,14936,2,0,L|288:288,1,50,2|2,0:0|0:0,0:0:0:0:
193,251,15433,2,0,L|80:263,2,100,2|2|2,0:0|0:0|0:0,0:0:0:0:
258,175,16428,2,0,P|254:141|244:116,1,50,2|10,0:0|0:0,0:0:0:0:
226,81,16759,1,2,0:0:0:0:
192,44,16925,6,0,L|86:35,1,100,6|10,3:2|0:0,0:0:0:0:
47,125,17588,2,0,L|108:120,1,50,2|2,0:0|0:0,0:0:0:0:
153,203,18085,2,0,L|143:307,2,100,2|2|2,0:0|0:0|0:0,0:0:0:0:
179,159,18914,1,2,3:2:0:0:
271,117,19246,2,0,P|303:111|333:110,1,50,8|10,0:0|0:0,0:0:0:0:
369,119,19577,6,0,L|361:230,1,100,6|8,3:2|0:0,0:0:0:0:
278,273,20240,2,0,L|283:332,1,50,2|2,0:0|0:0,0:0:0:0:
375,359,20737,2,0,P|426:368|479:346,2,100,2|0|2,0:0|0:0|0:0,0:0:0:0:
281,322,21732,2,0,L|167:333,1,100,2|2,0:0|0:0,0:0:0:0:
151,291,22229,6,0,L|86:286,2,50,6|2|2,3:2|3:2|3:2,0:0:0:0:
183,253,22726,2,0,B|217:172|156:181|195:97,1,150,14|8,3:2|3:2,0:0:0:0:
272,49,23555,2,0,L|341:53,2,50,6|2|2,3:2|3:2|3:2,0:0:0:0:
230,21,24052,2,0,L|73:30,1,150,14|8,3:2|3:0,0:0:0:0:
24,112,24881,6,0,P|16:161|11:226,1,100,4|0,3:2|3:2,0:0:0:0:
34,256,25378,1,2,0:0:0:0:
34,256,25544,2,0,P|84:243|151:256,1,100,0|0,3:0|3:0,0:0:0:0:
230,264,26207,2,0,L|222:367,1,100,0|0,3:0|3:0,0:0:0:0:
322,370,26870,1,0,3:0:0:0:
414,331,27201,1,2,3:2:0:0:
425,231,27533,6,0,L|415:113,1,100,2|0,3:2|3:0,0:0:0:0:
391,88,28030,1,2,0:0:0:0:
391,88,28196,2,0,P|345:74|293:89,1,100,2|0,3:2|3:0,0:0:0:0:
257,119,28693,1,2,0:0:0:0:
257,119,28859,2,0,L|262:236,1,100,2|0,3:2|3:0,0:0:0:0:
220,310,29522,2,0,L|163:306,1,50,0|2,3:2|0:0,0:0:0:0:
130,275,29853,2,0,L|72:279,1,50,2|2,3:2|0:0,0:0:0:0:
40,247,30185,6,0,P|31:200|46:146,1,100,2|2,3:2|3:2,0:0:0:0:
74,110,30682,1,2,0:0:0:0:
74,110,30848,2,0,L|194:102,1,100,2|2,3:2|3:2,0:0:0:0:
258,50,31511,2,0,L|375:58,1,100,2|2,3:2|3:2,0:0:0:0:
437,117,32174,1,0,3:0:0:0:
469,211,32505,1,0,3:0:0:0:
429,302,32837,6,0,B|351:329|357:259|264:298,1,150,2|2,3:2|0:0,0:0:0:0:
234,294,33500,2,0,L|224:182,1,100,0|0,3:0|3:0,0:0:0:0:
216,144,33997,1,2,0:0:0:0:
216,144,34163,2,0,P|188:135|159:133,1,50,2|6,3:2|3:2,0:0:0:0:
67,123,34660,1,6,3:2:0:0:
4,200,34991,1,4,0:0:0:0:
44,344,35489,6,0,L|149:337,1,100,6|8,3:2|0:0,0:0:0:0:
182,305,35986,1,2,0:0:0:0:
182,305,36152,2,0,L|286:312,1,100,2|8,3:2|0:0,0:0:0:0:
373,270,36815,2,0,P|368:221|353:162,1,100,2|8,3:2|0:0,0:0:0:0:
272,116,37478,1,2,0:0:0:0:
175,89,37809,1,8,0:0:0:0:
89,140,38141,6,0,P|71:189|89:253,1,100,2|8,3:2|0:0,0:0:0:0:
110,273,38638,1,2,0:0:0:0:
110,273,38804,2,0,L|215:267,1,100,2|8,3:2|0:0,0:0:0:0:
259,258,39301,1,2,0:0:0:0:
259,258,39467,2,0,P|266:209|248:162,1,100,2|8,3:2|0:0,0:0:0:0:
205,72,40130,2,0,P|237:65|272:62,1,50,0|0,0:0|3:0,0:0:0:0:
301,78,40461,2,0,P|325:83|358:86,1,50,8|0,0:0|0:0,0:0:0:0:
398,71,40793,5,12,3:2:0:0:
511,170,41290,2,0,L|500:330,1,150,12|0,3:2|3:0,0:0:0:0:
457,345,41953,2,0,P|415:324|354:338,1,100,12|0,3:2|3:0,0:0:0:0:
268,360,42616,2,0,P|196:375|123:338,1,150,6|14,3:2|0:0,0:0:0:0:
91,310,43279,1,2,0:0:0:0:
91,310,43444,6,0,B|102:216|102:216|78:161,1,150,6|2,3:2|3:2,0:0:0:0:
47,70,44273,2,0,L|116:62,1,50,8|8,0:3|0:3,0:0:0:0:
142,85,44605,2,0,P|210:121|289:100,1,150,6|8,3:2|0:0,0:0:0:0:
319,77,45268,2,0,L|314:16,2,50,8|8|0,0:0|0:0|3:0,0:0:0:0:
365,94,45765,1,8,0:0:0:0:
435,165,46096,6,0,L|430:225,1,50,8|8,0:0|0:0,0:0:0:0:
421,264,46428,1,0,0:0:0:0:
338,320,46759,1,8,3:2:0:0:
242,290,47091,1,8,3:2:0:0:
242,290,47257,6,0,B|186:270|191:310|131:287,1,100,6|2,3:2|0:0,0:0:0:0:
100,267,47754,2,0,L|111:166,1,100,8|8,0:0|0:0,0:0:0:0:
58,81,48417,1,8,0:0:0:0:
146,35,48748,6,0,P|177:37|212:49,1,50,8|8,0:0|0:0,0:0:0:0:
230,78,49080,1,0,0:0:0:0:
297,151,49411,2,0,L|365:143,2,50,8|8|8,0:3|0:3|0:3,0:0:0:0:
278,198,49909,6,0,P|292:249|343:271,1,100,6|2,3:2|0:0,0:0:0:0:
379,259,50406,2,0,L|371:358,1,100,8|8,0:2|0:0,0:0:0:0:
272,375,51069,1,8,0:0:0:0:
180,335,51400,6,0,P|128:276|13:305,1,200,6|8,3:2|3:2,0:0:0:0:
15,203,52395,1,0,0:0:0:0:
15,203,52560,2,0,L|25:91,1,100,2|0,3:2|3:0,0:0:0:0:
59,68,53058,1,2,3:2:0:0:
148,111,53389,2,0,P|197:121|244:100,1,100,12|8,0:0|0:0,0:0:0:0:
329,54,54052,6,0,L|435:49,2,100,6|0|0,3:2|3:0|3:0,0:0:0:0:
241,101,55047,1,2,3:2:0:0:
305,176,55378,2,0,P|313:226|294:275,2,100,0|0|2,3:0|3:0|3:2,0:0:0:0:
213,216,56373,1,2,3:2:0:0:
213,315,56704,6,0,B|253:324|253:324|309:309|309:309|367:320,1,150,14|14,3:2|0:0,0:0:0:0:
455,291,57533,2,0,L|448:182,1,100,14|12,0:0|0:0,0:0:0:0:
390,109,58196,2,0,B|311:77|321:144|230:101,1,150,14|12,0:0|0:0,0:0:0:0:
154,64,59025,1,8,3:0:0:0:
256,192,59356,12,6,60848,3:2:0:0:
64,53,62008,6,0,P|72:107|80:172,1,100,6|8,3:2|0:0,0:0:0:0:
111,246,62671,2,0,P|160:224|219:231,1,100,2|8,3:2|0:0,0:0:0:0:
244,257,63168,2,0,L|415:245,1,150,2|8,0:0|0:0,0:0:0:0:
443,243,63831,1,2,0:0:0:0:
485,152,64163,1,2,0:0:0:0:
430,68,64494,1,2,0:0:0:0:
430,68,64660,6,0,L|275:55,1,150,6|2,3:2|0:0,0:0:0:0:
193,105,65489,2,0,L|123:110,1,50,2|8,0:0|0:0,0:0:0:0:
103,139,65820,2,0,P|87:180|125:284,1,150,2|8,0:0|0:0,0:0:0:0:
156,308,66483,2,0,L|260:303,1,100,2|2,0:0|0:0,0:0:0:0:
305,303,66980,1,8,0:0:0:0:
394,257,67312,6,0,B|405:210|405:210|383:158,1,100,6|10,3:2|0:0,0:0:0:0:
354,122,67809,1,2,0:0:0:0:
264,166,68141,1,2,0:0:0:0:
186,103,68472,2,0,L|80:110,2,100,2|2|2,0:0|0:0|0:0,0:0:0:0:
262,38,69467,2,0,L|334:43,2,50,2|8|2,0:0|0:0|0:0,0:0:0:0:
226,73,69964,6,0,P|177:114|172:206,2,150,6|6|6,3:2|3:2|3:2,0:0:0:0:
372,103,71455,2,0,L|363:260,1,150,2|12,3:2|3:2,0:0:0:0:
320,279,72118,2,0,L|325:339,2,50,8|8|8,0:0|3:2|0:0,0:0:0:0:
279,248,72616,6,0,P|228:250|187:283,1,100,6|10,3:2|0:0,0:0:0:0:
162,320,73113,1,2,0:0:0:0:
162,320,73279,2,0,L|57:313,1,100,2|8,3:2|0:0,0:0:0:0:
41,267,73776,2,0,B|36:227|36:227|50:171|50:171|41:106,1,150,2|8,0:0|0:0,0:0:0:0:
61,73,74439,2,0,L|230:83,1,150,2|8,0:0|0:0,0:0:0:0:
300,127,75268,6,0,P|331:164|342:223,1,100,6|10,3:2|0:0,0:0:0:0:
336,313,75931,2,0,L|232:318,1,100,6|8,3:2|0:0,0:0:0:0:
149,267,76594,1,6,3:2:0:0:
186,174,76925,1,12,3:2:0:0:
115,102,77257,2,0,P|90:96|60:100,1,50,8|8,3:2|0:0,0:0:0:0:
29,132,77588,2,0,L|33:192,1,50,8|8,0:0|0:3,0:0:0:0:
74,208,77920,6,0,L|65:316,1,100,6|8,3:2|0:0,0:0:0:0:
165,320,78583,2,0,L|159:392,2,50,2|2|10,3:2|0:0|0:0,0:0:0:0:
204,289,79080,2,0,B|282:265|270:328|360:304,1,150,2|8,0:0|0:0,0:0:0:0:
395,291,79743,2,0,P|391:222|381:129,1,150,2|8,0:0|0:0,0:0:0:0:
335,52,80572,6,0,L|218:43,1,100,6|8,3:2|0:0,0:0:0:0:
153,101,81234,2,0,L|84:106,2,50,2|2|8,3:2|0:0|0:0,0:0:0:0:
198,121,81732,2,0,B|219:159|219:159|203:264,1,150,2|12,0:0|3:2,0:0:0:0:
198,314,82395,2,0,P|272:295|353:335,1,150,0|8,3:0|0:0,0:0:0:0:
378,350,83058,1,8,0:0:0:0:
476,236,83555,6,0,B|479:193|479:193|465:139|465:139|470:78,1,150,14|14,3:2|3:2,0:0:0:0:
326,40,84549,2,0,P|225:35|206:165,1,250,14|0,3:2|0:0,0:0:0:0:
221,206,85544,1,8,0:0:0:0:
256,192,85875,12,0,88527,0:0:0:0:
