osu file format v14

[General]
AudioFilename: audio.mp3
AudioLeadIn: 0
PreviewTime: 62008
Countdown: 0
SampleSet: Soft
StackLeniency: 0.7
Mode: 0
LetterboxInBreaks: 0
WidescreenStoryboard: 0

[Editor]
DistanceSpacing: 1.3
BeatDivisor: 4
GridSize: 32
TimelineZoom: 1.7

[Metadata]
Title:Habataki no Birthday
TitleUnicode:羽ばたきのバースデイ
Artist:Baby's breath
ArtistUnicode:Baby's breath
Creator:ShogunMoon
Version:Nao's Advanced
Source:天使の3P!
Tags:Tenshi no 3P! Angel's 3Piece! 五島 潤 Jun Gotou 大野柚布子 Oono Yuuko 紅葉谷希美 Nozomi Momijidani 遠藤 ゆりか Endo Yurika 金城そら Sora Kaneshiro 古賀 葵 Koga Aoi tv size opening naotoshi gaia hazu- irohas dailycare SnowNiNo_
BeatmapID:1428960
BeatmapSetID:661398

[Difficulty]
HPDrainRate:4.8
CircleSize:3.5
OverallDifficulty:5.6
ApproachRate:6.7
SliderMultiplier:1.2
SliderTickRate:1

[Events]
//Background and Video events
0,0,"lolii.jpg",0,0
Video,0,"tenshi.mp4"
//Break Periods
//Storyboard Layer 0 (Background)
//Storyboard Layer 1 (Fail)
//Storyboard Layer 2 (Pass)
//Storyboard Layer 3 (Foreground)
//Storyboard Sound Samples

[TimingPoints]
1014,331.491712707182,4,2,7,50,1,0
6317,-100,4,2,7,60,0,0
11953,-100,4,2,7,70,0,0
14273,-100,4,2,7,75,0,0
24881,-100,4,2,7,60,0,0
35489,-100,4,2,7,70,0,0
46096,-100,4,2,7,60,0,0
47257,-100,4,2,7,70,0,0
48748,-100,4,2,7,60,0,0
49909,-100,4,2,7,70,0,0
51400,-100,4,2,7,60,0,0
54052,-100,4,2,7,70,0,0
62008,-83.3333333333333,4,2,7,80,0,1
83223,-100,4,2,7,80,0,0
83555,-100,4,2,7,75,0,0
85875,-100,4,2,7,50,0,0
88527,-100,4,2,7,5,0,0

[Colours]
Combo1 : 0,128,64
Combo2 : 0,128,255
Combo3 : 241,223,1

[HitObjects]
164,170,1014,6,0,P|225:150|296:186,1,120,2|2,0:0|0:0,0:0:0:0:
355,272,1676,1,2,0:0:0:0:
355,272,1842,2,0,P|372:222|425:178,1,120,2|0,0:0|0:0,0:0:0:0:
501,183,2339,5,2,0:0:0:0:
451,47,2671,1,2,0:0:0:0:
323,112,3002,1,2,0:0:0:0:
323,112,3168,2,0,P|259:138|202:126,1,120,2|0,0:0|0:0,0:0:0:0:
158,71,3665,6,0,P|115:101|68:174,1,120,2|2,0:0|0:0,0:0:0:0:
198,251,4328,2,0,P|270:260|333:245,1,120,2|2,0:0|0:0,0:0:0:0:
381,207,4826,1,2,0:0:0:0:
381,207,4991,2,0,P|404:251|415:329,1,120,2|0,0:0|0:0,0:0:0:0:
272,257,5654,5,2,0:0:0:0:
145,342,5986,2,0,L|73:338,1,60,2|2,0:0|0:0,0:0:0:0:
42,272,6317,5,2,3:2:0:0:
88,122,6649,1,2,3:2:0:0:
237,78,6980,2,0,L|309:81,1,60,2|2,3:2|0:0,0:0:0:0:
361,125,7312,1,2,3:2:0:0:
427,265,7643,1,2,3:2:0:0:
307,366,7975,1,2,3:2:0:0:
235,333,8141,2,0,L|173:320,1,60,2|2,0:0|3:2,0:0:0:0:
29,373,8638,1,2,3:2:0:0:
94,231,8969,5,2,3:2:0:0:
250,235,9301,1,2,3:2:0:0:
349,354,9632,2,0,L|424:339,1,60,2|2,3:2|0:0,0:0:0:0:
463,286,9964,1,2,3:2:0:0:
457,130,10295,1,2,3:2:0:0:
320,53,10627,1,2,3:2:0:0:
252,92,10793,2,0,L|182:103,1,60,2|2,0:0|3:2,0:0:0:0:
42,57,11290,5,4,3:0:0:0:
26,133,11455,1,8,3:2:0:0:
26,133,11953,6,0,P|105:121|151:152,1,120,6|0,3:2|0:0,0:0:0:0:
178,205,12450,2,0,L|318:178,1,120,6|0,3:2|0:0,0:0:0:0:
367,213,12947,2,0,P|418:174|259:121,1,360,6|6,3:2|3:2,0:0:0:0:
253,265,14273,6,0,P|196:300|123:288,1,120,6|8,3:2|0:0,0:0:0:0:
89,242,14770,1,2,0:0:0:0:
105,165,14936,1,0,3:2:0:0:
172,125,15102,2,0,P|241:149|298:143,1,120,2|2,0:0|0:0,0:0:0:0:
357,112,15599,6,0,L|339:40,2,60,0|2|8,3:0|0:0|0:0,0:0:0:0:
416,162,16096,2,0,L|407:292,1,120,2|2,0:0|0:0,0:0:0:0:
359,343,16594,1,10,0:0:0:0:
284,321,16759,1,2,0:0:0:0:
214,355,16925,6,0,P|152:330|94:338,1,120,6|10,3:2|0:0,0:0:0:0:
28,306,17422,2,0,P|27:276|33:246,1,60,2|0,0:0|0:0,0:0:0:0:
57,172,17754,2,0,P|80:152|107:142,1,60,2|8,2:2|0:0,0:0:0:0:
188,141,18085,1,2,0:0:0:0:
188,141,18251,6,0,P|175:80|127:43,1,120,0|8,0:0|0:0,0:0:0:0:
56,65,18748,1,2,0:0:0:0:
90,134,18914,2,0,L|75:258,1,120,2|8,3:2|0:0,0:0:0:0:
122,315,19411,1,10,0:0:0:0:
198,297,19577,6,0,P|276:289|326:312,1,120,6|8,3:2|0:0,0:0:0:0:
369,357,20074,1,2,0:0:0:0:
412,292,20240,1,0,3:0:0:0:
357,235,20406,2,0,P|338:194|361:112,1,120,2|2,0:0|0:0,0:0:0:0:
422,88,20903,6,0,L|499:75,2,60,2|0|8,3:2|0:0|0:0,0:0:0:0:
357,43,21400,1,2,0:0:0:0:
289,81,21566,1,0,3:0:0:0:
225,35,21732,2,0,P|211:87|250:152,1,120,2|2,0:0|0:0,0:0:0:0:
295,197,22229,6,0,L|314:279,1,60,6|2,3:2|3:2,0:0:0:0:
273,325,22560,1,2,3:2:0:0:
203,288,22726,2,0,P|123:275|68:294,1,120,14|2,3:2|3:2,0:0:0:0:
24,332,23223,1,8,3:2:0:0:
29,175,23555,6,0,P|50:112|63:97,1,60,6|2,3:2|3:2,0:0:0:0:
111,75,23886,1,2,3:2:0:0:
188,80,24052,1,14,3:2:0:0:
325,154,24384,1,2,0:0:0:0:
325,154,24549,1,8,3:0:0:0:
246,289,24881,6,0,P|187:278|120:304,2,120,4|0|0,3:2|3:2|3:0,0:0:0:0:
353,366,25875,1,0,3:0:0:0:
458,286,26207,2,0,P|469:229|493:163,1,120,0|0,3:0|3:0,0:0:0:0:
362,185,26870,2,0,P|315:176|232:148,1,120,0|2,3:0|3:2,0:0:0:0:
151,44,27533,6,0,P|153:109|140:174,2,120,2|0|2,3:2|3:0|3:2,0:0:0:0:
30,99,28527,1,0,3:0:0:0:
74,223,28859,2,0,P|112:244|206:230,1,120,2|0,3:2|3:0,0:0:0:0:
308,188,29522,2,0,P|315:271|298:303,1,120,2|2,3:2|3:2,0:0:0:0:
222,324,30019,1,2,0:0:0:0:
150,288,30185,6,0,P|138:247|165:167,1,120,2|0,3:2|3:2,0:0:0:0:
274,109,30848,2,0,P|331:123|394:106,1,120,2|0,3:2|3:2,0:0:0:0:
483,15,31511,2,0,L|510:140,2,120,2|2|2,3:2|3:2|3:2,0:0:0:0:
364,74,32505,1,0,3:0:0:0:
290,48,32671,1,2,0:0:0:0:
234,106,32837,6,0,P|175:123|111:112,1,120,2|0,3:2|3:0,0:0:0:0:
22,23,33500,2,0,P|12:117|28:155,1,120,2|0,3:2|3:0,0:0:0:0:
81,193,33997,1,2,0:0:0:0:
39,265,34163,5,2,3:2:0:0:
94,330,34328,1,6,3:2:0:0:
239,277,34660,1,6,3:2:0:0:
382,343,34991,1,4,0:0:0:0:
382,343,35489,6,0,P|416:255|410:229,1,120,6|8,3:2|0:0,0:0:0:0:
369,167,35986,1,2,0:0:0:0:
319,227,36152,2,0,P|263:235|191:210,1,120,2|8,3:2|0:0,0:0:0:0:
165,148,36649,1,2,0:0:0:0:
226,100,36815,6,0,L|230:34,2,60,2|2|8,3:2|3:2|0:0,0:0:0:0:
291,142,37312,2,0,P|351:124|416:145,1,120,2|2,3:2|3:2,0:0:0:0:
452,200,37809,1,8,0:0:0:0:
314,274,38141,6,0,P|255:248|190:257,1,120,2|8,3:2|0:0,0:0:0:0:
130,287,38638,1,2,0:0:0:0:
80,347,38804,2,0,P|32:362|1:302,1,120,2|8,3:2|0:0,0:0:0:0:
43,246,39301,1,2,0:0:0:0:
16,172,39467,5,2,3:2:0:0:
83,134,39632,2,0,L|87:60,1,60,2|8,3:2|0:0,0:0:0:0:
155,36,39964,2,0,P|214:5|279:23,1,120,2|0,3:2|3:0,0:0:0:0:
318,70,40461,1,8,0:0:0:0:
407,198,40793,5,12,3:2:0:0:
456,137,40958,2,0,P|464:79|471:63,1,60,2|0,3:2|3:0,0:0:0:0:
423,10,41290,2,0,P|359:0|308:40,1,120,12|0,3:2|3:0,0:0:0:0:
286,101,41787,1,0,3:0:0:0:
218,61,41953,5,12,3:2:0:0:
96,158,42284,2,0,L|87:235,1,60,0|8,3:0|0:0,0:0:0:0:
130,284,42616,2,0,P|188:259|252:276,1,120,6|2,3:2|3:2,0:0:0:0:
300,321,43113,1,14,0:0:0:0:
285,165,43444,5,6,3:2:0:0:
360,146,43610,2,0,P|418:148|444:159,1,60,2|8,0:0|0:0,0:0:0:0:
477,200,43942,2,0,L|490:265,1,60,2|8,3:2|0:0,0:0:0:0:
445,324,44273,2,0,L|431:391,1,60,8|8,0:3|0:3,0:0:0:0:
357,359,44605,5,6,3:2:0:0:
256,192,44770,12,4,46096,0:0:0:0:
185,158,47257,6,0,P|289:119|312:129,1,120,6|2,3:2|0:0,0:0:0:0:
360,153,47754,2,0,L|376:226,1,60,8|2,0:0|3:2,0:0:0:0:
341,283,48085,2,0,P|274:285|259:287,1,60,8|2,0:0|3:2,0:0:0:0:
219,332,48417,1,8,0:0:0:0:
106,223,48748,5,8,0:0:0:0:
106,223,48914,1,8,0:0:0:0:
214,110,49246,2,0,L|210:72,2,30,8|0|8,0:3|0:0|0:3,0:0:0:0:
278,153,49577,2,0,L|353:150,1,60,8|8,0:3|0:3,0:0:0:0:
388,90,49909,6,0,P|461:100|453:203,1,180,6|8,3:2|0:2,0:0:0:0:
390,212,50572,1,0,3:0:0:0:
337,150,50737,2,0,P|277:134|217:176,1,120,8|8,0:0|0:0,0:0:0:0:
333,275,51400,6,0,L|345:70,1,180,6|0,3:2|3:0,0:0:0:0:
298,31,52063,2,0,P|248:24|185:61,1,120,8|0,3:2|0:0,0:0:0:0:
168,131,52560,2,0,L|173:264,1,120,2|0,3:2|3:0,0:0:0:0:
177,329,53058,1,2,3:2:0:0:
46,244,53389,2,0,P|38:169|59:110,1,120,12|8,0:0|0:0,0:0:0:0:
175,34,54052,6,0,P|250:26|309:47,1,120,6|0,3:2|3:0,0:0:0:0:
385,163,54715,2,0,P|393:238|372:297,1,120,2|0,3:2|3:2,0:0:0:0:
237,342,55378,5,0,3:0:0:0:
112,247,55710,1,0,3:0:0:0:
266,229,56041,1,2,3:2:0:0:
144,327,56373,1,2,3:2:0:0:
99,177,56704,5,14,3:2:0:0:
99,177,56870,1,0,3:0:0:0:
235,102,57201,1,14,0:0:0:0:
235,102,57367,2,0,L|308:100,2,60,0|14|2,3:0|0:0|3:2,0:0:0:0:
164,68,57864,1,12,0:0:0:0:
45,170,58196,5,14,0:0:0:0:
45,170,58362,2,0,P|38:232|40:246,2,60,2|2|12,3:2|3:2|0:0,0:0:0:0:
120,148,58859,2,0,L|191:155,1,60,2|8,3:2|3:0,0:0:0:0:
335,162,59356,5,6,3:2:0:0:
256,192,59439,12,6,60848,3:2:0:0:
249,130,62008,6,0,L|343:140,1,71.9999978027344,6|2,3:2|0:0,0:0:0:0:
393,176,62339,2,0,L|478:153,1,71.9999978027344,8|2,0:0|0:0,0:0:0:0:
499,82,62671,2,0,P|474:24|391:50,1,143.999995605469,2|8,3:2|0:0,0:0:0:0:
344,90,63168,6,0,P|264:114|200:89,1,143.999995605469,2|2,0:0|0:0,0:0:0:0:
141,46,63665,1,8,0:0:0:0:
76,98,63831,1,2,0:0:0:0:
96,262,64163,2,0,P|166:198|231:194,1,143.999995605469,2|2,0:0|0:0,0:0:0:0:
290,216,64660,5,6,3:2:0:0:
349,157,64826,2,0,P|398:143|436:145,1,71.9999978027344,2|8,0:0|0:0,0:0:0:0:
461,213,65157,2,0,P|448:262|427:294,1,71.9999978027344,2|0,0:0|3:2,0:0:0:0:
359,307,65489,1,2,0:0:0:0:
195,333,65820,6,0,P|131:330|47:299,1,143.999995605469,2|0,0:0|0:0,0:0:0:0:
103,236,66317,1,8,0:0:0:0:
47,174,66483,2,0,L|27:25,1,143.999995605469,2|2,0:0|0:0,0:0:0:0:
108,13,66980,1,8,0:0:0:0:
173,64,67146,1,10,0:0:0:0:
248,28,67312,6,0,P|328:24|385:73,1,143.999995605469,6|10,3:2|0:0,0:0:0:0:
355,140,67809,2,0,P|356:188|366:235,1,71.9999978027344,2|0,0:0|3:2,0:0:0:0:
435,246,68141,2,0,P|439:303|430:343,1,71.9999978027344,2|8,0:0|0:0,0:0:0:0:
362,354,68472,5,2,0:0:0:0:
219,269,68804,1,2,0:0:0:0:
81,361,69135,2,0,L|91:183,1,143.999995605469,2|0,0:0|0:0,0:0:0:0:
49,144,69632,1,8,0:0:0:0:
100,78,69798,1,2,0:0:0:0:
173,115,69964,6,0,P|255:123|324:93,1,143.999995605469,6|8,3:2|0:0,0:0:0:0:
304,19,70461,2,0,P|222:11|153:41,1,143.999995605469,6|8,3:2|0:0,0:0:0:0:
98,81,70958,2,0,P|87:134|119:240,1,143.999995605469,6|8,3:2|0:0,0:0:0:0:
169,277,71455,1,2,3:2:0:0:
139,355,71621,1,12,0:0:0:0:
299,311,71953,6,0,L|303:250,2,35.9999989013672,12|8|8,3:2|0:0|0:0,0:0:0:0:
219,334,72284,2,0,L|206:280,2,35.9999989013672,8|8|8,3:2|0:0|0:0,0:0:0:0:
138,356,72616,5,6,3:2:0:0:
67,313,72781,1,2,0:0:0:0:
89,233,72947,2,0,P|92:172|88:152,1,71.9999978027344,10|2,0:0|0:0,0:0:0:0:
36,97,73279,2,0,P|72:41|164:35,1,143.999995605469,2|8,3:2|0:0,0:0:0:0:
217,65,73776,2,0,P|285:71|360:36,1,143.999995605469,2|2,0:0|0:0,0:0:0:0:
435,55,74273,5,8,0:0:0:0:
402,131,74439,2,0,P|403:187|418:231,2,71.9999978027344,2|0|2,0:0|0:0|0:0,0:0:0:0:
480,156,74936,1,8,0:0:0:0:
368,279,75268,6,0,P|307:301|219:276,1,143.999995605469,6|10,3:2|0:0,0:0:0:0:
223,201,75765,1,0,0:0:0:0:
299,170,75931,2,0,P|304:92|264:30,1,143.999995605469,6|8,3:2|0:0,0:0:0:0:
189,27,76428,1,2,0:0:0:0:
189,27,76594,6,0,L|95:45,1,71.9999978027344,6|0,3:2|0:0,0:0:0:0:
36,27,76925,2,0,P|17:64|1:112,1,71.9999978027344,12|2,3:2|3:2,0:0:0:0:
58,157,77257,5,8,3:2:0:0:
37,236,77422,1,8,0:0:0:0:
105,281,77588,1,8,0:0:0:0:
169,229,77754,1,8,0:3:0:0:
169,229,77920,6,0,P|256:209|313:237,1,143.999995605469,6|8,3:2|0:0,0:0:0:0:
437,327,78583,2,0,P|447:281|412:179,1,143.999995605469,2|10,3:2|0:0,0:0:0:0:
350,146,79080,1,2,0:0:0:0:
350,146,79246,6,0,P|286:175|206:169,1,143.999995605469,2|10,3:2|0:0,0:0:0:0:
168,102,79743,2,0,P|196:61|272:104,1,143.999995605469,2|0,0:0|0:0,0:0:0:0:
279,175,80240,1,8,0:0:0:0:
138,262,80572,6,0,P|90:251|49:253,2,71.9999978027344,6|0|8,3:2|0:0|0:0,0:0:0:0:
194,323,81069,1,0,0:0:0:0:
265,282,81234,2,0,P|274:230|269:184,1,71.9999978027344,2|2,3:2|0:0,0:0:0:0:
251,130,81566,1,8,0:0:0:0:
303,65,81732,6,0,P|374:40|444:78,1,143.999995605469,2|2,0:0|3:2,0:0:0:0:
439,149,82229,1,12,3:2:0:0:
372,197,82395,2,0,P|368:255|382:292,1,71.9999978027344,0|8,3:0|3:2,0:0:0:0:
425,330,82726,5,8,0:0:0:0:
359,380,82892,1,8,0:0:0:0:
279,346,83058,2,0,L|290:259,1,71.9999978027344,8|0,0:0|0:0,0:0:0:0:
145,293,83555,6,0,P|196:225|206:177,1,120,14|0,3:2|3:0,0:0:0:0:
261,138,84052,2,0,P|201:115|143:145,1,120,14|0,3:2|3:0,0:0:0:0:
121,206,84549,2,0,P|66:230|104:78,1,360,14|8,3:2|0:0,0:0:0:0:
214,183,85875,5,2,0:0:0:0:
155,234,86041,2,0,P|164:263|172:301,1,60,2|2,0:0|0:0,0:0:0:0:
124,355,86373,2,0,P|190:326|245:346,1,120,2|2,0:0|0:0,0:0:0:0:
350,363,87036,2,0,P|359:310|357:279,1,60,2|0,0:0|0:0,0:0:0:0:
428,263,87367,6,0,B|193:330|262:167|53:251|53:251|95:270,1,420,0|0,0:0|0:0,0:0:0:0:
