osu file format v14

[General]
AudioFilename: audio.mp3
AudioLeadIn: 0
PreviewTime: 62008
Countdown: 0
SampleSet: Soft
StackLeniency: 0.7
Mode: 0
LetterboxInBreaks: 0
WidescreenStoryboard: 0

[Editor]
DistanceSpacing: 1.4
BeatDivisor: 4
GridSize: 4
TimelineZoom: 1.5

[Metadata]
Title:Habataki no Birthday
TitleUnicode:羽ばたきのバースデイ
Artist:Baby's breath
ArtistUnicode:Baby's breath
Creator:ShogunMoon
Version:Hazu's Insane
Source:天使の3P!
Tags:Tenshi no 3P! Angel's 3Piece! 五島 潤 Jun Gotou 大野柚布子 Oono Yuuko 紅葉谷希美 Nozomi Momijidani 遠藤 ゆりか Endo Yurika 金城そら Sora Kaneshiro 古賀 葵 Koga Aoi tv size opening naotoshi gaia hazu- irohas dailycare SnowNiNo_
BeatmapID:1425512
BeatmapSetID:661398

[Difficulty]
HPDrainRate:6
CircleSize:4
OverallDifficulty:7.5
ApproachRate:9
SliderMultiplier:1.7
SliderTickRate:1

[Events]
//Background and Video events
0,0,"lolii.jpg",0,0
Video,0,"tenshi.mp4"
//Break Periods
//Storyboard Layer 0 (Background)
//Storyboard Layer 1 (Fail)
//Storyboard Layer 2 (Pass)
//Storyboard Layer 3 (Foreground)
//Storyboard Sound Samples

[TimingPoints]
1014,331.491712707182,4,2,7,40,1,0
1014,-125,4,2,7,40,0,0
6317,-111.111111111111,4,2,7,50,0,0
11953,-90.9090909090909,4,2,7,70,0,0
12450,-83.3333333333333,4,2,7,70,0,0
12947,-125,4,2,7,70,0,0
13942,-90.9090909090909,4,2,7,70,0,0
14190,-90.9090909090909,4,2,7,5,0,0
14273,-100,4,2,7,70,0,0
24881,-125,4,2,7,50,0,0
34163,-111.111111111111,4,2,7,60,0,0
46013,-111.111111111111,4,2,7,5,0,0
46096,-111.111111111111,4,2,7,60,0,0
51317,-111.111111111111,4,2,7,5,0,0
51400,-111.111111111111,4,2,7,60,0,0
54052,-125,4,2,7,60,0,0
56704,-111.111111111111,4,2,7,60,0,0
60765,-111.111111111111,4,2,7,5,0,0
60848,-111.111111111111,4,2,7,60,0,0
60931,-111.111111111111,4,2,7,5,0,0
62008,-100,4,2,7,70,0,1
71953,-100,4,2,7,70,0,0
72616,-100,4,2,7,70,0,1
83223,-100,4,2,7,70,0,0
84549,-125,4,2,7,70,0,0
85212,-100,4,2,7,70,0,0
85875,-133.333333333333,4,2,7,50,0,0
87036,-117.647058823529,4,2,7,40,0,0
88527,-117.647058823529,4,2,7,5,0,0

[Colours]
Combo1 : 0,128,64
Combo2 : 0,128,255
Combo3 : 241,223,1

[HitObjects]
128,84,1014,6,0,P|168:96|208:96,1,68,2|0,0:0|0:0,0:0:0:0:
312,36,1345,2,0,P|272:24|232:24,1,68,2|0,0:0|0:0,0:0:0:0:
284,128,1676,2,0,P|288:176|292:264,1,136,2|0,0:0|0:0,0:0:0:0:
368,140,2174,1,2,0:0:0:0:
192,216,2339,6,0,P|128:220|72:148,1,136,2|0,0:0|0:0,0:0:0:0:
24,112,2837,2,0,P|32:168|36:248,1,136,2|0,0:0|0:0,0:0:0:0:
104,300,3334,2,0,P|100:352|100:392,1,68,2|0,0:0|0:0,0:0:0:0:
192,188,3665,6,0,B|288:152|288:236|396:188,1,204,2|0,0:0|0:0,0:0:0:0:
460,120,4328,2,0,P|444:180|436:264,1,136,2|0,0:0|0:0,0:0:0:0:
480,324,4826,1,2,0:0:0:0:
356,292,4991,2,0,P|296:284|224:332,1,136,2|0,0:0|0:0,0:0:0:0:
216,344,5654,2,0,P|212:300|192:264,1,68,2|0,0:0|0:0,0:0:0:0:
52,288,5986,2,0,P|92:306|133:307,1,68,2|0,0:0|0:0,0:0:0:0:
160,68,6317,6,0,P|144:144|136:232,1,152.999995330811,2|0,0:0|0:0,0:0:0:0:
28,56,6815,1,2,0:0:0:0:
28,56,6980,2,0,P|32:88|36:140,1,76.4999976654053,2|0,0:0|0:0,0:0:0:0:
216,184,7312,1,2,0:0:0:0:
44,228,7478,1,2,0:0:0:0:
192,100,7643,6,0,B|268:76|268:140|356:112,1,152.999995330811,2|0,0:0|0:0,0:0:0:0:
472,56,8141,2,0,P|464:96|452:216,1,152.999995330811,2|0,0:0|0:0,0:0:0:0:
376,328,8638,2,0,P|328:308|284:308,1,76.4999976654053,2|0,0:0|0:0,0:0:0:0:
72,256,8969,6,0,P|124:252|232:240,1,152.999995330811,2|0,0:0|0:0,0:0:0:0:
72,112,9467,1,2,0:0:0:0:
72,112,9632,2,0,P|104:116|152:120,1,76.4999976654053,2|0,0:0|0:0,0:0:0:0:
0,184,9964,1,2,0:0:0:0:
32,32,10130,1,2,0:0:0:0:
108,204,10295,6,0,P|100:260|92:372,1,152.999995330811,2|0,0:0|0:0,0:0:0:0:
232,212,10793,2,0,P|237:135|247:59,1,152.999995330811,2|0,0:0|0:0,0:0:0:0:
88,108,11290,1,8,0:0:0:0:
336,168,11455,1,8,0:0:0:0:
356,160,11953,6,0,P|344:228|332:364,1,187.000005706787,6|0,0:0|0:0,0:0:0:0:
184,100,12450,6,0,P|120:64|24:144,1,203.999993774414,6|0,0:0|0:0,0:0:0:0:
188,248,12947,6,0,B|248:244|284:220|284:220|316:232|340:236|340:236|384:216|456:216|456:216|396:236|388:252,1,340,6|0,0:0|0:0,0:0:0:0:
328,344,13942,6,0,P|264:336|168:332,1,140.25000428009,10|0,0:0|0:0,0:0:0:0:
116,284,14273,6,0,P|80:288|20:292,1,85,6|0,0:0|0:0,0:0:0:0:
216,196,14605,2,0,P|258:193|300:188,1,85,10|0,0:0|0:0,0:0:0:0:
176,360,14936,1,2,0:0:0:0:
176,360,15102,2,0,P|140:364|80:368,1,85,2|8,0:0|0:0,0:0:0:0:
308,292,15433,6,0,P|324:328|324:380,1,85,2|0,0:0|0:0,0:0:0:0:
216,196,15765,2,0,P|216:153|233:114,1,85,2|8,0:0|0:0,0:0:0:0:
368,28,16096,2,0,P|360:100|356:200,1,170,2|2,0:0|0:0,0:0:0:0:
280,48,16594,1,10,0:0:0:0:
448,120,16759,1,0,0:0:0:0:
248,144,16925,6,0,P|212:136|160:136,1,85,6|0,0:0|0:0,0:0:0:0:
112,296,17257,2,0,P|136:268|162:223,1,85,10|0,0:0|0:0,0:0:0:0:
44,104,17589,1,2,0:0:0:0:
44,104,17754,2,0,P|55:139|81:184,2,85,2|8|0,0:0|0:0|0:0,0:0:0:0:
212,72,18251,5,2,0:0:0:0:
160,226,18417,1,0,0:0:0:0:
128,44,18583,1,10,0:0:0:0:
272,168,18748,2,0,P|304:164|376:160,1,85,2|0,0:0|0:0,0:0:0:0:
512,76,19080,2,0,P|469:73|427:68,1,85,2|8,0:0|0:0,0:0:0:0:
216,24,19411,1,8,0:0:0:0:
200,32,19494,1,8,0:0:0:0:
184,40,19577,6,0,P|192:96|196:136,1,85,6|0,0:0|0:0,0:0:0:0:
272,300,19909,2,0,P|276:257|282:215,1,85,10|0,0:0|0:0,0:0:0:0:
96,128,20240,1,2,0:0:0:0:
96,128,20406,2,0,P|102:170|106:212,1,85,2|8,0:0|0:0,0:0:0:0:
244,80,20737,1,2,0:0:0:0:
200,256,20903,6,0,P|193:298|189:340,1,85,2|0,0:0|0:0,0:0:0:0:
392,212,21234,2,0,P|344:192|292:196,1,85,10|0,0:0|0:0,0:0:0:0:
424,324,21566,1,2,0:0:0:0:
424,324,21732,2,0,P|466:321|504:303,2,85,2|8|0,0:0|0:0|0:0,0:0:0:0:
216,340,22229,5,6,0:0:0:0:
311,191,22395,1,2,0:0:0:0:
332,384,22560,1,2,0:0:0:0:
200,196,22726,2,0,P|188:120|244:44,1,170,14|0,0:0|0:0,0:0:0:0:
72,20,23223,2,0,P|76:60|80:112,1,85,10|0,0:0|0:0,0:0:0:0:
76,300,23555,5,6,0:0:0:0:
200,196,23721,1,2,0:0:0:0:
8,204,23886,1,0,0:0:0:0:
220,304,24052,2,0,B|304:332|304:272|396:304,1,170,14|0,0:0|0:0,0:0:0:0:
488,348,24549,1,8,0:3:0:0:
504,356,24881,6,0,P|472:292|504:224,1,136,6|0,0:0|0:0,0:0:0:0:
380,176,25378,1,2,0:0:0:0:
380,176,25544,2,0,P|384:216|388:272,1,68,2|0,0:0|0:0,0:0:0:0:
296,340,25875,2,0,P|298:306|302:272,1,68,2|0,0:0|0:0,0:0:0:0:
208,144,26207,5,2,0:0:0:0:
208,144,26373,2,0,P|212:184|216:240,1,68,2|0,0:0|0:0,0:0:0:0:
332,80,26704,2,0,P|292:72|248:80,1,68,2|0,0:0|0:0,0:0:0:0:
408,144,27036,2,0,P|441:146|474:138,2,68,2|2|2,0:0|0:0|0:0,0:0:0:0:
272,192,27533,6,0,P|244:240|280:324,1,136,2|0,0:0|0:0,0:0:0:0:
402,264,28030,1,2,0:0:0:0:
402,264,28195,2,0,P|430:216|394:132,1,136,2|0,0:0|0:0,0:0:0:0:
336,80,28693,1,2,0:0:0:0:
272,192,28859,6,0,P|276:248|276:272,2,68,2|0|0,0:0|0:0|0:0,0:0:0:0:
212,124,29356,1,2,0:0:0:0:
212,124,29522,2,0,P|216:68|216:44,1,68
136,16,29853,1,2,0:0:0:0:
136,16,30020,1,2,0:0:0:0:
64,144,30185,6,0,P|72:224|76:284,1,136,2|0,0:0|0:0,0:0:0:0:
160,364,30682,1,2,0:0:0:0:
160,364,30848,2,0,P|156:328|152:280,1,68,2|0,0:0|0:0,0:0:0:0:
188,212,31179,1,2,0:0:0:0:
188,212,31345,1,2,0:0:0:0:
264,328,31511,6,0,B|336:348|336:300|400:320,1,136,2|0,0:0|0:0,0:0:0:0:
480,344,32008,2,0,P|472:304|468:264,1,68,2|0,0:0|0:0,0:0:0:0:
408,176,32339,2,0,P|403:209|396:243,1,68,2|0,0:0|0:0,0:0:0:0:
348,324,32671,1,2,0:0:0:0:
276,200,32837,6,0,P|224:176|132:212,1,136,2|0,0:0|0:0,0:0:0:0:
84,80,33334,1,2,0:0:0:0:
84,80,33499,2,0,P|136:104|228:68,1,136,2|0,0:0|0:0,0:0:0:0:
320,24,33997,1,0,0:0:0:0:
320,24,34080,1,0,0:0:0:0:
320,24,34163,5,8,0:0:0:0:
268,240,34328,2,0,P|265:201|262:163,1,76.4999976654053,14|0,0:0|0:0,0:0:0:0:
432,48,34660,2,0,P|428:86|426:124,1,76.4999976654053,10|0,0:0|0:0,0:0:0:0:
408,336,34991,1,10,0:0:0:0:
404,356,35489,6,0,P|372:320|268:328,1,152.999995330811,6|8,0:0|0:0,0:0:0:0:
496,256,35986,1,2,0:0:0:0:
328,216,36152,1,2,0:0:0:0:
328,216,36317,2,0,P|289:213|251:208,1,76.4999976654053,2|8,0:0|0:0,0:0:0:0:
452,152,36649,5,2,0:0:0:0:
284,112,36815,1,2,0:0:0:0:
284,112,36980,2,0,P|245:109|207:104,1,76.4999976654053,2|8,0:0|0:0,0:0:0:0:
396,36,37312,1,2,0:0:0:0:
348,188,37478,1,2,0:0:0:0:
348,188,37643,2,0,P|344:224|340:276,1,76.4999976654053,2|8,0:0|0:0,0:0:0:0:
268,372,37975,1,2,0:0:0:0:
228,196,38141,6,0,P|176:164|84:208,1,152.999995330811,2|8,0:0|0:0,0:0:0:0:
24,292,38638,1,2,0:0:0:0:
4,112,38804,1,2,0:0:0:0:
4,112,38969,2,0,P|8:144|12:208,1,76.4999976654053,2|8,0:0|0:0,0:0:0:0:
144,224,39301,5,2,0:0:0:0:
124,44,39467,1,2,0:0:0:0:
124,44,39632,2,0,P|128:76|132:140,1,76.4999976654053,2|8,0:0|0:0,0:0:0:0:
16,32,39964,1,2,0:0:0:0:
220,64,40130,1,2,0:0:0:0:
220,64,40295,2,0,P|252:60|296:56,2,76.4999976654053,2|8|0,0:0|0:0|0:0,0:0:0:0:
0,24,40793,5,14,0:0:0:0:
156,192,40958,1,10,0:0:0:0:
172,208,41290,6,0,P|164:276|156:380,1,152.999995330811,4|0,0:0|0:0,0:0:0:0:
268,128,41787,1,2,0:0:0:0:
48,128,41953,6,0,P|56:196|64:300,1,152.999995330811,4|0,0:0|0:0,0:0:0:0:
20,372,42450,1,0,0:0:0:0:
180,240,42616,6,0,B|256:208|256:276|352:232,1,152.999995330811,6|0,0:0|0:0,0:0:0:0:
344,236,43030,1,0,0:0:0:0:
360,228,43113,2,0,P|368:276|372:320,1,76.4999976654053,2|0,0:0|0:0,0:0:0:0:
416,56,43444,5,6,0:0:0:0:
480,176,43610,2,0,P|472:224|468:268,1,76.4999976654053,2|8,0:0|0:0,0:0:0:0:
296,136,43942,1,0,0:0:0:0:
296,136,44025,1,8,0:3:0:0:
296,136,44107,1,8,0:3:0:0:
492,88,44273,1,0,0:0:0:0:
508,84,44605,6,0,P|500:152|492:252,1,152.999995330811,4|8,0:0|0:0,0:0:0:0:
296,136,45102,1,8,0:3:0:0:
400,224,45268,1,8,0:0:0:0:
232,216,45433,5,8,0:3:0:0:
416,124,45599,1,8,0:0:0:0:
144,100,45765,2,0,P|148:144|152:228,1,114.749996498108,8|0,0:0|0:0,0:0:0:0:
128,300,46096,5,10,0:0:0:0:
312,240,46262,2,0,P|360:228|448:288,1,152.999995330811,10|8,0:0|0:3,0:0:0:0:
460,296,46676,1,8,0:3:0:0:
472,312,46759,2,0,P|476:260|480:232,2,76.4999976654053,8|0|8,0:3|0:0|0:0,0:0:0:0:
360,60,47257,6,0,P|364:136|368:216,1,152.999995330811,6|8,0:0|0:3,0:0:0:0:
272,104,47754,1,8,0:0:0:0:
460,144,47920,1,10,0:0:0:0:
240,200,48085,2,0,P|204:196|140:192,1,76.4999976654053,10|0,0:0|0:0,0:0:0:0:
360,60,48417,2,0,P|396:64|460:68,1,76.4999976654053,10|0,0:0|0:0,0:0:0:0:
300,288,48748,5,10,0:0:0:0:
192,108,48914,2,0,B|120:92|120:140|36:116,1,152.999995330811,10|8,0:0|0:3,0:0:0:0:
16,104,49301,2,0,P|20:72|20:56,2,25.4999992218018,8|8|8,0:3|0:3|0:3,0:3:0:0:
0,188,49577,2,0,P|8:236|12:284,1,76.4999976654053,8|8,0:3|0:3,0:0:0:0:
32,372,49909,6,0,P|76:324|160:320,1,152.999995330811,6|8,0:0|0:3,0:0:0:0:
268,368,50406,1,8,0:0:0:0:
224,192,50572,1,2,0:0:0:0:
372,288,50737,2,0,P|340:280|292:272,1,76.4999976654053,10|0,0:0|0:0,0:0:0:0:
112,200,51069,2,0,P|120:248|128:340,1,114.749996498108,8|0,0:3|0:0,0:0:0:0:
168,384,51400,6,0,P|180:296|196:224,1,152.999995330811,6|2,0:0|0:0,0:0:0:0:
0,96,52063,2,0,P|15:170|25:246,1,152.999995330811,6|2,0:0|0:0,0:0:0:0:
4,340,52560,5,2,0:0:0:0:
136,112,52892,1,2,0:0:0:0:
136,112,53058,2,0,P|184:100|224:104,1,76.4999976654053,2|0,0:0|0:0,0:0:0:0:
256,252,53389,2,0,P|221:216|205:179,1,76.4999976654053,6|0,0:0|0:0,0:0:0:0:
324,72,53721,2,0,P|310:119|286:152,1,76.4999976654053,8|0,0:3|0:0,0:0:0:0:
152,252,54052,6,0,P|112:244|4:232,1,136,6|0,0:0|0:0,0:0:0:0:
8,140,54549,2,0,P|75:146|142:159,1,136,2|0,0:0|0:0,0:0:0:0:
232,128,55047,1,2,0:0:0:0:
260,252,55212,6,0,P|256:288|252:332,1,68,2|0,0:0|0:0,0:0:0:0:
336,352,55544,2,0,P|340:284|346:216,1,136,2|0,0:0|0:0,0:0:0:0:
324,120,56041,2,0,P|300:112|244:120,1,68,2|0,0:0|0:0,0:0:0:0:
176,172,56373,2,0,P|172:204|164:288,1,102,2|0,0:0|0:0,0:0:0:0:
160,364,56704,5,6,0:0:0:0:
80,192,56870,1,0,0:0:0:0:
248,292,57036,1,0,0:0:0:0:
8,288,57201,6,0,P|56:284|104:280,1,76.4999976654053,6|0,0:0|0:0,0:0:0:0:
264,196,57533,1,2,0:0:0:0:
160,364,57699,1,0,0:0:0:0:
156,132,57864,6,0,P|159:93|162:55,1,76.4999976654053,6|0,0:0|0:0,0:0:0:0:
84,281,58196,1,2,0:0:0:0:
280,192,58362,1,2,0:0:0:0:
48,152,58527,1,2,0:0:0:0:
248,288,58693,6,0,P|296:280|336:276,1,76.4999976654053,10|0,0:0|0:0,0:0:0:0:
112,204,59025,2,0,P|116:252|120:336,1,114.749996498108,8|0,0:3|0:0,0:0:0:0:
184,360,59356,5,14,0:0:0:0:
200,176,59522,1,8,0:0:0:0:
180,380,59688,1,8,0:0:0:0:
300,196,59853,1,10,0:0:0:0:
92,280,60019,5,8,0:0:0:0:
292,348,60185,1,10,0:0:0:0:
68,276,60351,1,8,0:0:0:0:
380,228,60516,2,0,P|376:272|372:372,1,114.749996498108,6|0,0:0|0:0,0:0:0:0:
404,368,60848,2,0,L|408:304,1,38.2499988327027,6|0,0:0|0:0,0:0:0:0:
188,68,62008,6,0,P|192:108|196:172,1,85,6|0,0:0|0:0,0:0:0:0:
280,312,62339,2,0,P|282:269|287:227,1,85,10|0,0:0|0:0,0:0:0:0:
112,156,62671,2,0,P|120:228|128:332,1,170,2|8,0:0|0:0,0:0:0:0:
24,160,63168,1,2,0:0:0:0:
220,228,63334,6,0,P|304:232|376:160,1,170,2|8,0:0|0:0,0:0:0:0:
112,352,63831,2,0,P|160:344|228:340,1,85,2|0,0:0|0:0,0:0:0:0:
0,232,64163,2,0,P|48:240|116:244,1,85,2|8,0:0|0:0,0:0:0:0:
248,252,64494,1,2,0:0:0:0:
16,328,64660,5,6,0:0:0:0:
164,116,64826,2,0,P|168:156|176:216,1,85,2|8,0:0|0:0,0:0:0:0:
104,384,65157,2,0,P|107:341|111:299,1,85,2|0,0:0|0:0,0:0:0:0:
268,172,65488,2,0,P|308:164|364:168,1,85,2|8,0:0|0:0,0:0:0:0:
140,104,65820,1,2,0:0:0:0:
188,360,65986,6,0,P|212:280|160:208,1,170,6|8,0:0|0:0,0:0:0:0:
288,84,66483,1,2,0:0:0:0:
288,84,66649,2,0,P|284:116|280:184,1,85
152,12,66980,1,10,0:0:0:0:
172,188,67146,1,8,0:0:0:0:
176,200,67229,1,8,0:0:0:0:
180,212,67312,6,0,P|184:244|188:312,1,85,6|0,0:0|0:0,0:0:0:0:
300,160,67643,1,10,0:0:0:0:
104,116,67809,2,0,P|64:112|8:116,1,85,2|0,0:0|0:0,0:0:0:0:
272,256,68141,2,0,P|314:258|356:254,1,85,2|8,0:0|0:0,0:0:0:0:
84,212,68472,6,0,P|88:248|96:400,1,170,2|2,0:0|0:0,0:0:0:0:
188,160,68969,1,8,0:0:0:0:
0,140,69135,2,0,P|4:176|12:328,1,170,2|2,0:0|0:0,0:0:0:0:
216,260,69632,1,10,0:0:0:0:
96,196,69798,1,2,0:0:0:0:
304,180,69964,6,0,P|360:184|448:188,1,127.5,6|8,0:0|0:0,0:0:0:0:
512,192,70295,1,8,0:0:0:0:
316,344,70461,2,0,P|260:340|172:336,1,127.5,6|8,0:0|0:0,0:0:0:0:
108,332,70792,1,8,0:0:0:0:
204,88,70958,6,0,P|228:132|184:252,1,170,6|8,0:0|0:0,0:0:0:0:
312,64,71455,1,10,0:0:0:0:
112,124,71621,2,0,P|80:128|16:128,1,85,10|0,0:0|0:0,0:0:0:0:
280,252,71953,5,8,0:0:0:0:
322,249,72035,1,8,0:0:0:0:
364,246,72118,1,8,0:0:0:0:
407,245,72201,1,8,0:0:0:0:
449,244,72284,2,0,P|444:288|444:304,1,42.5,8|8,0:0|0:0,0:0:0:0:
512,148,72450,2,0,P|510:126|506:105,1,42.5,8|8,0:0|0:0,0:0:0:0:
368,8,72616,6,0,P|372:44|376:112,1,85,6|0,0:0|0:0,0:0:0:0:
280,252,72947,2,0,P|282:209|287:167,1,85,10|0,0:0|0:0,0:0:0:0:
152,16,73279,2,0,P|160:76|168:196,1,170,2|8,0:0|0:0,0:0:0:0:
240,36,73776,1,2,0:0:0:0:
76,152,73942,6,0,B|64:204|64:204|80:336,1,170,2|8,0:0|0:0,0:0:0:0:
260,172,74439,1,2,0:0:0:0:
260,172,74605,2,0,P|212:160|156:164,1,85,2|0,0:0|0:0,0:0:0:0:
336,304,74936,2,0,P|378:303|419:292,1,85,10|0,0:0|0:0,0:0:0:0:
176,376,75268,6,0,P|208:324|124:296,1,170,6|8,0:0|0:0,0:0:0:0:
248,192,75765,1,0,0:0:0:0:
32,208,75931,2,0,P|40:292|47:377,1,170,6|8,0:0|0:0,0:0:0:0:
104,104,76428,1,2,0:0:0:0:
136,280,76594,6,0,P|172:288|232:280,1,85,6|0,0:0|0:0,0:0:0:0:
412,180,76925,2,0,P|369:175|328:183,1,85,14|0,0:0|0:0,0:0:0:0:
387,380,77257,1,8,0:0:0:0:
387,380,77339,1,8,0:0:0:0:
387,380,77422,2,0,P|382:338|380:296,1,85,10|8,0:0|0:3,0:0:0:0:
248,104,77754,1,8,0:0:0:0:
244,120,77837,1,8,0:0:0:0:
240,136,77920,6,0,B|152:164|152:100|52:136,1,170,6|8,0:0|0:0,0:0:0:0:
196,248,78417,1,2,0:0:0:0:
196,248,78583,2,0,P|248:248|308:232,1,85,2|0,0:0|0:0,0:0:0:0:
92,312,78914,1,10,0:0:0:0:
140,164,79080,1,2,0:0:0:0:
220,352,79246,6,0,B|272:340|272:340|404:348,1,170,2|8,0:0|0:0,0:0:0:0:
256,180,79743,1,2,0:0:0:0:
256,180,79909,2,0,P|244:228|248:292,1,85,2|0,0:0|0:0,0:0:0:0:
368,140,80241,2,0,P|366:97|355:56,1,85,10|0,0:0|0:0,0:0:0:0:
152,116,80572,6,0,P|156:164|164:296,2,170,6|8|2,0:0|0:0|0:0,0:0:0:0:
372,180,81400,1,2,0:0:0:0:
240,232,81566,1,10,0:0:0:0:
312,80,81732,1,2,0:0:0:0:
380,312,81897,6,0,P|340:308|284:308,1,85,10|0,0:0|0:0,0:0:0:0:
76,268,82229,2,0,P|118:267|160:263,1,85,14|0,0:0|0:0,0:0:0:0:
336,221,82560,5,8,0:0:0:0:
359,186,82642,1,8,0:0:0:0:
363,144,82725,1,8,0:0:0:0:
346,106,82808,1,8,0:0:0:0:
312,80,82892,2,0,L|256:84,1,42.5,8|8,0:0|0:0,0:0:0:0:
148,160,83058,2,0,L|190:156,2,42.5,8|8|0,0:0|0:0|0:0,0:0:0:0:
108,148,83555,6,0,P|112:184|116:248,1,85,6|0,0:0|0:0,0:0:0:0:
248,56,83886,1,0,0:0:0:0:
228,240,84052,6,0,P|224:276|220:340,1,85,6|0,0:0|0:0,0:0:0:0:
160,84,84384,1,0,0:0:0:0:
344,204,84549,6,0,P|416:196|412:68,1,204,6|8,0:0|0:3,0:0:0:0:
312,32,85212,2,0,P|272:36|212:40,1,85,8|0,0:3|0:0,0:0:0:0:
56,96,85544,2,0,P|98:99|140:103,1,85,8|0,0:3|0:0,0:0:0:0:
292,180,85875,6,0,P|328:172|360:168,2,63.7500024318696,2|0|0,0:0|0:0|0:0,0:0:0:0:
416,304,86373,2,0,P|391:276|371:251,1,63.7500024318696,2|0,0:0|0:0,0:0:0:0:
460,136,86704,2,0,P|448:171|436:200,1,63.7500024318696,2|0,0:0|0:0,0:0:0:0:
376,52,87036,5,6,0:0:0:0:
256,192,87118,12,0,88527,0:0:0:0:
