osu file format v14

[General]
AudioFilename: audio.mp3
AudioLeadIn: 0
PreviewTime: 62008
Countdown: 0
SampleSet: Soft
StackLeniency: 0.7
Mode: 0
LetterboxInBreaks: 0
WidescreenStoryboard: 0

[Editor]
DistanceSpacing: 1.3
BeatDivisor: 4
GridSize: 16
TimelineZoom: 1.5

[Metadata]
Title:Habataki no Birthday
TitleUnicode:羽ばたきのバースデイ
Artist:Baby's breath
ArtistUnicode:Baby's breath
Creator:ShogunMoon
Version:Hard
Source:天使の3P!
Tags:Tenshi no 3P! Angel's 3Piece! 五島 潤 Jun Gotou 大野柚布子 Oono Yuuko 紅葉谷希美 Nozomi Momijidani 遠藤 ゆりか Endo Yurika 金城そら Sora Kaneshiro 古賀 葵 Koga Aoi tv size opening naotoshi gaia hazu- irohas dailycare SnowNiNo_
BeatmapID:1400254
BeatmapSetID:661398

[Difficulty]
HPDrainRate:5
CircleSize:3.7
OverallDifficulty:6
ApproachRate:8
SliderMultiplier:1.4
SliderTickRate:1

[Events]
//Background and Video events
Video,0,"tenshi.mp4"
0,0,"lolii.jpg",0,0
//Break Periods
//Storyboard Layer 0 (Background)
//Storyboard Layer 1 (Fail)
//Storyboard Layer 2 (Pass)
//Storyboard Layer 3 (Foreground)
//Storyboard Sound Samples

[TimingPoints]
1014,331.491712707182,4,2,7,50,1,0
1014,-125,4,2,7,50,0,0
6317,-111.111111111111,4,2,7,60,0,0
11953,-111.111111111111,4,2,7,70,0,0
12947,-125,4,2,7,70,0,0
13942,-111.111111111111,4,2,7,70,0,0
14273,-100,4,2,7,75,0,0
24881,-100,4,2,7,60,0,0
34163,-83.3333333333333,4,2,7,60,0,0
35489,-100,4,2,7,70,0,0
46096,-100,4,2,7,60,0,0
47257,-100,4,2,7,70,0,0
48748,-100,4,2,7,60,0,0
49909,-100,4,2,7,70,0,0
51400,-125,4,2,7,60,0,0
54052,-111.111111111111,4,2,7,70,0,0
56704,-100,4,2,7,70,0,0
62008,-90.9090909090909,4,2,7,80,0,1
83223,-100,4,2,7,80,0,0
83555,-111.111111111111,4,2,7,75,0,0
84549,-125,4,2,7,75,0,0
85875,-125,4,2,7,50,0,0
88527,-125,4,2,7,5,0,0

[Colours]
Combo1 : 0,128,64
Combo2 : 0,128,255
Combo3 : 241,223,1

[HitObjects]
29,206,848,5,0,0:0:0:0:
29,206,1014,2,0,L|99:199,1,56,2|2,0:0|0:0,0:0:0:0:
162,168,1345,2,0,P|167:140|177:110,1,56,2|2,0:0|0:0,0:0:0:0:
248,72,1676,2,0,P|306:81|361:56,1,112,2|2,0:0|0:0,0:0:0:0:
438,53,2174,2,0,L|429:183,1,112,2|0,0:0|0:0,0:0:0:0:
401,243,2671,1,2,0:0:0:0:
326,292,2837,2,0,P|395:283|454:367,1,168,2|2,0:0|0:0,0:0:0:0:
370,365,3500,1,0,0:0:0:0:
280,361,3665,6,0,P|245:305|298:216,1,168,2|0,0:0|0:0,0:0:0:0:
353,160,4328,2,0,B|272:180|272:180|187:157,1,168,2|2,0:0|0:0,0:0:0:0:
132,89,4991,2,0,L|143:208,1,112,0|2,0:0|0:0,0:0:0:0:
169,280,5489,1,0,0:0:0:0:
118,346,5654,2,0,P|86:349|48:340,1,56,2|2,0:0|0:0,0:0:0:0:
11,277,5986,2,0,L|4:205,1,56,2|2,0:0|0:0,0:0:0:0:
71,136,6317,6,0,B|117:132|117:132|159:138|159:138|214:132,1,125.999996154785,2|2,3:2|3:2,0:0:0:0:
282,98,6815,1,0,0:0:0:0:
282,98,6897,1,0,0:0:0:0:
282,98,6980,2,0,L|413:109,1,125.999996154785,2|2,3:2|3:2,0:0:0:0:
459,180,7478,2,0,L|317:196,1,125.999996154785,2|0,0:0|0:0,0:0:0:0:
246,204,7975,1,2,3:2:0:0:
165,240,8141,1,2,0:0:0:0:
165,240,8223,1,2,0:0:0:0:
165,240,8306,2,0,B|149:289|149:289|171:370,1,125.999996154785,2|2,3:2|3:2,0:0:0:0:
345,358,8969,6,0,L|479:350,1,125.999996154785,2|2,3:2|3:2,0:0:0:0:
493,270,9467,1,0,0:0:0:0:
493,270,9549,1,0,0:0:0:0:
493,270,9632,2,0,P|484:196|465:135,1,125.999996154785,2|2,3:2|3:2,0:0:0:0:
393,100,10130,1,2,0:0:0:0:
315,59,10295,2,0,B|248:35|257:85|179:59,1,125.999996154785,2|2,3:2|3:2,0:0:0:0:
106,40,10793,2,0,L|116:189,1,125.999996154785,2|0,0:0|0:0,0:0:0:0:
78,246,11290,1,4,3:0:0:0:
78,246,11455,1,8,3:2:0:0:
335,185,11953,6,0,P|394:214|415:278,1,125.999996154785,6|0,3:2|0:0,0:0:0:0:
390,352,12450,2,0,L|259:343,1,125.999996154785,6|0,3:2|0:0,0:0:0:0:
215,269,12947,2,0,B|192:220|230:164|230:164|266:106|235:49,1,224,6|0,3:2|0:0,0:0:0:0:
161,23,13776,1,0,3:2:0:0:
79,56,13942,2,0,L|72:131,1,62.9999980773926,6|0,3:2|0:0,0:0:0:0:
17,207,14273,6,0,L|24:284,1,70,6|2,3:2|0:0,0:0:0:0:
86,344,14605,2,0,P|129:346|170:334,1,70,8|2,0:0|0:0,0:0:0:0:
238,302,14936,1,0,3:2:0:0:
319,260,15102,2,0,L|408:268,1,70,2|8,0:0|0:0,0:0:0:0:
381,175,15433,6,0,L|227:184,1,140,2|2,0:0|0:0,0:0:0:0:
162,135,15931,1,8,0:0:0:0:
213,59,16096,2,0,P|252:115|223:203,1,140,2|2,0:0|0:0,0:0:0:0:
163,232,16594,1,10,0:0:0:0:
144,320,16759,1,2,0:0:0:0:
246,344,16925,6,0,P|284:334|338:342,1,70,6|2,3:2|0:0,0:0:0:0:
377,269,17257,2,0,P|369:235|351:204,1,70,10|2,0:0|0:0,0:0:0:0:
278,150,17588,1,0,3:0:0:0:
197,106,17754,2,0,L|202:21,1,70,2|8,0:0|0:0,0:0:0:0:
110,38,18085,6,0,L|117:190,1,140,2|2,0:0|0:0,0:0:0:0:
139,266,18583,1,8,0:0:0:0:
211,320,18748,1,2,0:0:0:0:
294,284,18914,2,0,P|366:259|456:270,1,140,2|8,3:2|0:0,0:0:0:0:
489,176,19411,1,10,0:0:0:0:
489,176,19494,1,10,0:0:0:0:
489,176,19577,6,0,L|483:89,1,70,6|0,3:2|0:0,0:0:0:0:
410,50,19909,2,0,P|376:43|324:37,1,70,8|2,0:0|0:0,0:0:0:0:
257,73,20240,1,0,3:0:0:0:
185,130,20406,2,0,P|188:166|191:216,1,70,2|8,0:0|0:0,0:0:0:0:
195,290,20737,6,0,P|155:333|75:324,1,140,2|0,0:0|0:0,0:0:0:0:
4,274,21234,1,8,0:0:0:0:
1,182,21400,2,0,P|4:144|11:106,1,70,2|2,0:0|0:0,0:0:0:0:
66,41,21732,1,8,0:0:0:0:
152,66,21897,2,0,L|231:71,1,70
336,36,22229,6,0,L|431:31,1,70,6|2,3:2|3:2,0:0:0:0:
489,69,22560,1,2,3:2:0:0:
507,158,22726,2,0,P|499:230|494:313,1,140,14|2,3:2|3:2,0:0:0:0:
419,349,23223,1,8,3:2:0:0:
331,324,23389,1,2,0:0:0:0:
217,288,23555,6,0,P|182:278|137:282,1,70,6|2,3:2|3:2,0:0:0:0:
86,346,23886,1,2,3:2:0:0:
8,298,24052,2,0,P|-11:240|11:162,1,140,14|2,3:2|0:0,0:0:0:0:
78,106,24549,1,8,3:0:0:0:
240,187,24881,6,0,B|318:221|311:166|398:200,1,140,4|0,3:2|3:2,0:0:0:0:
460,228,25378,1,2,0:0:0:0:
503,147,25544,2,0,L|496:68,1,70,0|2,3:0|0:0,0:0:0:0:
419,29,25875,1,0,3:0:0:0:
330,52,26041,1,2,0:0:0:0:
247,90,26207,6,0,L|240:172,1,70,0|2,3:0|0:0,0:0:0:0:
164,208,26538,2,0,L|157:135,1,70,0|2,3:0|0:0,0:0:0:0:
107,61,26870,1,0,3:0:0:0:
8,78,27036,1,2,0:0:0:0:
2,168,27201,2,0,L|4:252,1,70,2|2,3:2|0:0,0:0:0:0:
58,328,27533,6,0,P|107:313|194:351,1,140,2|0,3:2|3:0,0:0:0:0:
274,366,28030,1,2,0:0:0:0:
363,310,28196,2,0,L|356:153,1,140,2|0,3:2|3:0,0:0:0:0:
279,124,28693,1,2,0:0:0:0:
197,57,28859,6,0,P|242:23|348:42,1,140,2|0,3:2|3:0,0:0:0:0:
399,74,29356,1,2,0:0:0:0:
465,136,29522,2,0,L|459:215,1,70,0|2,3:2|0:0,0:0:0:0:
443,295,29853,1,2,3:2:0:0:
365,342,30019,1,2,0:0:0:0:
281,277,30185,6,0,B|208:253|215:315|130:282,1,140,2|2,3:2|3:2,0:0:0:0:
63,248,30682,1,2,0:0:0:0:
0,183,30848,2,0,P|5:112|26:39,1,140,2|2,3:2|3:2,0:0:0:0:
111,23,31345,1,2,0:0:0:0:
180,81,31511,6,0,L|261:77,1,70,2|2,3:2|0:0,0:0:0:0:
332,115,31842,1,2,3:2:0:0:
309,203,32008,1,2,0:0:0:0:
370,269,32174,2,0,L|466:263,1,70,0|2,3:0|0:0,0:0:0:0:
429,355,32505,2,0,L|337:349,1,70,0|2,3:0|0:0,0:0:0:0:
259,318,32837,6,0,L|111:314,1,140,2|0,3:2|3:0,0:0:0:0:
67,239,33334,1,2,0:0:0:0:
131,156,33500,2,0,L|274:152,1,140,0|0,3:0|3:0,0:0:0:0:
342,225,33997,1,2,0:0:0:0:
342,225,34080,1,2,3:2:0:0:
342,225,34163,6,0,L|450:218,1,83.9999974365235,2|6,3:2|3:2,0:0:0:0:
257,359,34660,2,0,L|80:347,1,167.999994873047,6|4,3:2|0:0,0:0:0:0:
33,80,35489,6,0,P|96:50|179:60,1,140,6|8,3:2|0:0,0:0:0:0:
249,86,35986,1,2,0:0:0:0:
322,140,36152,2,0,L|315:228,1,70,2|2,3:2|3:2,0:0:0:0:
303,300,36483,1,8,0:0:0:0:
220,339,36649,1,2,0:0:0:0:
132,316,36815,6,0,L|55:309,1,70,2|2,3:2|3:2,0:0:0:0:
28,224,37146,1,8,0:0:0:0:
64,140,37312,2,0,L|152:133,1,70,2|2,3:2|0:0,0:0:0:0:
191,63,37643,2,0,L|272:69,1,70,2|8,3:2|0:0,0:0:0:0:
345,34,37975,1,2,0:0:0:0:
449,45,38141,6,0,L|458:197,1,140,2|8,3:2|0:0,0:0:0:0:
503,262,38638,1,2,0:0:0:0:
439,344,38804,2,0,P|372:320|298:337,1,140,2|8,3:2|0:0,0:0:0:0:
233,277,39301,1,2,0:0:0:0:
194,179,39467,6,0,P|191:112|179:24,1,140,2|8,3:2|0:0,0:0:0:0:
92,19,39964,1,2,3:2:0:0:
42,95,40130,2,0,P|41:137|48:183,1,70,0|0,0:0|3:0,0:0:0:0:
114,222,40461,1,8,0:0:0:0:
194,179,40627,1,0,0:0:0:0:
288,224,40793,6,0,P|325:221|375:207,1,70,12|2,3:2|3:2,0:0:0:0:
428,156,41124,1,0,3:0:0:0:
500,232,41290,2,0,L|487:390,1,140,12|0,3:2|3:0,0:0:0:0:
397,367,41787,1,0,3:0:0:0:
297,332,41953,6,0,L|290:250,1,70,12|0,3:2|0:0,0:0:0:0:
215,210,42284,1,0,3:0:0:0:
126,231,42450,1,8,0:0:0:0:
35,178,42616,2,0,P|28:110|66:41,1,140,6|2,3:2|3:2,0:0:0:0:
149,35,43113,2,0,L|243:30,1,70,14|2,0:0|0:0,0:0:0:0:
324,29,43444,5,6,3:2:0:0:
402,75,43610,2,0,L|408:152,1,70,2|8,0:0|0:0,0:0:0:0:
480,200,43942,1,2,3:2:0:0:
480,200,44025,1,2,0:0:0:0:
480,200,44107,2,0,L|473:286,1,70,8|8,0:0|0:3,0:0:0:0:
406,331,44439,1,8,0:3:0:0:
328,260,44605,6,0,P|258:240|183:266,1,140,6|8,3:2|0:0,0:0:0:0:
130,322,45102,1,8,0:0:0:0:
45,286,45268,1,8,0:0:0:0:
65,197,45433,2,0,L|71:113,1,70,8|0,0:0|3:0,0:0:0:0:
132,60,45765,1,8,0:0:0:0:
222,48,45931,1,0,0:0:0:0:
296,121,46096,6,0,L|300:197,1,70,8|8,0:0|0:0,0:0:0:0:
364,256,46428,1,0,0:0:0:0:
434,198,46594,1,0,3:2:0:0:
434,198,46676,1,0,3:2:0:0:
434,198,46759,2,0,L|438:110,1,70,8|0,3:2|3:0,0:0:0:0:
380,56,47091,1,8,3:2:0:0:
296,121,47257,6,0,B|225:152|227:95|151:125,1,140,6|2,3:2|0:0,0:0:0:0:
80,165,47754,2,0,L|87:253,1,70,8|2,0:0|3:2,0:0:0:0:
166,277,48085,2,0,L|158:364,1,70,8|2,0:0|3:2,0:0:0:0:
248,370,48417,1,8,0:0:0:0:
338,359,48583,1,0,3:0:0:0:
425,302,48748,6,0,L|416:222,1,70,8|8,0:0|0:0,0:0:0:0:
384,146,49080,1,0,0:0:0:0:
241,33,49411,2,0,P|211:39|169:69,1,70,8|8,0:3|0:3,0:0:0:0:
161,149,49743,1,8,0:3:0:0:
101,235,49909,6,0,P|169:196|242:219,1,140,6|2,3:2|0:0,0:0:0:0:
303,255,50406,2,0,L|297:350,1,70,8|0,0:2|3:0,0:0:0:0:
212,353,50737,2,0,P|177:348|144:360,1,70,8|0,0:0|3:0,0:0:0:0:
54,373,51069,1,8,0:0:0:0:
1,299,51234,1,0,3:0:0:0:
31,202,51400,6,0,P|41:148|65:74,1,112,6|0,3:2|0:0,0:0:0:0:
142,63,51897,1,0,3:0:0:0:
203,129,52063,2,0,P|256:143|316:108,1,112,8|0,3:2|0:0,0:0:0:0:
367,54,52560,2,0,P|348:103|362:182,1,112,2|0,3:2|3:0,0:0:0:0:
426,213,53058,2,0,P|439:269|425:340,1,112,2|12,3:2|0:0,0:0:0:0:
351,363,53555,1,2,3:2:0:0:
274,315,53721,2,0,L|199:318,1,56,8|2,0:0|0:0,0:0:0:0:
141,251,54052,6,0,P|122:196|153:122,2,125.999996154785,6|0|0,3:2|3:0|3:0,0:0:0:0:
307,190,55047,1,2,3:2:0:0:
390,162,55212,2,0,B|371:103|371:103|400:29,1,125.999996154785,2|2,0:0|0:0,0:0:0:0:
464,98,55710,2,0,L|503:239,2,125.999996154785,0|2|2,3:0|3:2|3:2,0:0:0:0:
298,35,56704,6,0,L|217:28,1,70,14|0,3:2|3:0,0:0:0:0:
138,49,57036,1,0,3:0:0:0:
48,65,57201,2,0,B|27:132|27:132|60:213,1,140,14|14,0:0|0:0,0:0:0:0:
127,250,57699,1,2,3:2:0:0:
193,311,57864,2,0,P|136:281|59:321,1,140,12|14,0:0|0:0,0:0:0:0:
129,376,58362,1,2,3:2:0:0:
193,311,58527,2,0,L|279:317,1,70,2|12,3:2|0:0,0:0:0:0:
341,362,58859,2,0,L|422:356,1,70,2|8,3:2|3:0,0:0:0:0:
473,290,59190,1,8,3:0:0:0:
443,189,59356,6,0,L|448:113,2,70,6|8|8,3:2|0:0|0:0,0:0:0:0:
358,222,59853,1,10,0:0:0:0:
358,222,60019,1,8,0:0:0:0:
272,191,60185,1,10,0:0:0:0:
272,191,60351,1,8,0:0:0:0:
185,218,60516,2,0,B|116:244|120:184|42:213,1,140,6|6,3:2|3:2,0:0:0:0:
49,210,62008,6,0,P|62:141|149:117,1,154.000004699707,6|8,3:2|0:0,0:0:0:0:
232,129,62505,1,2,0:0:0:0:
330,148,62671,2,0,L|423:140,1,77.0000023498536,2|0,3:2|0:0,0:0:0:0:
477,212,63002,1,8,0:0:0:0:
402,277,63168,2,0,P|374:220|427:127,1,154.000004699707,2|2,0:0|0:0,0:0:0:0:
454,52,63665,2,0,L|368:42,1,77.0000023498536,8|2,0:0|0:0,0:0:0:0:
277,28,63997,1,0,3:2:0:0:
194,84,64163,1,2,0:0:0:0:
232,175,64328,2,0,L|240:252,1,77.0000023498536,8|2,0:0|0:0,0:0:0:0:
128,285,64660,6,0,L|137:197,1,77.0000023498536,6|2,3:2|0:0,0:0:0:0:
55,148,64991,1,8,0:0:0:0:
12,239,65157,2,0,L|22:332,1,77.0000023498536,2|2,0:0|3:2,0:0:0:0:
101,375,65489,2,0,P|140:364|194:372,1,77.0000023498536,2|8,0:0|0:0,0:0:0:0:
276,373,65820,2,0,L|431:359,1,154.000004699707,2|0,0:0|0:0,0:0:0:0:
502,290,66317,1,8,0:0:0:0:
445,207,66483,2,0,L|352:199,1,77.0000023498536,2|2,0:0|3:2,0:0:0:0:
284,256,66815,2,0,L|198:264,1,77.0000023498536,2|8,0:0|0:0,0:0:0:0:
127,216,67146,1,10,0:0:0:0:
127,216,67229,1,8,0:0:0:0:
127,216,67312,6,0,P|98:147|140:77,1,154.000004699707,6|10,3:2|0:0,0:0:0:0:
220,31,67809,2,0,L|311:36,1,77.0000023498536,2|0,0:0|3:2,0:0:0:0:
357,115,68141,2,0,L|271:120,1,77.0000023498536,2|8,0:0|0:0,0:0:0:0:
221,200,68472,2,0,B|210:255|210:255|226:302|226:302|214:362,1,154.000004699707,2|2,0:0|0:0,0:0:0:0:
120,376,68969,1,8,0:0:0:0:
35,322,69135,1,2,0:0:0:0:
15,223,69301,2,0,P|19:185|29:146,1,77.0000023498536,0|2,3:2|0:0,0:0:0:0:
129,137,69632,1,8,0:0:0:0:
221,200,69798,1,2,0:0:0:0:
221,200,69881,1,0,0:0:0:0:
221,200,69964,6,0,L|397:186,1,154.000004699707,6|8,3:2|0:0,0:0:0:0:
422,99,70461,2,0,L|255:87,1,154.000004699707,6|8,3:2|0:0,0:0:0:0:
181,38,70958,2,0,L|90:46,1,77.0000023498536,6|2,3:2|3:2,0:0:0:0:
13,87,71290,1,8,0:0:0:0:
40,182,71455,1,2,3:2:0:0:
133,218,71621,2,0,P|136:258|130:313,1,77.0000023498536,12|2,0:0|3:2,0:0:0:0:
209,361,71953,2,0,L|270:356,3,38.5000011749268,12|8|8|8,3:2|0:0|0:0|0:0,0:0:0:0:
290,332,72284,2,0,L|351:338,3,38.5000011749268,8|8|8|8,3:2|0:0|0:0|0:0,0:0:0:0:
363,299,72616,6,0,P|359:258|351:208,1,77.0000023498536,6|2,3:2|0:0,0:0:0:0:
267,171,72947,2,0,P|271:130|279:80,1,77.0000023498536,10|2,0:0|0:0,0:0:0:0:
359,38,73279,2,0,P|420:31|466:117,1,154.000004699707,2|8,3:2|0:0,0:0:0:0:
416,186,73776,2,0,B|294:235|312:130|176:187,1,231.000007049561,2|8,0:0|0:0,0:0:0:0:
119,247,74439,1,2,0:0:0:0:
203,301,74605,2,0,P|241:309|288:300,1,77.0000023498536,0|2,3:2|0:0,0:0:0:0:
378,294,74936,2,0,L|386:399,1,77.0000023498536,8|2,0:0|0:0,0:0:0:0:
481,343,75268,6,0,L|492:179,1,154.000004699707,6|10,3:2|0:0,0:0:0:0:
430,109,75765,1,0,0:0:0:0:
333,81,75931,2,0,P|338:37|356:-4,2,77.0000023498536,6|2|8,3:2|0:0|0:0,0:0:0:0:
264,154,76428,1,2,0:0:0:0:
182,212,76594,2,0,B|133:219|133:219|75:201|75:201|25:209,1,154.000004699707,6|12,3:2|3:2,0:0:0:0:
8,305,77091,1,2,3:2:0:0:
103,336,77257,2,0,L|97:386,2,38.5000011749268,8|8|8,3:2|0:0|0:0,0:0:0:0:
201,317,77588,1,8,0:0:0:0:
274,249,77754,1,8,0:3:0:0:
274,249,77837,1,8,0:0:0:0:
274,249,77920,6,0,B|280:188|280:188|262:141|262:141|268:93,1,154.000004699707,6|8,3:2|0:0,0:0:0:0:
187,38,78417,1,2,0:0:0:0:
100,88,78583,2,0,L|14:94,2,77.0000023498536,2|2|10,3:2|0:0|0:0,0:0:0:0:
187,38,79080,1,2,0:0:0:0:
267,98,79246,2,0,B|342:118|342:118|426:97,1,154.000004699707,2|8,3:2|0:0,0:0:0:0:
505,53,79743,1,2,0:0:0:0:
505,153,79909,2,0,P|509:184|502:240,1,77.0000023498536,0|2,3:0|0:0,0:0:0:0:
410,264,80240,2,0,P|405:302|409:340,1,77.0000023498536,8|2,0:0|0:0,0:0:0:0:
311,361,80572,6,0,P|249:311|179:333,1,154.000004699707,6|8,3:2|0:0,0:0:0:0:
90,367,81069,1,0,0:0:0:0:
36,283,81234,2,0,L|31:194,1,77.0000023498536,2|2,3:2|0:0,0:0:0:0:
129,182,81566,2,0,L|136:93,1,77.0000023498536,8|2,0:0|0:0,0:0:0:0:
224,59,81897,2,0,L|239:237,1,154.000004699707,8|12,0:0|3:2,0:0:0:0:
317,272,82395,1,0,3:0:0:0:
411,241,82560,2,0,L|418:191,3,38.5000011749268,8|8|8|8,3:2|0:0|0:0|0:0,0:0:0:0:
444,161,82892,2,0,L|438:119,3,38.5000011749268,8|8|8|8,0:0|0:0|0:0|0:0,0:0:0:0:
430,78,83223,5,0,0:0:0:0:
272,43,83555,6,0,B|206:24|210:61|132:41,1,125.999996154785,14|0,3:2|3:0,0:0:0:0:
65,48,84052,2,0,L|72:185,1,125.999996154785,14|0,3:2|3:0,0:0:0:0:
133,238,84549,2,0,P|211:223|255:305,1,168,14|8,3:2|0:0,0:0:0:0:
284,367,85212,2,0,L|350:361,1,56,8|8,3:3|3:0,0:0:0:0:
423,354,85543,1,8,0:0:0:0:
423,354,85709,1,0,3:3:0:0:
256,192,85875,12,0,88527,0:0:0:0:
