osu file format v14

[General]
AudioFilename: audio.mp3
AudioLeadIn: 0
PreviewTime: 62008
Countdown: 0
SampleSet: Soft
StackLeniency: 0.7
Mode: 0
LetterboxInBreaks: 0
WidescreenStoryboard: 0

[Editor]
DistanceSpacing: 1.4
BeatDivisor: 4
GridSize: 4
TimelineZoom: 1.5

[Metadata]
Title:Habataki no Birthday
TitleUnicode:羽ばたきのバースデイ
Artist:Baby's breath
ArtistUnicode:Baby's breath
Creator:ShogunMoon
Version:Gaia's Insane
Source:天使の3P!
Tags:Tenshi no 3P! Angel's 3Piece! 五島 潤 Jun Gotou 大野柚布子 Oono Yuuko 紅葉谷希美 Nozomi Momijidani 遠藤 ゆりか Endo Yurika 金城そら Sora Kaneshiro 古賀 葵 Koga Aoi tv size opening naotoshi gaia hazu- irohas dailycare SnowNiNo_
BeatmapID:1400253
BeatmapSetID:661398

[Difficulty]
HPDrainRate:5.5
CircleSize:4
OverallDifficulty:7
ApproachRate:8.5
SliderMultiplier:1.6
SliderTickRate:1

[Events]
//Background and Video events
0,0,"lolii.jpg",0,0
Video,0,"tenshi.mp4"
//Break Periods
//Storyboard Layer 0 (Background)
//Storyboard Layer 1 (Fail)
//Storyboard Layer 2 (Pass)
//Storyboard Layer 3 (Foreground)
//Storyboard Sound Samples

[TimingPoints]
1014,331.491712707182,4,2,7,40,1,0
1014,-125,4,2,7,40,0,0
6317,-111.111111111111,4,2,7,50,0,0
11953,-76.9230769230769,4,2,7,70,0,0
12947,-111.111111111111,4,2,7,70,0,0
13942,-76.9230769230769,4,2,7,70,0,0
14025,-76.9230769230769,4,2,7,40,0,0
14273,-100,4,2,7,60,0,0
24881,-125,4,2,7,50,0,0
34080,-125,4,2,7,60,0,0
34328,-76.9230769230769,4,2,7,70,0,0
34660,-100,4,2,7,60,0,0
34991,-100,4,2,7,50,0,0
35157,-100,4,2,7,40,0,0
35489,-100,4,2,7,60,0,0
44936,-100,4,2,7,40,0,0
45433,-100,4,2,7,50,0,0
46096,-133.333333333333,4,2,7,50,0,0
47257,-100,4,2,7,60,0,0
48748,-133.333333333333,4,2,7,50,0,0
49411,-117.647058823529,4,2,7,50,0,0
49909,-100,4,2,7,60,0,0
51400,-142.857142857143,4,2,7,50,0,0
52560,-125,4,2,7,50,0,0
53058,-142.857142857143,4,2,7,50,0,0
53721,-111.111111111111,4,2,7,50,0,0
54052,-100,4,2,7,50,0,0
56704,-142.857142857143,4,2,7,60,0,0
57864,-125,4,2,7,60,0,0
59356,-111.111111111111,4,2,7,60,0,0
59522,-111.111111111111,4,2,7,50,0,0
59853,-111.111111111111,4,2,7,55,0,0
60185,-100,4,2,7,60,0,0
60516,-83.3333333333333,4,2,7,70,0,0
60931,-83.3333333333333,4,2,7,5,0,0
62008,-90.9090909090909,4,2,7,70,0,1
69964,-76.9230769230769,4,2,7,70,0,1
70958,-100,4,2,7,70,0,1
71621,-90.9090909090909,4,2,7,70,0,1
71953,-83.3333333333333,4,2,7,70,0,1
72616,-90.9090909090909,4,2,7,70,0,1
83223,-90.9090909090909,4,2,7,70,0,0
84549,-111.111111111111,4,2,7,70,0,0
85212,-100,4,2,7,70,0,0
85875,-117.647058823529,4,2,7,50,0,0
87036,-117.647058823529,4,2,7,40,0,0
88527,-117.647058823529,4,2,7,5,0,0

[Colours]
Combo1 : 0,128,64
Combo2 : 0,128,255
Combo3 : 241,223,1

[HitObjects]
130,108,1014,6,0,P|138:146|144:191,1,64,2|2,0:0|0:0,0:0:0:0:
246,188,1345,2,0,L|236:274,1,64,2|2,0:0|0:0,0:0:0:0:
126,322,1676,2,0,P|159:291|246:292,1,128,2|2,0:0|0:0,0:0:0:0:
361,151,2174,1,2,0:0:0:0:
437,202,2339,6,0,P|404:233|317:232,1,128,2|2,0:0|0:0,0:0:0:0:
241,77,2837,1,2,0:0:0:0:
241,77,3002,2,0,P|252:111|256:163,1,64,2|0,0:0|0:0,0:0:0:0:
61,154,3334,2,0,P|90:146|134:140,1,64,2|0,0:0|0:0,0:0:0:0:
293,234,3665,6,0,L|152:218,1,128,2|2,0:0|0:0,0:0:0:0:
165,219,4328,2,0,P|201:273|190:355,1,128,2|2,0:0|0:0,0:0:0:0:
44,280,4826,6,0,L|63:135,1,128,2|2,0:0|0:0,0:0:0:0:
152,24,5323,2,0,L|165:109,1,64,2|0,0:0|0:0,0:0:0:0:
245,35,5654,1,2,0:0:0:0:
68,68,5820,1,2,0:0:0:0:
166,123,5986,1,2,0:0:0:0:
42,59,6152,1,2,0:0:0:0:
258,124,6317,6,0,P|294:119|335:104,1,71.9999978027344,2|0,3:2|0:0,0:0:0:0:
430,41,6649,2,0,L|418:113,1,71.9999978027344,2|0,3:2|0:0,0:0:0:0:
395,256,6980,1,2,3:2:0:0:
478,166,7146,1,2,0:0:0:0:
337,127,7312,1,2,3:2:0:0:
403,269,7478,1,2,0:0:0:0:
301,222,7643,6,0,P|225:237|157:257,1,143.999995605469,2|2,3:2|3:2,0:0:0:0:
106,369,8141,1,2,0:0:0:0:
115,361,8223,1,2,0:0:0:0:
126,352,8306,2,0,P|134:318|136:262,1,71.9999978027344,2|0,3:2|0:0,0:0:0:0:
34,166,8638,2,0,P|36:201|44:236,1,71.9999978027344,2|0,3:2|0:0,0:0:0:0:
161,188,8969,6,0,P|230:207|300:221,1,143.999995605469,2|2,3:2|3:2,0:0:0:0:
313,213,9632,1,2,3:2:0:0:
376,91,9798,1,2,0:0:0:0:
256,116,9964,1,2,3:2:0:0:
436,179,10130,1,2,0:0:0:0:
445,171,10212,1,2,0:0:0:0:
454,161,10295,6,0,P|471:132|474:82,1,71.9999978027344,2|0,3:2|0:0,0:0:0:0:
350,8,10627,2,0,L|367:93,1,71.9999978027344,2|2,3:2|0:0,0:0:0:0:
448,248,10958,2,0,P|410:236|323:224,1,107.999996704102,2|0,3:2|0:0,0:0:0:0:
300,221,11290,1,4,3:0:0:0:
370,356,11455,1,8,3:2:0:0:
370,356,11953,6,0,B|286:348|241:378|241:378|241:332|186:288,1,207.999990478516,6|0,3:2|0:0,0:0:0:0:
91,316,12450,2,0,B|142:349|142:349|213:288|160:215,1,207.999990478516,6|0,3:2|0:0,0:0:0:0:
75,142,12947,6,0,B|114:150|140:184|140:184|181:183|209:150|209:150|241:167|276:178|276:178|300:152|351:153,1,287.999991210938,6|0,3:2|0:0,0:0:0:0:
474,175,13776,1,0,3:2:0:0:
405,93,13942,6,0,P|363:152|395:246,1,155.999992858887,6|0,3:2|0:0,0:0:0:0:
485,301,14273,6,0,P|448:306|403:320,1,80,6|2,3:2|0:0,0:0:0:0:
214,241,14605,2,0,P|257:251|311:254,1,80,8|2,0:0|0:0,0:0:0:0:
456,171,14936,1,0,3:2:0:0:
250,68,15102,2,0,P|259:116|265:160,1,80,2|8,0:0|0:0,0:0:0:0:
159,337,15433,6,0,P|160:285|196:251,1,80,2|0,0:0|3:0,0:0:0:0:
382,228,15765,2,0,P|336:253|289:238,1,80,2|8,0:0|0:0,0:0:0:0:
133,138,16096,2,0,L|230:154,1,80,2|0,0:0|3:0,0:0:0:0:
373,93,16428,1,2,0:0:0:0:
292,254,16594,1,10,0:0:0:0:
242,37,16759,1,2,0:0:0:0:
461,100,16925,6,0,L|382:113,1,80,6|2,3:2|0:0,0:0:0:0:
422,305,17257,2,0,P|433:279|434:222,1,80,10|2,0:0|0:0,0:0:0:0:
406,29,17588,1,0,3:0:0:0:
288,101,17754,2,0,L|305:188,1,80,2|8,0:0|0:0,0:0:0:0:
205,166,18085,6,0,B|118:189|132:132|28:143,1,160,2|2,0:0|0:0,0:0:0:0:
173,77,18583,1,8,0:0:0:0:
70,239,18748,2,0,L|54:317,1,80,2|2,0:0|3:2,0:0:0:0:
240,318,19080,2,0,P|214:309|136:290,1,80,2|8,0:0|0:0,0:0:0:0:
303,179,19411,1,10,0:0:0:0:
309,200,19494,1,10,0:0:0:0:
315,224,19577,6,0,P|385:217|474:203,1,160,6|8,3:2|0:0,0:0:0:0:
475,67,20074,1,2,0:0:0:0:
399,2,20240,2,0,P|376:34|382:89,1,80,0|2,3:0|0:0,0:0:0:0:
315,224,20572,2,0,P|306:186|289:127,1,80,8|2,0:0|0:0,0:0:0:0:
138,10,20903,6,0,P|185:52|303:32,1,160,2|8,3:2|0:0,0:0:0:0:
212,208,21400,2,0,P|165:214|123:225,1,80,2|0,0:0|3:0,0:0:0:0:
37,159,21732,1,2,0:0:0:0:
191,308,21897,2,0,P|234:318|281:324,1,80,8|2,0:0|0:0,0:0:0:0:
466,277,22229,5,6,3:2:0:0:
315,224,22395,2,0,L|323:163,2,40,2|2|2,3:2|3:2|3:2,0:0:0:0:
442,357,22726,2,0,P|432:291|424:191,1,160,14|2,3:2|3:2,0:0:0:0:
492,118,23141,1,2,3:2:0:0:
500,136,23223,2,0,P|465:156|397:161,1,80,8|2,3:2|0:0,0:0:0:0:
274,70,23555,5,6,3:2:0:0:
417,52,23721,2,0,L|409:-9,2,40,2|2|2,3:2|3:2|3:2,0:0:0:0:
309,160,24052,2,0,P|248:108|148:128,1,160,14|2,3:2|0:0,0:0:0:0:
80,196,24549,1,8,3:0:0:0:
97,208,24881,6,0,P|108:269|115:349,1,128,4|0,3:2|3:2,0:0:0:0:
18,292,25378,1,2,0:0:0:0:
206,320,25544,2,0,P|212:286|216:246,1,64,0|2,3:0|0:0,0:0:0:0:
172,112,25875,2,0,P|204:123|247:127,1,64,0|2,3:0|0:0,0:0:0:0:
373,83,26207,5,0,3:0:0:0:
333,212,26373,1,2,0:0:0:0:
254,128,26538,1,0,3:0:0:0:
416,178,26704,1,2,0:0:0:0:
416,178,26787,1,2,0:0:0:0:
416,178,26870,2,0,P|384:182|354:193,1,64,0|2,3:0|0:0,0:0:0:0:
396,335,27201,2,0,L|408:269,1,64,2|2,3:2|0:0,0:0:0:0:
291,49,27533,6,0,L|313:180,1,128,2|0,3:2|3:0,0:0:0:0:
231,334,28030,1,2,0:0:0:0:
210,243,28196,2,0,B|273:231|274:282|346:259,1,128,2|0,3:2|3:0,0:0:0:0:
473,154,28693,1,2,0:0:0:0:
325,112,28859,6,0,P|316:140|312:184,1,64,2|2,3:2|0:0,0:0:0:0:
457,341,29190,2,0,L|440:250,1,64,0|2,3:0|0:0,0:0:0:0:
428,169,29522,1,0,3:2:0:0:
341,282,29688,1,2,0:0:0:0:
469,253,29853,1,2,3:2:0:0:
288,196,30019,1,2,0:0:0:0:
228,351,30185,6,0,P|274:320|361:326,1,128,2|2,3:2|3:2,0:0:0:0:
428,169,30682,1,2,0:0:0:0:
244,191,30848,2,0,L|109:173,1,128,2|2,3:2|3:2,0:0:0:0:
218,95,31345,1,2,0:0:0:0:
147,267,31511,6,0,P|108:278|76:279,1,64,2|2,3:2|0:0,0:0:0:0:
268,194,31842,1,2,3:2:0:0:
125,66,32008,2,0,P|156:68|187:78,1,64,2|0,0:0|3:0,0:0:0:0:
303,258,32339,2,0,L|283:177,1,64,2|0,0:0|3:0,0:0:0:0:
326,76,32671,1,2,0:0:0:0:
436,22,32837,6,0,P|431:88|419:153,1,128,2|0,3:2|3:0,0:0:0:0:
268,194,33334,1,2,0:0:0:0:
430,230,33500,2,0,P|464:222|507:212,1,64,0|2,3:0|0:0,0:0:0:0:
339,337,33831,2,0,P|307:335|276:332,1,64,0|2,3:0|0:0,0:0:0:0:
192,336,34080,1,2,3:2:0:0:
195,351,34163,5,2,3:2:0:0:
268,194,34328,2,0,P|195:233|105:223,1,155.999992858887,6|0,3:2|0:0,0:0:0:0:
31,137,34660,2,0,P|26:179|22:239,1,80,6|0,3:2|0:0,0:0:0:0:
174,38,34991,2,0,P|178:80|183:140,1,80,4|0,0:0|0:0,0:0:0:0:
181,117,35489,5,6,3:2:0:0:
309,34,35654,1,2,0:0:0:0:
401,189,35820,2,0,P|361:183|319:175,1,80,8|2,0:0|0:0,0:0:0:0:
299,168,36069,1,2,0:0:0:0:
300,168,36152,2,0,P|312:213|313:259,1,80,2|2,3:2|3:2,0:0:0:0:
201,226,36483,1,8,0:0:0:0:
245,22,36649,1,2,0:0:0:0:
300,168,36815,5,2,3:2:0:0:
105,113,36980,1,2,3:2:0:0:
271,160,37146,1,8,0:0:0:0:
96,257,37312,2,0,P|135:246|174:241,2,80,2|2|2,3:2|0:0|3:2,0:0:0:0:
242,69,37809,2,0,P|281:79|320:84,1,80,8|2,0:0|0:0,0:0:0:0:
415,26,38141,5,2,3:2:0:0:
322,175,38306,1,2,3:2:0:0:
494,211,38472,2,0,P|454:216|415:226,1,80,8|2,0:0|0:0,0:0:0:0:
476,314,38804,1,2,3:2:0:0:
436,123,38969,1,2,3:2:0:0:
340,309,39135,2,0,P|300:303|261:293,1,80,8|2,0:0|0:0,0:0:0:0:
146,174,39467,5,2,3:2:0:0:
256,270,39632,1,2,3:2:0:0:
112,324,39798,1,8,0:0:0:0:
256,270,39964,2,0,P|296:193|268:108,1,160,2|0,3:2|3:0,0:0:0:0:
306,13,40461,2,0,L|226:25,1,80,8|0,0:0|0:0,0:0:0:0:
94,52,40793,5,12,3:2:0:0:
396,80,40958,2,0,P|411:45|416:-5,1,80,2|0,3:2|3:0,0:0:0:0:
443,168,41290,2,0,P|389:120|286:146,1,160,12|0,3:2|3:0,0:0:0:0:
173,105,41787,1,0,3:0:0:0:
320,223,41953,6,0,P|331:260|331:319,1,80,12|0,3:2|0:0,0:0:0:0:
233,281,42284,1,0,3:0:0:0:
421,253,42450,1,8,0:0:0:0:
173,362,42616,2,0,P|134:299|162:215,1,160,6|2,3:2|3:2,0:0:0:0:
152,203,43030,1,2,0:0:0:0:
152,203,43113,2,0,P|107:217|48:226,1,80,14|2,0:0|0:0,0:0:0:0:
221,89,43444,5,6,3:2:0:0:
82,110,43610,2,0,L|-15:102,1,80,2|8,0:0|0:0,0:0:0:0:
210,54,43942,2,0,L|216:8,2,40,2|2|8,3:2|0:0|0:0,0:0:0:0:
290,167,44273,1,8,0:3:0:0:
383,83,44439,1,8,0:3:0:0:
458,211,44605,6,0,P|394:193|289:189,1,160,6|8,3:2|0:0,0:0:0:0:
252,314,45102,1,8,0:0:0:0:
368,280,45268,1,8,0:0:0:0:
353,75,45433,1,8,0:0:0:0:
287,217,45599,1,0,3:0:0:0:
147,118,45765,2,0,P|177:115|239:109,1,80,8|0,0:0|0:0,0:0:0:0:
353,75,46096,5,8,0:0:0:0:
353,75,46262,2,0,P|343:117|341:148,1,60.0000022888184,8|0,0:0|0:0,0:0:0:0:
368,280,46594,2,0,L|411:268,2,30.0000011444092,0|0|8,3:2|3:2|3:2,0:0:0:0:
287,217,46925,1,0,3:0:0:0:
447,191,47091,1,8,3:2:0:0:
398,369,47257,6,0,P|364:328|253:338,1,160,6|2,3:2|0:0,0:0:0:0:
100,234,47754,2,0,P|126:248|200:243,1,80,8|2,0:0|3:2,0:0:0:0:
339,178,48085,1,8,0:0:0:0:
353,75,48251,1,2,3:2:0:0:
353,75,48334,1,2,3:2:0:0:
353,75,48417,2,0,P|313:75|277:92,1,80,8|0,0:0|3:0,0:0:0:0:
161,148,48748,5,8,0:0:0:0:
161,148,48914,2,0,L|171:72,1,60.0000022888184,8|0,0:0|0:0,0:0:0:0:
34,178,49301,1,8,0:3:0:0:
24,187,49411,2,0,P|14:233|26:265,2,68.0000012969971,8|8|8,0:3|0:3|0:3,0:0:0:0:
141,333,49909,6,0,P|87:290|-20:302,1,160,6|2,3:2|0:0,0:0:0:0:
252,268,50406,2,0,P|261:311|261:367,1,80,8|0,0:2|3:0,0:0:0:0:
158,167,50737,2,0,P|159:127|168:88,1,80,8|0,0:0|3:0,0:0:0:0:
373,117,51069,2,0,P|334:130|280:139,1,80,8|0,0:0|3:0,0:0:0:0:
82,195,51400,6,0,B|197:211|197:211|202:244|212:274,1,167.999994873047,6|0,3:2|3:0,0:0:0:0:
324,245,52063,2,0,P|304:297|297:353,1,111.999996582031,8|0,3:2|0:0,0:0:0:0:
478,365,52560,6,0,P|425:347|431:271,1,128,2|0,3:2|3:0,0:0:0:0:
503,171,53058,2,12,P|452:193|380:189,1,111.999996582031,2|12,3:2|0:0,0:0:0:0:
274,124,53555,1,2,3:2:0:0:
242,29,53721,2,0,P|276:25|317:36,1,71.9999978027344,8|2,0:0|0:0,0:0:0:0:
377,171,54052,6,0,P|369:112|350:-3,1,160,6|0,3:2|3:0,0:0:0:0:
274,124,54549,1,2,0:0:0:0:
274,124,54715,2,0,P|266:168|263:222,1,80,0|2,3:0|0:0,0:0:0:0:
300,330,55047,1,2,3:2:0:0:
396,193,55212,6,0,P|405:233|409:276,1,80,2|0,0:0|3:0,0:0:0:0:
203,354,55544,2,0,P|212:315|216:275,2,80,2|0|0,0:0|3:0|0:0,0:0:0:0:
34,312,56041,2,0,L|138:295,1,80,2|0,3:2|0:0,0:0:0:0:
274,124,56373,2,0,L|195:136,1,80,2|0,3:2|0:0,0:0:0:0:
18,158,56704,5,14,3:2:0:0:
156,40,56870,2,0,P|187:41|226:56,1,55.9999982910157,0|0,3:0|3:0,0:0:0:0:
263,224,57201,2,0,P|294:222|333:208,1,55.9999982910157,14|0,0:0|3:0,0:0:0:0:
415,61,57533,5,14,0:0:0:0:
274,124,57699,1,2,3:2:0:0:
410,256,57864,2,0,P|411:234|421:180,1,64,12|2,0:0|0:0,0:0:0:0:
266,92,58196,5,14,0:0:0:0:
407,155,58362,1,2,3:2:0:0:
271,287,58527,2,0,P|269:265|260:211,1,64,2|12,3:2|0:0,0:0:0:0:
156,40,58859,2,0,P|146:77|149:118,2,64,2|8|8,3:2|3:0|3:0,0:0:0:0:
266,92,59356,5,6,3:2:0:0:
145,139,59522,1,8,0:0:0:0:
262,223,59688,1,8,0:0:0:0:
362,77,59853,2,0,L|284:89,1,71.9999978027344,10|8,0:0|0:0,0:0:0:0:
72,243,60185,2,0,L|155:255,1,80,10|8,0:0|0:0,0:0:0:0:
400,329,60516,6,0,P|389:269|297:256,1,143.999995605469,6|0,3:2|0:0,0:0:0:0:
263,224,60848,2,0,L|277:278,1,47.9999985351563,6|0,3:2|0:0,0:0:0:0:
314,363,62008,6,0,P|280:357|213:349,1,88.000002685547,6|2,3:2|0:0,0:0:0:0:
331,159,62339,2,0,P|326:198|313:258,1,88.000002685547,8|2,0:0|0:0,0:0:0:0:
175,184,62671,2,0,B|131:133|155:64|155:64|212:42,1,176.000005371094,2|8,3:2|0:0,0:0:0:0:
314,109,63168,1,2,0:0:0:0:
445,49,63334,6,0,P|445:103|428:153,1,88.000002685547,0|2,3:2|0:0,0:0:0:0:
314,109,63665,1,8,0:0:0:0:
336,288,63831,2,0,P|377:238|503:245,1,176.000005371094,2|2,0:0|0:0,0:0:0:0:
260,204,64328,2,0,P|217:197|170:182,1,88.000002685547,8|2,0:0|0:0,0:0:0:0:
314,109,64660,5,6,3:2:0:0:
156,203,64826,2,0,P|149:258|174:295,1,88.000002685547,2|8,0:0|0:0,0:0:0:0:
188,98,65157,2,0,P|148:92|96:78,1,88.000002685547,2|2,0:0|3:2,0:0:0:0:
336,288,65489,2,0,P|378:276|421:270,1,88.000002685547,2|8,0:0|0:0,0:0:0:0:
338,130,65820,1,2,0:0:0:0:
413,33,65986,6,0,P|452:85|419:210,1,176.000005371094,2|8,3:2|0:0,0:0:0:0:
314,109,66483,1,2,0:0:0:0:
174,183,66649,2,0,P|172:140|199:85,1,88.000002685547,2|2,3:2|0:0,0:0:0:0:
324,200,66980,2,0,L|335:287,1,88.000002685547,8|10,0:0|0:0,0:0:0:0:
412,358,67229,1,8,0:0:0:0:
418,337,67312,6,0,B|335:302|342:373|234:350,1,176.000005371094,6|10,3:2|0:0,0:0:0:0:
77,301,67809,2,0,L|184:281,1,88.000002685547,2|0,0:0|3:2,0:0:0:0:
353,96,68141,2,0,L|266:112,1,88.000002685547,2|8,0:0|0:0,0:0:0:0:
98,66,68472,6,0,P|84:124|112:171,1,88.000002685547,2|0,0:0|3:0,0:0:0:0:
335,287,68804,2,0,P|344:244|329:203,1,88.000002685547,2|8,0:0|0:0,0:0:0:0:
266,112,69135,2,0,P|300:163|417:160,1,176.000005371094,2|2,0:0|0:0,0:0:0:0:
505,346,69632,2,0,P|464:340|400:336,1,88.000002685547,8|2,0:0|0:0,0:0:0:0:
242,247,69964,6,0,P|287:284|267:382,1,155.999992858887,6|8,3:2|0:0,0:0:0:0:
252,383,70295,1,8,0:0:0:0:
145,295,70461,6,0,L|161:138,1,155.999992858887,6|8,3:2|0:0,0:0:0:0:
165,106,70793,1,8,0:0:0:0:
26,66,70958,6,0,P|24:118|50:149,1,80,6|2,3:2|3:2,0:0:0:0:
165,106,71290,1,8,0:0:0:0:
19,163,71455,1,2,3:2:0:0:
285,171,71621,2,0,P|305:131|298:87,1,88.000002685547,12|2,0:0|3:2,0:0:0:0:
196,214,71953,6,0,L|206:270,3,47.9999985351563,12|8|8|8,3:2|0:0|0:0|0:0,0:0:0:0:
218,277,72284,1,8,3:2:0:0:
241,283,72366,1,8,0:0:0:0:
264,290,72449,1,8,0:0:0:0:
287,296,72532,1,8,0:0:0:0:
310,303,72616,6,0,L|416:289,1,88.000002685547,6|2,3:2|0:0,0:0:0:0:
510,156,72947,2,0,L|422:144,1,88.000002685547,10|2,0:0|0:0,0:0:0:0:
165,106,73279,2,0,P|267:104|295:12,1,176.000005371094,2|8,3:2|0:0,0:0:0:0:
399,144,73776,1,2,0:0:0:0:
196,214,73942,6,0,P|150:222|82:225,1,88.000002685547,2|2,3:2|0:0,0:0:0:0:
217,40,74273,1,8,0:0:0:0:
306,181,74439,2,0,P|293:269|286:370,1,176.000005371094,2|2,0:0|0:0,0:0:0:0:
408,248,74936,2,0,P|412:297|418:343,1,88.000002685547,8|2,0:0|0:0,0:0:0:0:
179,305,75268,6,0,P|94:330|35:251,1,176.000005371094,6|10,3:2|0:0,0:0:0:0:
25,258,75931,2,0,P|13:302|13:356,1,88.000002685547,6|2,3:2|0:0,0:0:0:0:
196,214,76262,2,0,P|194:170|182:127,1,88.000002685547,8|2,0:0|0:0,0:0:0:0:
326,10,76594,6,0,P|384:56|467:38,1,132.00000402832,6|0,3:2|0:0,0:0:0:0:
501,123,76925,2,0,P|455:127|400:148,1,88.000002685547,12|2,3:2|3:2,0:0:0:0:
291,335,77257,1,8,3:2:0:0:
334,338,77339,1,8,0:0:0:0:
370,314,77422,1,8,0:0:0:0:
384,273,77505,1,8,0:0:0:0:
371,232,77588,2,0,P|319:227|267:217,1,88.000002685547,8|8,0:0|0:3,0:0:0:0:
206,201,77837,1,8,0:0:0:0:
196,214,77920,6,0,L|213:316,1,88.000002685547,6|2,3:2|0:0,0:0:0:0:
49,384,78251,2,0,L|34:297,1,88.000002685547,8|2,0:0|0:0,0:0:0:0:
86,125,78583,1,2,3:2:0:0:
124,290,78748,1,2,0:0:0:0:
0,215,78914,1,10,0:0:0:0:
200,114,79080,1,2,0:0:0:0:
119,196,79246,6,0,P|88:139|126:27,1,176.000005371094,2|8,3:2|0:0,0:0:0:0:
242,100,79743,1,2,0:0:0:0:
241,228,79909,2,0,P|201:222|131:218,1,88.000002685547,0|2,3:0|0:0,0:0:0:0:
329,34,80240,2,0,P|349:76|336:138,1,88.000002685547,8|2,0:0|0:0,0:0:0:0:
354,338,80572,6,0,P|349:281|429:204,1,176.000005371094,6|8,3:2|0:0,0:0:0:0:
443,215,81234,1,2,3:2:0:0:
306,136,81400,1,2,0:0:0:0:
446,74,81566,1,8,0:0:0:0:
238,78,81732,1,2,0:0:0:0:
241,285,81897,6,0,P|290:276|337:271,1,88.000002685547,8|2,0:0|3:2,0:0:0:0:
66,153,82229,2,0,P|115:161|162:167,1,88.000002685547,12|0,3:2|3:0,0:0:0:0:
329,34,82560,2,0,L|302:83,3,44.0000013427735,8|8|8|8,3:2|0:0|0:0|0:0,0:0:0:0:
298,91,82892,1,8,0:0:0:0:
301,112,82974,1,8,0:0:0:0:
304,134,83057,1,8,0:0:0:0:
308,156,83140,1,8,0:0:0:0:
311,177,83223,5,0,0:0:0:0:
410,115,83389,1,2,0:0:0:0:
414,284,83555,6,0,P|376:276|315:271,1,88.000002685547,14|0,3:2|3:0,0:0:0:0:
469,196,83886,1,0,3:0:0:0:
209,242,84052,6,0,P|214:282|218:350,1,88.000002685547,14|0,3:2|3:0,0:0:0:0:
121,187,84383,1,0,3:0:0:0:
311,177,84549,6,0,B|354:159|380:87|358:2|275:28|288:86|326:100,1,215.999993408203,14|8,3:2|0:0,0:0:0:0:
180,106,85212,6,0,L|93:90,1,80,8|8,3:3|3:0,0:0:0:0:
209,242,85544,2,0,L|296:226,1,80,8|0,0:0|3:3,0:0:0:0:
424,191,85875,5,2,0:0:0:0:
377,286,86041,1,2,0:0:0:0:
377,286,86124,1,2,0:0:0:0:
377,286,86207,1,2,0:0:0:0:
331,106,86373,2,0,P|315:129|195:118,1,136.000002593994,2|2,0:0|0:0,0:0:0:0:
101,91,86870,6,0,P|98:123|91:171,1,68.0000012969971,2|6,0:0|0:0,0:0:0:0:
256,192,87118,12,0,88527,0:0:0:0:
