osu file format v14

[General]
AudioFilename: audio.mp3
AudioLeadIn: 0
PreviewTime: 61270
Countdown: 0
SampleSet: Normal
StackLeniency: 0.7
Mode: 0
LetterboxInBreaks: 0
WidescreenStoryboard: 1

[Editor]
Bookmarks: 49180,81169
DistanceSpacing: 0.4
BeatDivisor: 4
GridSize: 16
TimelineZoom: 2.3

[Metadata]
Title:Habataki no Birthday
TitleUnicode:羽ばたきのバースデイ
Artist:Baby's breath
ArtistUnicode:Baby’s breath
Creator:Nitrous
Version:Ts8zs' Insane
Source:天使の3P!
Tags:Tenshi no 3P! Angel's 3Piece! 五島 潤 Jun Gotou 紅葉谷希美 Nozomi Momijidani 金城そら Sora Kaneshiro tv size opening Kibbleru Kisses xLolicore- Underforest Firis Mistlud ts8zs Akitoshi kurantemelodii Evanescent-
BeatmapID:1543364
BeatmapSetID:670800

[Difficulty]
HPDrainRate:7
CircleSize:4
OverallDifficulty:7
ApproachRate:9.4
SliderMultiplier:1.6
SliderTickRate:1

[Events]
//Background and Video events
Video,600,"tenshi.mp4"
0,0,"tenshi.jpg",0,0
//Break Periods
//Storyboard Layer 0 (Background)
//Storyboard Layer 1 (Fail)
//Storyboard Layer 2 (Pass)
//Storyboard Layer 3 (Foreground)
//Storyboard Sound Samples

[TimingPoints]
1188,331.491712707182,4,1,8,100,1,0
6491,-100,4,1,8,100,0,0
11629,-100,4,1,8,100,0,0
11961,-100,4,1,8,100,0,0
12127,-66.6666666666667,4,1,8,100,0,0
14448,-66.6666666666667,4,1,8,100,0,0
25055,-100,4,1,8,100,0,0
35663,-66.6666666666667,4,1,8,100,0,0
62182,-66.6666666666667,4,1,8,100,0,1
83397,-66.6666666666667,4,1,8,100,0,0
83729,-66.6666666666667,4,1,8,100,0,1
86049,-66.6666666666667,4,1,8,100,0,0
87210,-200,4,1,8,100,0,0
87541,-200,4,1,8,100,0,0

[Colours]
Combo1 : 73,86,248
Combo2 : 252,148,221
Combo3 : 192,80,235
Combo4 : 235,196,37

[HitObjects]
95,64,1188,6,0,P|81:101|81:140,1,80,2|0,0:0|0:2,0:0:0:0:
160,224,1520,1,0,0:2:0:0:
256,176,1686,1,0,0:2:0:0:
336,240,1851,6,0,P|350:202|350:163,1,80,0|0,0:2|0:2,0:2:0:0:
271,80,2183,1,0,0:2:0:0:
175,128,2349,1,0,0:2:0:0:
96,64,2514,6,0,P|81:101|81:140,1,80,2|0,0:0|0:2,0:2:0:0:
160,223,2846,1,0,0:2:0:0:
256,175,3012,1,0,0:2:0:0:
336,239,3177,6,0,P|350:201|350:162,1,80,0|0,0:2|0:2,0:2:0:0:
271,79,3509,1,0,0:2:0:0:
175,127,3675,1,0,0:2:0:0:
95,64,3840,6,0,P|81:101|81:140,1,80,2|0,0:2|0:2,0:2:0:0:
160,224,4172,1,0,0:2:0:0:
256,176,4338,1,0,0:2:0:0:
175,127,4503,6,0,P|160:164|160:203,1,80,2|0,0:2|0:2,0:2:0:0:
239,286,4835,1,0,0:2:0:0:
335,238,5001,1,0,0:2:0:0:
256,176,5166,6,0,P|241:213|241:252,1,80,2|0,0:2|0:2,0:2:0:0:
320,335,5498,1,0,0:2:0:0:
416,287,5664,1,0,0:2:0:0:
335,238,5829,6,0,P|320:275|320:314,1,80,0|0,0:2|0:2,0:2:0:0:
400,384,6161,1,0,0:2:0:0:
352,160,6327,1,2,0:2:0:0:
448,112,6492,6,0,P|457:174|448:208,1,80,2|0,0:2|0:2,0:2:0:0:
224,320,6824,2,0,P|215:258|224:224,1,80,2|0,0:2|0:2,0:2:0:0:
256,112,7155,1,2,0:2:0:0:
320,272,7321,1,0,0:2:0:0:
96,176,7487,1,2,0:2:0:0:
368,208,7653,1,0,0:2:0:0:
160,304,7818,6,0,P|122:317|82:321,1,80,2|0,0:2|0:2,0:2:0:0:
96,176,8150,1,2,0:2:0:0:
320,272,8316,1,0,0:2:0:0:
144,352,8481,6,0,P|106:365|66:369,1,80,2|0,0:2|0:2,0:2:0:0:
96,176,8813,1,2,0:2:0:0:
272,336,8979,1,0,0:2:0:0:
144,96,9144,6,0,P|96:80|48:96,1,80,2|0,0:2|0:2,0:2:0:0:
336,176,9476,2,0,P|384:192|432:176,1,80,2|0,0:2|0:2,0:2:0:0:
256,128,9807,6,0,P|240:176|256:224,1,80,2|0,0:2|0:2,0:2:0:0:
320,288,10139,1,2,0:2:0:0:
384,96,10304,1,0,0:2:0:0:
176,80,10470,6,0,P|160:128|176:176,1,80,2|0,0:2|0:2,0:2:0:0:
240,240,10802,1,2,0:2:0:0:
304,48,10967,1,0,0:2:0:0:
96,32,11133,6,0,P|80:80|96:128,1,80,2|0,0:2|0:2,0:2:0:0:
352,144,11465,1,2,0:2:0:0:
32,224,11630,1,0,0:2:0:0:
32,224,11961,5,0,0:2:0:0:
32,224,12128,2,4,B|144:144|256:224|256:224|320:208|352:144,2,360.000013732911,4|4|4,0:2|0:2|0:2,0:2:0:0:
256,192,13205,12,0,14117,0:3:0:0:
96,64,14448,5,4,0:2:0:0:
128,256,14614,1,2,0:2:0:0:
208,144,14780,1,10,0:2:0:0:
16,176,14945,1,0,0:2:0:0:
320,256,15111,1,0,0:2:0:0:
336,112,15277,2,0,B|303:170|303:170|320:256,1,120.000004577637,2|8,0:2|0:2,0:2:0:0:
464,352,15608,6,0,L|336:320,1,120.000004577637,2|0,0:2|0:2,0:2:0:0:
400,80,15940,2,0,L|433:195,1,120.000004577637,2|8,0:2|0:2,0:2:0:0:
192,288,16271,2,0,L|275:201,1,120.000004577637,2|0,0:2|0:2,0:2:0:0:
400,80,16603,1,2,0:2:0:0:
352,240,16769,1,8,0:2:0:0:
512,208,16934,1,2,0:2:0:0:
416,176,17100,5,4,0:2:0:0:
400,368,17266,1,2,0:2:0:0:
320,256,17432,1,10,0:2:0:0:
512,288,17597,1,0,0:2:0:0:
208,352,17763,1,0,0:2:0:0:
192,224,17929,2,0,B|222:279|222:279|208:368,1,120.000004577637,2|8,0:2|0:2,0:2:0:0:
16,304,18260,1,2,0:2:0:0:
112,144,18426,6,0,B|167:112|167:112|223:112,1,120.000004577637,0|2,0:2|0:2,0:2:0:0:
192,224,18758,1,8,0:2:0:0:
314,180,18923,2,0,B|330:122|330:122|320:64,1,120.000004577637,2|0,0:2|0:2,0:2:0:0:
16,208,19255,2,0,B|0:150|0:150|10:91,1,120.000004577637,2|8,0:2|0:2,0:2:0:0:
112,144,19586,5,2,0:2:0:0:
112,144,19669,1,0,0:2:0:0:
112,144,19752,1,4,0:2:0:0:
288,304,19918,1,2,0:2:0:0:
256,64,20084,1,8,0:2:0:0:
160,288,20249,1,2,0:2:0:0:
368,176,20415,1,0,0:2:0:0:
352,368,20581,2,0,B|288:384|288:384|224:368,1,120.000004577637,2|8,0:2|0:2,0:2:0:0:
32,272,20912,5,2,0:2:0:0:
112,144,21078,1,0,0:2:0:0:
288,304,21244,1,2,0:2:0:0:
256,64,21408,1,8,0:2:0:0:
160,288,21575,1,2,0:2:0:0:
368,176,21741,1,0,0:2:0:0:
352,368,21907,2,0,B|294:383|294:383|235:373,1,120.000004577637,2|8,0:2|0:2,0:2:0:0:
16,272,22238,1,2,0:2:0:0:
144,352,22404,5,4,0:2:0:0:
128,208,22570,1,2,0:2:0:0:
128,208,22653,1,0,0:2:0:0:
128,208,22735,1,8,0:2:0:0:
240,272,22901,2,0,B|253:203|253:203|237:155,1,120.000004577637,2|0,0:2|0:2,0:2:0:0:
16,272,23233,1,10,0:2:0:0:
16,272,23316,1,0,0:2:0:0:
16,272,23398,2,0,B|0:224|0:224|16:144,1,120.000004577637,8|2,0:2|0:2,0:2:0:0:
128,352,23730,5,4,0:2:0:0:
128,208,23896,1,0,0:2:0:0:
128,208,23979,1,0,0:2:0:0:
128,208,24061,1,8,0:2:0:0:
240,272,24227,2,0,B|253:203|253:203|237:155,1,120.000004577637,0|0,0:2|0:2,0:2:0:0:
16,272,24559,1,8,0:2:0:0:
48,144,24724,1,8,0:2:0:0:
256,368,25055,6,0,P|300:377|336:368,1,80,6|0,0:2|0:2,0:2:0:0:
400,304,25387,1,10,0:2:0:0:
296,263,25553,1,0,0:2:0:0:
192,304,25719,6,0,P|148:313|112:304,1,80,2|0,0:2|0:2,0:2:0:0:
64,192,26050,2,0,P|108:183|144:192,1,80,10|0,0:2|0:2,0:2:0:0:
296,263,26382,6,0,P|334:270|373:261,1,80,2|0,0:2|0:2,0:2:0:0:
336,160,26713,1,10,0:2:0:0:
224,176,26879,2,0,P|197:205|186:243,1,80,0|2,0:2|0:2,0:2:0:0:
240,336,27211,1,0,0:2:0:0:
296,263,27376,1,10,0:2:0:0:
128,336,27542,1,0,0:2:0:0:
64,256,27708,6,0,P|48:224|64:160,1,80,2|0,0:2|0:2,0:2:0:0:
80,96,28039,1,10,0:2:0:0:
192,272,28205,1,0,0:2:0:0:
128,208,28371,6,0,P|112:176|128:112,1,80,2|0,0:2|0:2,0:2:0:0:
144,48,28702,1,10,0:2:0:0:
256,224,28868,1,0,0:2:0:0:
192,160,29034,6,0,P|176:128|192:64,1,80,2|0,0:2|0:2,0:2:0:0:
352,336,29365,2,0,P|329:368|293:384,1,80,10|0,0:2|0:2,0:2:0:0:
432,128,29697,2,0,P|472:131|504:155,1,80,2|0,0:2|0:2,0:2:0:0:
480,320,30028,1,10,0:2:0:0:
448,224,30194,1,0,0:2:0:0:
384,288,30360,6,0,P|384:368|400:400,1,80,2|0,0:2|0:2,0:2:0:0:
480,320,30691,1,10,0:2:0:0:
368,192,30857,1,0,0:2:0:0:
288,256,31023,6,0,P|288:336|304:368,1,80,2|0,0:2|0:2,0:2:0:0:
384,288,31354,1,10,0:2:0:0:
272,160,31520,1,0,0:2:0:0:
192,224,31686,6,0,P|192:304|208:336,1,80,2|0,0:2|0:2,0:2:0:0:
288,256,32017,1,10,0:2:0:0:
176,128,32183,1,0,0:2:0:0:
96,192,32349,6,0,P|96:272|112:304,1,80,2|0,0:2|0:2,0:2:0:0:
192,224,32680,1,10,0:2:0:0:
80,96,32846,1,0,0:2:0:0:
0,144,33012,6,0,P|0:224|16:256,1,80,2|0,0:2|0:2,0:2:0:0:
48,320,33343,1,10,0:2:0:0:
192,352,33509,1,0,0:2:0:0:
128,176,33675,6,0,P|128:256|144:288,1,80,2|0,0:2|0:2,0:2:0:0:
192,352,34006,1,10,0:2:0:0:
336,384,34172,5,0,0:2:0:0:
336,384,34255,1,0,0:2:0:0:
336,384,34338,1,2,0:2:0:0:
368,288,34503,2,0,P|379:234|379:208,1,80,4|0,0:2|0:2,0:2:0:0:
116,240,34835,2,0,P|158:277|179:290,1,80,0|0,0:2|0:2,0:2:0:0:
283,47,35166,2,0,P|230:64|208:76,1,80,0|0,0:2|0:2,0:2:0:0:
209,76,35664,6,0,P|305:108|433:12,1,240.000009155274,4|10,0:2|0:2,0:2:0:0:
512,128,36161,5,0,0:2:0:0:
432,16,36327,1,0,0:2:0:0:
416,160,36492,2,0,B|416:224|416:224|441:274,1,120.000004577637,0|10,0:2|0:2,0:2:0:0:
320,128,36824,5,0,0:2:0:0:
240,16,36990,1,0,0:2:0:0:
224,160,37155,2,0,B|224:224|224:224|249:274,1,120.000004577637,0|10,0:2|0:2,0:2:0:0:
128,128,37487,5,0,0:2:0:0:
48,16,37653,1,0,0:2:0:0:
32,160,37818,2,0,B|32:224|32:224|57:274,1,120.000004577637,0|10,0:2|0:2,0:2:0:0:
320,352,38150,1,0,0:2:0:0:
256,256,38316,6,0,P|200:240|136:256,1,120.000004577637,0|0,0:2|0:2,0:2:0:0:
192,352,38647,1,10,0:2:0:0:
384,272,38813,1,0,0:2:0:0:
320,160,38979,6,0,P|264:144|200:160,1,120.000004577637,0|0,0:2|0:2,0:2:0:0:
256,256,39310,1,10,0:2:0:0:
448,176,39476,1,0,0:2:0:0:
384,64,39642,6,0,P|328:48|264:64,1,120.000004577637,0|0,0:2|0:2,0:2:0:0:
176,112,39973,1,10,0:2:0:0:
64,48,40139,6,0,P|48:104|64:168,1,120.000004577637,0|0,0:2|0:2,0:2:0:0:
176,224,40470,1,0,0:2:0:0:
288,160,40636,2,0,P|304:216|288:280,1,120.000004577637,10|0,0:2|0:2,0:2:0:0:
176,336,40967,5,4,0:2:0:0:
176,112,41133,2,0,P|256:48|384:80,2,240.000009155274,0|8|0,0:2|0:2|0:2,0:2:0:0:
288,160,41962,1,10,0:2:0:0:
400,208,42128,6,0,P|320:272|192:240,1,240.000009155274,0|0,0:2|0:2,0:2:0:0:
288,160,42625,1,10,0:2:0:0:
512,256,42791,2,0,P|432:320|304:288,1,240.000009155274,12|0,0:2|0:2,0:2:0:0:
288,272,43205,1,0,0:2:0:0:
288,272,43288,1,10,0:2:0:0:
288,160,43454,1,0,0:2:0:0:
128,304,43619,5,12,0:2:0:0:
288,272,43785,2,0,L|432:240,1,120.000004577637,0|10,0:2|0:2,0:2:0:0:
272,352,44117,2,0,L|416:368,1,120.000004577637,0|8,0:2|0:2,0:2:0:0:
208,288,44448,1,0,0:2:0:0:
224,208,44614,1,10,0:2:0:0:
499,279,44780,6,0,P|517:222|501:166,1,120.000004577637,12|0,0:2|0:2,0:2:0:0:
432,336,45111,1,0,0:2:0:0:
336,80,45277,1,10,0:2:0:0:
240,272,45443,1,0,0:2:0:0:
384,208,45608,1,0,0:2:0:0:
288,176,45774,1,8,0:2:0:0:
320,256,45940,1,10,0:2:0:0:
320,256,46271,5,8,0:2:0:0:
48,176,46437,1,8,0:2:0:0:
144,112,46603,2,0,P|160:176|144:240,1,120.000004577637,8|0,0:2|0:2,0:2:0:0:
128,256,46851,1,0,0:2:0:0:
128,256,46934,2,0,P|192:240|256:256,1,120.000004577637,0|0,0:2|0:2,0:2:0:0:
432,304,47266,1,8,0:2:0:0:
496,192,47432,6,0,P|512:128|496:64,1,120.000004577637,12|0,0:2|0:2,0:2:0:0:
448,0,47763,1,0,0:2:0:0:
304,64,47929,1,8,0:2:0:0:
400,128,48095,1,0,0:2:0:0:
256,192,48260,2,0,P|192:208|128:192,1,120.000004577637,0|0,0:2|0:2,0:2:0:0:
352,256,48592,2,0,P|416:240|480:256,1,120.000004577637,8|0,0:2|0:2,0:2:0:0:
144,240,48923,5,8,0:2:0:0:
320,96,49089,1,8,0:2:0:0:
213,27,49255,2,0,P|197:85|208:144,1,120.000004577637,8|0,0:2|0:2,0:2:0:0:
224,160,49476,1,0,0:2:0:0:
240,176,49531,1,0,0:2:0:0:
256,192,49586,2,0,P|266:250|250:308,1,120.000004577637,0|0,0:2|0:2,0:2:0:0:
80,368,49918,1,8,0:2:0:0:
16,256,50083,6,0,P|80:240|144:256,1,120.000004577637,4|0,0:2|0:2,0:2:0:0:
352,336,50415,1,0,0:2:0:0:
304,128,50581,1,8,0:2:0:0:
160,272,50746,1,0,0:2:0:0:
96,64,50912,2,0,P|80:128|96:192,1,120.000004577637,0|0,0:2|0:2,0:2:0:0:
256,336,51244,2,0,P|272:272|256:208,1,120.000004577637,8|0,0:2|0:2,0:2:0:0:
96,153,51575,6,0,P|30:248|62:360,1,240.000009155274,4|8,0:2|0:2,0:2:0:0:
256,192,52072,1,0,0:2:0:0:
448,26,52238,2,0,P|480:138|368:250,1,240.000009155274,0|8,0:2|0:2,0:2:0:0:
176,240,52735,1,0,0:2:0:0:
128,0,52901,1,0,0:2:0:0:
272,80,53067,1,0,0:2:0:0:
224,160,53233,1,8,0:2:0:0:
176,80,53398,1,8,0:2:0:0:
320,160,53564,6,0,P|336:224|320:288,1,120.000004577637,10|0,0:2|0:2,0:2:0:0:
80,144,53896,2,0,P|64:80|80:16,1,120.000004577637,8|0,0:2|0:2,0:2:0:0:
16,224,54227,5,6,0:2:0:0:
128,240,54393,2,0,L|272:256,1,120.000004577637,0|10,0:2|0:2,0:2:0:0:
336,192,54724,2,0,P|358:244|336:320,2,120.000004577637,0|2|0,0:2|0:2|0:2,0:2:0:0:
256,112,55222,5,10,0:2:0:0:
368,96,55387,2,0,L|512:80,1,120.000004577637,0|2,0:2|0:2,0:2:0:0:
336,192,55719,2,0,L|480:176,2,120.000004577637,0|10|0,0:2|0:2|0:2,0:2:0:0:
176,208,56216,6,0,P|128:112|192:0,2,240.000009155274,2|10|14,0:2|0:2|0:2,0:2:0:0:
272,272,57045,5,0,0:2:0:0:
32,288,57211,1,10,0:2:0:0:
176,208,57376,2,0,L|320:128,1,120.000004577637,8|2,0:2|0:2,0:2:0:0:
400,80,57708,5,8,0:2:0:0:
304,32,57874,1,10,0:2:0:0:
368,176,58039,2,0,L|496:160,1,120.000004577637,8|2,0:2|0:2,0:2:0:0:
272,128,58371,5,8,0:2:0:0:
176,80,58537,1,10,0:2:0:0:
240,224,58702,2,0,L|368:208,1,120.000004577637,0|10,0:2|0:2,0:2:0:0:
128,192,59034,5,8,0:2:0:0:
48,128,59200,1,10,0:2:0:0:
64,272,59365,1,0,0:2:0:0:
240,224,59531,5,10,0:2:0:0:
304,144,59697,1,0,0:2:0:0:
208,128,59862,1,10,0:2:0:0:
176,304,60028,1,8,0:2:0:0:
400,160,60194,1,2,0:2:0:0:
176,32,60360,1,8,0:2:0:0:
272,320,60525,1,10,0:2:0:0:
368,64,60691,1,12,0:2:0:0:
80,288,61023,1,12,0:2:0:0:
80,288,62183,6,0,P|144:272|224:288,1,120.000004577637,4|2,0:2|0:2,0:2:0:0:
304,160,62514,2,0,P|246:175|186:170,1,120.000004577637,8|2,0:2|0:2,0:2:0:0:
368,80,62846,2,0,B|416:128|416:192|368:240|368:240|416:304,1,240.000009155274,0|8,0:2|0:2,0:2:0:0:
480,240,63343,1,2,0:2:0:0:
304,320,63509,6,0,P|240:336|176:320,1,120.000004577637,0|2,0:2|0:2,0:2:0:0:
240,224,63840,1,8,0:2:0:0:
416,256,64006,2,0,P|432:320|416:384,1,120.000004577637,2|0,0:2|0:2,0:2:0:0:
80,384,64338,2,0,P|64:320|80:256,1,120.000004577637,2|8,0:2|0:2,0:2:0:0:
128,128,64669,5,2,0:2:0:0:
448,128,64835,1,4,0:2:0:0:
351,64,65001,2,0,P|336:121|346:180,1,120.000004577637,2|8,0:2|0:2,0:2:0:0:
128,240,65332,2,0,P|191:221|238:176,1,120.000004577637,2|0,0:2|0:2,0:2:0:0:
384,336,65664,2,0,P|336:290|273:272,1,120.000004577637,2|8,0:2|0:2,0:2:0:0:
32,288,65995,5,2,0:2:0:0:
32,288,66078,1,0,0:2:0:0:
32,288,66161,2,0,P|16:224|64:144,1,120.000004577637,0|2,0:2|0:2,0:2:0:0:
128,96,66492,1,8,0:2:0:0:
224,160,66658,2,0,P|241:103|224:46,2,120.000004577637,2|0|2,0:2|0:2|0:2,0:2:0:0:
128,96,67155,1,8,0:2:0:0:
128,240,67321,5,2,0:2:0:0:
128,240,67404,1,0,0:2:0:0:
128,240,67487,2,0,P|192:272|256:272,1,120.000004577637,4|2,0:2|0:2,0:2:0:0:
352,256,67818,1,8,0:2:0:0:
432,176,67984,2,0,P|464:240|464:304,1,120.000004577637,2|0,0:2|0:2,0:2:0:0:
320,144,68316,2,0,P|288:80|288:16,1,120.000004577637,2|8,0:2|0:2,0:2:0:0:
416,64,68647,5,2,0:2:0:0:
224,208,68813,1,0,0:2:0:0:
208,338,68979,2,0,P|267:332|320:304,1,120.000004577637,2|8,0:2|0:2,0:2:0:0:
463,157,69309,2,0,P|404:163|352:192,1,120.000004577637,2|0,0:2|0:2,0:2:0:0:
208,338,69642,1,2,0:2:0:0:
240,96,69807,1,8,0:2:0:0:
432,272,69973,1,2,0:2:0:0:
384,64,70139,6,0,P|400:176|384:224,1,120.000004577637,4|2,0:2|0:2,0:2:0:0:
336,256,70470,1,8,0:2:0:0:
288,48,70636,6,0,P|304:160|288:208,1,120.000004577637,2|0,0:2|0:2,0:2:0:0:
240,240,70967,1,10,0:2:0:0:
192,32,71133,6,0,P|208:144|192:192,1,120.000004577637,0|2,0:2|0:2,0:2:0:0:
144,224,71464,1,8,0:2:0:0:
96,16,71630,6,0,P|112:128|96:176,1,120.000004577637,2|0,0:2|0:2,0:2:0:0:
48,208,71961,1,10,0:2:0:0:
0,304,72128,5,0,0:2:0:0:
28,313,72210,1,0,0:2:0:0:
58,311,72293,1,2,0:2:0:0:
87,305,72376,1,0,0:2:0:0:
116,298,72459,1,8,0:2:0:0:
146,295,72542,1,8,0:2:0:0:
176,295,72625,2,0,P|209:298|237:307,1,60.0000022888184,10|8,0:2|0:2,0:2:0:0:
320,352,72791,5,4,0:2:0:0:
224,112,72956,1,2,0:2:0:0:
208,224,73122,1,8,0:2:0:0:
336,192,73288,1,2,0:2:0:0:
96,160,73454,2,0,P|80:240|112:320,1,120.000004577637,0|2,0:2|0:2,0:2:0:0:
320,304,73785,1,8,0:2:0:0:
208,224,73951,1,2,0:2:0:0:
448,256,74117,2,0,P|464:192|448:112,1,120.000004577637,0|2,0:2|0:2,0:2:0:0:
384,32,74448,5,8,0:2:0:0:
218,202,74614,2,0,P|278:207|335:192,1,120.000004577637,2|0,0:2|0:2,0:2:0:0:
448,128,74945,1,2,0:2:0:0:
170,106,75111,2,0,P|230:110|288:96,1,120.000004577637,8|2,0:2|0:2,0:2:0:0:
96,32,75443,6,0,P|64:80|80:160,1,120.000004577637,4|2,0:2|0:2,0:2:0:0:
128,256,75774,1,8,0:2:0:0:
256,144,75940,1,10,0:2:0:0:
192,64,76106,6,0,P|160:112|176:192,1,120.000004577637,0|2,0:2|0:2,0:2:0:0:
224,288,76437,1,8,0:2:0:0:
368,176,76603,1,10,0:2:0:0:
288,96,76769,6,0,P|256:144|272:224,1,120.000004577637,0|2,0:2|0:2,0:2:0:0:
320,320,77100,1,8,0:2:0:0:
448,240,77266,1,10,0:2:0:0:
368,176,77432,5,0,0:2:0:0:
368,176,77514,1,0,0:2:0:0:
368,176,77597,2,0,P|336:224|352:304,1,120.000004577637,2|8,0:2|0:2,0:2:0:0:
480,96,77929,5,2,0:2:0:0:
480,96,78011,1,0,0:2:0:0:
480,96,78094,2,0,P|432:50|361:45,1,120.000004577637,4|2,0:2|0:2,0:2:0:0:
128,144,78426,2,0,P|175:189|246:194,1,120.000004577637,8|2,0:2|0:2,0:2:0:0:
362,138,78758,6,0,P|367:198|352:256,1,120.000004577637,0|2,0:2|0:2,0:2:0:0:
304,352,79089,1,8,0:2:0:0:
240,192,79255,1,2,0:2:0:0:
464,128,79421,2,0,P|469:187|453:245,1,120.000004577637,0|2,0:2|0:2,0:2:0:0:
416,336,79752,5,8,0:2:0:0:
144,240,79918,2,0,P|138:180|154:122,1,120.000004577637,2|0,0:2|0:2,0:2:0:0:
192,48,80249,5,2,0:2:0:0:
256,192,80415,2,0,P|261:251|245:309,1,120.000004577637,8|2,0:2|0:2,0:2:0:0:
176,80,80746,6,0,L|352:112,1,120.000004577637,12|2,0:2|0:2,0:2:0:0:
400,32,81078,1,8,0:2:0:0:
96,176,81244,1,2,0:2:0:0:
208,192,81409,6,0,L|384:224,1,120.000004577637,8|2,0:2|0:2,0:2:0:0:
432,144,81741,1,8,0:2:0:0:
128,288,81907,1,2,0:2:0:0:
240,304,82072,6,0,L|416:336,1,120.000004577637,8|2,0:2|0:2,0:2:0:0:
464,256,82404,1,8,0:2:0:0:
144,80,82570,1,2,0:2:0:0:
240,16,82735,5,8,0:2:0:0:
250,43,82817,1,0,0:2:0:0:
255,73,82900,1,2,0:2:0:0:
253,103,82983,1,0,0:2:0:0:
246,132,83066,1,8,0:2:0:0:
239,161,83149,1,0,0:2:0:0:
233,190,83232,1,10,0:2:0:0:
232,220,83315,1,0,0:2:0:0:
238,250,83397,1,0,0:2:0:0:
144,80,83564,5,2,0:2:0:0:
336,208,83730,2,0,L|480:192,1,120.000004577637,12|2,0:2|0:2,0:2:0:0:
352,48,84061,5,0,0:2:0:0:
144,272,84227,2,0,L|0:256,1,120.000004577637,12|0,0:2|0:2,0:2:0:0:
240,32,84559,5,2,0:2:0:0:
304,352,84724,2,0,B|336:240|304:160|288:112|288:112|352:96|368:144|320:192,1,360.000013732911,12|2,0:2|0:2,0:2:0:0:
176,336,85387,1,0,0:2:0:0:
48,176,85553,5,2,0:2:0:0:
176,80,85719,2,0,P|208:176|208:240,1,120.000004577637,8|2,0:2|0:2,0:2:0:0:
176,336,86050,5,0,0:2:0:0:
176,336,86215,1,0,0:2:0:0:
352,245,86381,2,0,L|214:266,1,120.000004577637
107,231,86712,5,0,0:2:0:0:
304,351,86878,2,0,L|422:369,1,120.000004577637,0|2,0:0|0:0,0:0:0:0:
501,210,87210,6,0,P|414:136|427:290,1,360,2|0,0:0|0:0,0:0:0:0:
