osu file format v14

[General]
AudioFilename: audio.mp3
AudioLeadIn: 0
PreviewTime: 61270
Countdown: 0
SampleSet: Soft
StackLeniency: 0.2
Mode: 0
LetterboxInBreaks: 0
WidescreenStoryboard: 1

[Editor]
Bookmarks: 14447,25055,35663,46270,62182,72790,88701
DistanceSpacing: 1.5
BeatDivisor: 4
GridSize: 4
TimelineZoom: 2.799999

[Metadata]
Title:Habataki no Birthday
TitleUnicode:羽ばたきのバースデイ
Artist:Baby's breath
ArtistUnicode:Baby’s breath
Creator:Nitrous
Version:Nitrololi's Symphony
Source:天使の3P!
Tags:Tenshi no 3P! Angel's 3Piece! 五島 潤 Jun Gotou 紅葉谷希美 Nozomi Momijidani 金城そら Sora Kaneshiro tv size opening Kibbleru Kisses xLolicore- Underforest Firis Mistlud ts8zs Akitoshi kurantemelodii Evanescent-
BeatmapID:1429533
BeatmapSetID:670800

[Difficulty]
HPDrainRate:6.5
CircleSize:4.2
OverallDifficulty:9
ApproachRate:9.4
SliderMultiplier:1.7
SliderTickRate:1

[Events]
//Background and Video events
0,0,"tenshi.jpg",0,0
Video,600,"tenshi.mp4"
//Break Periods
//Storyboard Layer 0 (Background)
//Storyboard Layer 1 (Fail)
//Storyboard Layer 2 (Pass)
//Storyboard Layer 3 (Foreground)
//Storyboard Sound Samples

[TimingPoints]
1188,331.491712707182,4,2,1,40,1,0
1188,-111.111111111111,4,2,1,40,0,0
3757,-111.111111111111,4,2,1,5,0,0
3839,-111.111111111111,4,2,1,40,0,0
6491,-111.111111111111,4,2,1,50,0,0
11629,-142.857142857143,4,2,1,70,0,0
11961,-142.857142857143,4,2,1,5,0,0
12127,-90.9090909090908,4,2,1,50,0,0
14116,-83.3333333333333,4,2,1,50,0,0
14364,-83.3333333333333,4,2,1,5,0,0
14447,-100,4,2,1,70,0,0
25055,-111.111111111111,4,2,2,50,0,0
34337,-111.111111111111,4,2,1,60,0,0
35165,-111.111111111111,4,2,1,50,0,0
35663,-99.9999999999999,4,2,1,70,0,0
46270,-111.111111111111,4,2,1,70,0,0
51491,-111.111111111111,4,2,1,5,0,0
51574,-125,4,2,1,70,0,0
54226,-111.111111111111,4,2,1,70,0,0
56878,-99.9999999999999,4,2,1,70,0,0
59530,-83.3333333333333,4,2,1,80,0,0
60939,-83.3333333333333,4,2,1,5,0,0
61022,-83.3333333333333,4,2,1,80,0,0
61353,-100,4,2,2,50,0,0
62182,-90.9090909090909,4,2,3,80,0,1
70138,-83.3333333333333,4,2,3,80,0,1
70635,-83.3333333333333,4,2,3,80,0,1
71629,-83.3333333333333,4,2,3,80,0,1
72127,-83.3333333333333,4,2,3,80,0,0
72790,-83.3333333333333,4,2,3,80,0,1
73121,-83.3333333333333,4,2,3,80,0,1
83397,-100,4,2,3,40,0,0
83646,-100,4,2,3,5,0,0
83729,-100,4,2,3,80,0,1
85718,-100,4,3,1,80,0,1
85967,-100,4,2,3,5,0,1
86049,-100,4,2,1,60,0,0
87210,-153.846153846154,4,2,1,60,0,0
88536,-125,4,2,1,50,0,0
88701,-125,4,2,1,5,0,0

[Colours]
Combo1 : 73,86,248
Combo2 : 252,148,221
Combo3 : 192,80,235
Combo4 : 235,196,37

[HitObjects]
119,277,1022,5,0,0:0:0:0:
199,316,1188,6,0,B|208:280|208:280|193:226,1,76.4999976654053,2|0,0:0|0:0,0:0:0:0:
141,184,1519,1,0,0:0:0:0:
141,184,1685,1,0,0:0:0:0:
288,273,1850,6,0,P|334:215|407:219,1,152.999995330811
373,365,2348,1,0,0:0:0:0:
373,365,2513,6,0,L|367:289,1,76.4999976654053,2|0,0:0|0:0,0:0:0:0:
411,182,2845,1,0,0:0:0:0:
310,100,3011,2,0,B|367:93|367:93|387:63|387:63|447:56,1,152.999995330811
319,12,3508,2,8,P|262:25|227:76,1,114.749996498108,0|0,0:0|0:0,0:0:0:0:
206,112,3839,6,0,P|172:76|138:72,1,76.4999976654053,2|0,0:0|0:0,0:0:0:0:
45,108,4171,1,0,0:0:0:0:
45,108,4337,1,0,0:0:0:0:
164,178,4502,6,0,P|211:192|242:178,1,76.4999976654053
310,100,4834,1,0,0:0:0:0:
394,221,5000,1,0,0:0:0:0:
394,221,5165,6,0,B|345:207|345:207|318:258|347:312,1,152.999995330811,2|0,0:0|0:0,0:0:0:0:
486,256,5663,1,0,0:0:0:0:
343,305,5828,5,0,0:0:0:0:
272,274,5994,1,0,0:0:0:0:
197,292,6160,1,0,0:0:0:0:
163,360,6326,1,0,0:0:0:0:
197,292,6491,6,0,P|198:246|179:214,1,76.4999976654053,2|0,0:0|0:0,0:0:0:0:
89,79,6823,2,0,P|73:113|76:151,1,76.4999976654053,2|0,0:0|0:0,0:0:0:0:
254,51,7154,1,2,0:0:0:0:
160,2,7320,1,0,0:0:0:0:
229,153,7486,1,2,0:0:0:0:
96,87,7652,1,0,0:0:0:0:
96,87,7734,1,0,0:0:0:0:
96,87,7817,6,0,L|103:176,1,76.4999976654053,2|0,0:0|0:0,0:0:0:0:
250,250,8149,1,2,0:0:0:0:
163,360,8315,1,0,0:0:0:0:
163,360,8480,2,0,L|168:283,1,76.4999976654053,2|0,0:0|0:0,0:0:0:0:
330,146,8812,2,0,L|337:235,1,76.4999976654053,2|0,0:0|0:0,0:0:0:0:
478,348,9143,6,0,B|421:343|421:343|397:309|397:309|330:304,1,152.999995330811,2|2,0:0|0:0,0:0:0:0:
163,360,9641,1,0,0:0:0:0:
241,288,9806,1,2,0:0:0:0:
299,375,9972,1,0,0:0:0:0:
191,197,10138,1,2,0:0:0:0:
42,259,10304,1,0,0:0:0:0:
42,259,10386,1,0,0:0:0:0:
42,259,10469,6,0,L|128:268,1,76.4999976654053,2|0,0:0|0:0,0:0:0:0:
370,198,10801,1,2,0:0:0:0:
370,198,10967,2,0,L|294:206,1,76.4999976654053,0|2,0:0|0:0,0:0:0:0:
92,154,11298,1,2,0:0:0:0:
217,83,11464,5,2,0:0:0:0:
118,266,11629,2,0,P|184:260|238:327,1,148.74999546051,2|0,0:0|0:0,0:0:0:0:
157,336,12127,6,0,B|133:287|159:248|159:248|186:205|165:153,1,187.000005706787,4|0,0:0|0:0,0:0:0:0:
104,17,12624,6,0,B|66:59|66:59|211:45,1,187.000005706787,4|0,0:0|0:0,0:0:0:0:
402,126,13121,6,0,B|431:154|471:152|471:152|441:234|369:239|288:192|277:119|320:37|373:28|431:39|457:66,1,467.500014266968,4|2,0:0|0:0,0:0:0:0:
402,126,14116,6,0,B|338:83|338:83|237:105,1,152.999995330811,2|0,0:3|0:0,0:0:0:0:
227,244,14447,6,0,P|234:201|224:157,1,85,2|0,0:0|0:0,0:0:0:0:
95,74,14779,2,0,P|88:117|98:161,1,85,8|0,0:0|0:0,0:0:0:0:
225,160,15110,1,2,0:0:0:0:
102,253,15276,1,0,0:0:0:0:
162,116,15442,1,8,0:0:0:0:
220,251,15607,1,0,0:0:0:0:
97,158,15773,6,0,L|3:152,1,85,2|0,0:0|0:0,0:0:0:0:
161,202,16105,1,8,0:0:0:0:
24,307,16270,2,0,P|47:355|164:335,1,170,2|0,0:0|0:0,0:0:0:0:
284,279,16768,1,8,0:0:0:0:
426,377,16933,1,0,0:0:0:0:
426,377,17016,1,0,0:0:0:0:
426,377,17099,6,0,B|436:333|436:333|429:285,1,85,4|0,0:0|0:0,0:0:0:0:
288,195,17431,1,8,0:0:0:0:
354,317,17596,1,0,0:0:0:0:
395,147,17762,2,0,L|487:135,1,85,2|0,0:0|0:0,0:0:0:0:
301,84,18094,1,8,0:0:0:0:
342,245,18259,1,0,0:0:0:0:
405,47,18425,5,2,0:0:0:0:
216,73,18591,1,0,0:0:0:0:
395,147,18757,1,8,0:0:0:0:
206,173,18923,1,0,0:0:0:0:
372,273,19088,5,2,0:0:0:0:
412,283,19170,1,0,0:0:0:0:
452,270,19253,1,0,0:0:0:0:
477,237,19336,1,0,0:0:0:0:
480,195,19420,2,0,L|485:130,1,42.5,8|0,0:0|0:0,0:0:0:0:
405,47,19585,2,0,L|399:111,1,42.5,8|0,0:0|0:0,0:0:0:0:
287,179,19751,6,0,P|248:185|197:167,1,85,4|0,0:0|0:0,0:0:0:0:
78,53,20083,2,0,P|117:47|168:65,1,85,8|0,0:0|0:0,0:0:0:0:
120,225,20414,1,2,0:0:0:0:
113,123,20580,1,0,0:0:0:0:
201,289,20746,1,8,0:0:0:0:
194,187,20912,1,0,0:0:0:0:
340,238,21077,5,2,0:0:0:0:
275,108,21243,2,0,B|264:146|264:146|270:199,1,85,0|8,0:0|0:0,0:0:0:0:
293,316,21574,2,0,P|382:318|428:258,1,170,2|0,0:0|0:0,0:0:0:0:
214,276,22071,2,0,B|207:317|207:317|217:364,1,85,8|0,0:0|0:0,0:0:0:0:
419,246,22403,6,0,L|328:237,1,85,4|0,0:0|0:0,0:0:0:0:
334,237,22652,1,0,0:0:0:0:
334,237,22734,1,8,0:0:0:0:
94,181,22900,2,0,P|107:149|235:128,1,170,4|0,0:0|0:0,0:0:0:0:
184,283,23397,2,0,B|174:243|174:243|184:186,1,85,8|0,0:0|0:0,0:0:0:0:
364,349,23729,6,0,L|456:342,1,85,4|0,0:0|0:0,0:0:0:0:
448,342,23978,1,0,0:0:0:0:
448,342,24060,1,8,0:0:0:0:
299,182,24226,2,0,B|288:253|288:253|272:278|272:278|265:336,1,127.5,4|0,0:0|0:0,0:0:0:0:
262,345,24558,1,2,0:0:0:0:
399,270,24723,2,0,L|409:181,1,85,8|0,0:0|0:0,0:0:0:0:
395,39,25055,6,0,B|298:26|353:97|228:73,1,152.999995330811,12|8,0:0|0:0,0:0:0:0:
87,104,25552,1,0,0:0:0:0:
87,104,25718,2,0,P|91:141|93:180,1,76.4999976654053,8|0,0:0|0:0,0:0:0:0:
184,283,26049,2,0,P|185:244|190:206,1,76.4999976654053,8|0,0:0|0:0,0:0:0:0:
253,76,26381,6,0,P|291:60|336:63,2,76.4999976654053,8|0|8,0:0|0:0|0:0,0:0:0:0:
93,180,26878,2,0,P|55:196|10:193,1,76.4999976654053,0|8,0:0|0:0,0:0:0:0:
161,48,27210,1,0,0:0:0:0:
161,48,27375,1,8,0:0:0:0:
306,137,27541,1,0,0:0:0:0:
184,283,27707,6,0,L|173:113,1,152.999995330811,8|8,0:0|0:0,0:0:0:0:
310,60,28204,1,0,0:0:0:0:
310,60,28370,2,0,L|305:154,1,76.4999976654053,8|0,0:0|0:0,0:0:0:0:
440,237,28701,1,8,0:0:0:0:
392,98,28867,1,0,0:0:0:0:
307,224,29033,6,0,L|312:318,2,76.4999976654053,8|0|8,0:0|0:0|0:0,0:0:0:0:
310,60,29530,2,0,P|257:21|161:47,1,152.999995330811
46,119,30027,2,0,P|53:77|34:36,1,76.4999976654053,8|0,0:0|0:0,0:0:0:0:
37,199,30359,6,0,B|70:201|93:183|93:183|127:204|127:204|157:194|179:198,1,152.999995330811,8|8,0:0|0:0,0:0:0:0:
293,257,30856,1,0,0:0:0:0:
166,354,31022,2,0,L|161:278,1,76.4999976654053,8|0,0:0|0:0,0:0:0:0:
198,108,31353,1,8,0:0:0:0:
293,257,31519,1,0,0:0:0:0:
322,164,31685,6,0,B|269:169|269:169|232:195|232:195|169:200,1,152.999995330811,8|8,0:0|0:0,0:0:0:0:
298,333,32182,2,0,L|291:241,1,76.4999976654053,0|8,0:0|0:0,0:0:0:0:
373,107,32513,2,0,P|394:143|376:218,1,114.749996498108,8|0,0:0|0:0,0:0:0:0:
380,211,32845,1,8,0:0:0:0:
213,106,33011,6,0,L|314:99,2,76.4999976654053,8|0|8,0:0|0:0|0:0,0:0:0:0:
73,77,33508,1,0,0:0:0:0:
25,209,33674,2,0,L|193:196,1,152.999995330811,8|8,0:0|0:0,0:0:0:0:
309,263,34171,1,8,0:3:0:0:
313,289,34254,1,8,0:3:0:0:
309,315,34337,5,12,0:3:0:0:
213,106,34502,1,4,0:0:0:0:
380,211,34668,1,2,0:0:0:0:
235,362,34834,2,0,B|225:324|225:324|234:272|233:272,1,76.4999976654053,4|0,0:0|0:0,0:0:0:0:
357,124,35165,5,6,0:0:0:0:
282,140,35331,1,0,0:0:0:0:
213,106,35497,1,0,0:0:0:0:
360,43,35663,6,0,P|429:89|416:180,1,170,4|8,0:0|0:0,0:0:0:0:
323,303,36160,1,0,0:0:0:0:
162,215,36326,2,0,L|252:216,1,85,2|0,0:0|0:0,0:0:0:0:
83,152,36657,1,8,0:0:0:0:
53,267,36823,1,0,0:0:0:0:
178,115,36989,6,0,B|183:69|183:69|173:20,1,85,2|0,0:0|0:0,0:0:0:0:
83,152,37320,1,8,0:0:0:0:
248,286,37486,2,0,P|272:303|369:209,1,170,2|0,0:0|0:0,0:0:0:0:
172,237,37983,2,0,P|161:279|170:329,1,85,8|0,0:0|0:0,0:0:0:0:
316,123,38315,6,0,B|246:109|246:109|207:118|207:118|132:101,1,170,2|8,0:0|0:0,0:0:0:0:
68,241,38812,1,0,0:0:0:0:
26,67,38978,2,0,B|16:110|16:110|25:168,1,85,2|0,0:0|0:0,0:0:0:0:
124,320,39309,1,8,0:0:0:0:
196,165,39475,1,0,0:0:0:0:
263,320,39641,6,0,L|357:312,1,85,2|0,0:0|0:0,0:0:0:0:
462,187,39972,1,8,0:0:0:0:
269,47,40138,2,0,P|196:85|213:185,1,170,2|0,0:0|0:0,0:0:0:0:
383,84,40635,2,0,B|390:44|390:44|381:0,1,85,8|0,0:0|0:0,0:0:0:0:
195,164,40967,6,0,L|110:154,1,85,4|0,0:0|0:0,0:0:0:0:
110,154,41215,1,0,0:0:0:0:
110,154,41298,1,8,0:0:0:0:
301,290,41464,2,4,B|279:246|302:205|302:205|323:168|297:111,1,170,4|0,0:0|0:0,0:0:0:0:
163,26,41961,1,8,0:0:0:0:
30,200,42127,6,0,B|21:157|21:157|31:109,1,85,4|0,0:0|0:0,0:0:0:0:
104,268,42458,1,0,0:0:0:0:
147,157,42624,1,8,0:0:0:0:
388,194,42790,2,0,B|313:185|313:185|284:195|284:195|213:185,1,170,4|0,0:0|0:0,0:0:0:0:
220,186,43204,1,0,0:0:0:0:
220,186,43287,1,8,0:0:0:0:
327,271,43453,1,0,0:0:0:0:
264,111,43618,6,0,P|257:70|269:30,1,85,4|0,0:0|0:0,0:0:0:0:
388,194,43950,1,8,0:0:0:0:
394,71,44116,1,2,0:0:0:0:
394,71,44199,1,8,0:3:0:0:
394,71,44281,1,8,0:3:0:0:
270,209,44447,1,4,0:3:0:0:
474,160,44613,1,12,0:3:0:0:
293,100,44779,6,0,B|173:58|173:58|117:69,1,170,4|2,0:0|0:0,0:0:0:0:
22,237,45276,1,8,0:0:0:0:
165,143,45442,1,2,0:0:0:0:
22,237,45607,1,8,0:0:0:0:
56,90,45773,1,2,0:0:0:0:
133,300,45939,2,0,P|154:331|257:304,1,127.5,12|0,0:0|0:0,0:0:0:0:
265,299,46270,5,8,0:0:0:0:
17,160,46436,2,0,L|23:257,1,76.4999976654053,8|2,0:0|0:0,0:0:0:0:
199,269,46768,1,2,0:0:0:0:
199,269,46850,1,2,0:0:0:0:
199,269,46933,1,8,0:3:0:0:
178,51,47099,1,8,0:3:0:0:
178,51,47265,1,8,0:3:0:0:
204,227,47431,6,0,B|196:171|196:171|208:135|208:135|199:58,1,152.999995330811,4|0,0:0|0:0,0:0:0:0:
418,192,47928,2,0,L|342:188,1,76.4999976654053,8|0,0:0|0:0,0:0:0:0:
159,335,48259,2,0,L|236:331,1,76.4999976654053,8|0,0:0|0:0,0:0:0:0:
302,376,48508,1,0,0:0:0:0:
302,376,48591,2,0,P|314:317|292:276,1,76.4999976654053,8|0,0:0|0:0,0:0:0:0:
342,188,48922,5,8,0:0:0:0:
159,335,49088,2,0,L|152:239,1,76.4999976654053,8|2,0:0|0:0,0:0:0:0:
168,49,49420,2,0,L|172:75,3,25.4999992218018,0|8|8|8,0:0|0:3|0:3|0:3,0:0:0:0:
269,200,49751,1,8,0:3:0:0:
269,200,49917,1,8,0:3:0:0:
142,152,50083,6,0,B|240:169|198:107|309:126,1,152.999995330811,4|0,0:0|0:0,0:0:0:0:
418,192,50580,2,0,P|416:230|410:268,1,76.4999976654053,8|0,0:0|0:0,0:0:0:0:
159,335,50911,2,0,P|153:297|151:258,1,76.4999976654053,2|0,0:0|0:0,0:0:0:0:
172,75,51243,2,0,P|145:40|62:42,1,114.749996498108,8|0,0:0|0:0,0:0:0:0:
54,56,51574,6,0,L|60:212,1,136,4|8,0:0|0:0,0:0:0:0:
159,335,52071,1,0,0:0:0:0:
217,279,52237,2,0,P|181:259|91:294,1,136,2|8,0:0|0:0,0:0:0:0:
293,317,52734,1,0,0:0:0:0:
293,317,52900,6,0,L|298:232,1,68,2|0,0:0|0:0,0:0:0:0:
306,143,53232,1,8,0:0:0:0:
426,281,53397,1,0,0:0:0:0:
412,124,53563,6,0,L|417:191,1,68,2|0,0:0|0:0,0:0:0:0:
287,384,53895,2,0,L|292:316,1,68,8|0,0:0|0:0,0:0:0:0:
306,143,54226,6,0,B|267:139|267:139|221:166,1,76.4999976654053,2|0,0:0|0:0,0:0:0:0:
129,229,54558,1,8,0:0:0:0:
291,316,54723,2,0,L|295:230,2,76.4999976654053,0|2|0,0:0|0:0|0:0,0:0:0:0:
119,346,55221,1,8,0:0:0:0:
132,152,55386,6,0,L|128:228,1,76.4999976654053,2|0,0:0|0:0,0:0:0:0:
291,316,55718,2,0,B|378:297|348:364|448:343,1,152.999995330811
225,363,56215,2,0,P|212:315|220:277,1,76.4999976654053,2|0,0:0|0:0,0:0:0:0:
411,192,56547,2,0,B|419:232|419:232|412:267,1,76.4999976654053,8|0,0:0|0:0,0:0:0:0:
132,152,56878,6,0,L|239:146,1,85,4|0,0:0|0:0,0:0:0:0:
387,21,57210,1,2,0:0:0:0:
496,196,57375,2,0,L|389:190,1,85,12|0,0:0|0:0,0:0:0:0:
247,43,57707,1,8,0:0:0:0:
332,227,57873,1,0,0:0:0:0:
455,112,58038,6,0,L|361:108,1,85,8|0,0:0|0:0,0:0:0:0:
132,152,58370,1,8,0:0:0:0:
247,43,58536,1,0,0:0:0:0:
340,233,58701,2,0,L|424:229,1,85,8|0,0:0|0:0,0:0:0:0:
171,83,59033,2,0,P|124:73|86:86,2,85,8|0|0,0:0|0:0|0:0,0:0:0:0:
286,148,59530,5,4,0:0:0:0:
34,203,59696,1,0,0:0:0:0:
340,233,59862,1,2,0:0:0:0:
89,84,60027,5,4,0:0:0:0:
354,237,60193,1,0,0:0:0:0:
112,326,60359,5,6,0:0:0:0:
257,71,60525,1,0,0:0:0:0:
439,321,60690,6,0,B|382:325|382:325|358:353|358:353|280:360,1,152.999995330811,4|0,0:0|0:0,0:0:0:0:
241,313,61022,2,0,B|225:264|225:264|240:204,1,101.999996887207,4|0,0:0|0:0,0:0:0:0:
335,50,61353,5,2,0:0:0:0:
354,237,61519,1,0,0:0:0:0:
354,237,61685,1,2,0:0:0:0:
257,71,61850,1,0,0:0:0:0:
257,71,62016,1,2,0:0:0:0:
447,33,62182,6,0,P|448:78|443:126,1,93.5000028533936,6|0,0:0|0:0,0:0:0:0:
257,253,62513,2,8,P|252:208|252:160,1,93.5000028533936,10|0,0:0|0:0,0:0:0:0:
453,240,62845,2,0,P|454:285|449:333,1,93.5000028533936,2|0,1:0|0:0,0:0:0:0:
360,127,63176,1,10,0:0:0:0:
105,314,63342,6,0,B|160:293|204:315|204:315|247:340|305:319,1,187.000005706787,2|0,0:0|0:0,0:0:0:0:
36,267,63839,1,10,0:0:0:0:
36,267,64005,2,0,P|23:313|32:363,1,93.5000028533936,2|2,0:0|1:0,0:0:0:0:
245,250,64337,2,0,P|258:207|249:154,1,93.5000028533936,2|8,0:0|0:0,0:0:0:0:
32,90,64668,1,2,0:0:0:0:
32,90,64751,1,0,0:0:0:0:
32,90,64834,6,0,B|110:80|110:80|149:88|149:88|234:77,1,187.000005706787,6|8,0:0|0:0,0:0:0:0:
103,249,65331,2,0,B|92:204|92:204|100:143,1,93.5000028533936,2|0,0:0|1:0,0:0:0:0:
300,22,65663,2,0,P|314:66|303:128,1,93.5000028533936,2|8,0:0|0:0,0:0:0:0:
141,28,65994,1,2,0:0:0:0:
37,291,66160,6,0,P|67:317|178:254,1,187.000005706787,2|8,1:0|0:0,0:0:0:0:
228,63,66657,1,2,0:0:0:0:
100,156,66823,2,0,B|92:204|92:204|103:261,1,93.5000028533936,0|0,1:0|0:0,0:0:0:0:
311,335,67154,2,0,B|319:287|319:287|308:230,1,93.5000028533936,8|8,0:0|0:0,0:0:0:0:
280,162,67403,1,8,0:0:0:0:
280,162,67486,6,0,B|228:137|184:156|184:156|131:180|90:149,1,187.000005706787,6|8,0:0|0:0,0:0:0:0:
213,316,67983,2,0,P|226:270|218:210,1,93.5000028533936,2|0,0:0|1:0,0:0:0:0:
152,0,68315,2,0,P|139:46|147:106,1,93.5000028533936,2|8,0:0|0:0,0:0:0:0:
327,168,68646,1,2,0:0:0:0:
133,262,68812,5,0,1:0:0:0:
314,336,68978,2,0,L|418:324,1,93.5000028533936,2|8,0:0|0:0,0:0:0:0:
223,186,69309,2,0,L|119:174,1,93.5000028533936,2|0,0:0|1:0,0:0:0:0:
342,128,69641,1,0,0:0:0:0:
155,269,69806,1,10,0:0:0:0:
377,221,69972,1,2,0:0:0:0:
62,23,70138,6,0,B|53:148|53:148|85:215,1,152.999995330811,6|4,0:0|0:3,0:0:0:0:
91,216,70469,1,8,0:0:0:0:
462,145,70635,6,0,P|458:120|319:74,1,152.999995330811,6|4,0:0|0:3,0:0:0:0:
313,74,70967,1,8,0:0:0:0:
33,303,71132,6,0,B|148:281|148:281|191:287|212:323,1,152.999995330811,6|4,0:0|0:3,0:0:0:0:
218,326,71464,1,8,0:0:0:0:
477,247,71629,5,6,0:0:0:0:
336,88,71795,2,0,P|331:128|334:197,1,101.999996887207,8|0,0:0|0:0,0:0:0:0:
186,309,72127,6,8,L|190:254,1,50.9999984436036,12|8,0:0|0:0,0:0:0:0:
103,79,72292,2,8,L|107:134,1,50.9999984436036
287,274,72458,5,8,0:0:0:0:
325,306,72540,1,8,0:0:0:0:
375,313,72623,1,8,0:0:0:0:
421,293,72706,1,8,0:0:0:0:
449,249,72790,5,6,0:0:0:0:
209,95,72955,1,2,0:0:0:0:
263,361,73121,1,10,0:0:0:0:
440,144,73287,1,2,0:0:0:0:
141,244,73453,2,0,B|224:228|195:297|316:268,1,152.999995330811,2|0,1:0|0:0,0:0:0:0:
286,273,73784,1,8,0:0:0:0:
434,50,73950,1,2,0:0:0:0:
262,188,74116,6,0,L|444:179,1,152.999995330811,2|0,1:0|0:0,0:0:0:0:
414,180,74447,1,10,0:0:0:0:
207,0,74613,2,0,P|193:47|209:95,1,101.999996887207,2|0,0:0|1:0,0:0:0:0:
491,150,74944,1,2,0:0:0:0:
491,150,75110,2,0,P|456:113|407:103,1,101.999996887207,8|0,0:0|0:0,0:0:0:0:
204,322,75442,6,0,P|252:310|286:272,1,101.999996887207,6|0,0:0|0:0,0:0:0:0:
106,129,75773,1,8,0:0:0:0:
106,129,75939,1,0,0:0:0:0:
414,180,76105,5,6,0:0:0:0:
141,244,76270,1,0,0:0:0:0:
375,313,76436,1,8,0:0:0:0:
276,45,76602,1,2,0:0:0:0:
276,45,76685,1,0,0:0:0:0:
276,45,76768,6,0,B|254:90|254:90|281:162,1,101.999996887207,6|0,0:0|0:0,0:0:0:0:
481,224,77099,2,0,B|499:175|499:175|477:130,1,101.999996887207,8|0,0:0|0:0,0:0:0:0:
354,2,77431,1,2,1:0:0:0:
355,22,77513,1,0,0:0:0:0:
356,42,77596,1,2,0:0:0:0:
286,272,77762,1,10,0:0:0:0:
141,111,77928,1,2,0:0:0:0:
141,111,78011,1,0,0:0:0:0:
141,111,78094,6,0,P|200:92|274:150,1,152.999995330811,6|0,0:0|0:0,0:0:0:0:
197,268,78425,2,0,P|180:221|195:173,1,101.999996887207,8|0,0:0|0:0,0:0:0:0:
272,20,78757,1,2,1:0:0:0:
76,175,78922,1,0,0:0:0:0:
260,219,79088,1,10,0:0:0:0:
79,330,79254,1,2,0:0:0:0:
79,330,79337,1,0,0:0:0:0:
79,330,79420,6,0,B|131:326|131:326|167:354|167:354|256:348,1,152.999995330811,2|0,0:0|0:0,0:0:0:0:
222,350,79751,1,8,0:0:0:0:
356,230,79917,2,0,B|309:209|309:209|243:221,1,101.999996887207,2|0,0:0|1:0,0:0:0:0:
44,122,80248,1,2,0:0:0:0:
44,122,80414,2,0,B|93:131|93:131|140:110,1,101.999996887207,10|0,0:0|0:0,0:0:0:0:
356,42,80746,6,0,L|352:158,1,101.999996887207,6|0,0:0|0:0,0:0:0:0:
79,330,81077,2,0,L|75:228,1,101.999996887207,8|0,0:0|0:0,0:0:0:0:
256,56,81408,1,2,1:0:0:0:
167,272,81574,1,2,0:0:0:0:
84,50,81740,1,10,0:0:0:0:
310,132,81906,1,2,0:0:0:0:
310,132,81989,1,0,0:0:0:0:
310,132,82071,5,2,1:0:0:0:
75,228,82237,1,0,0:0:0:0:
256,56,82403,1,8,0:0:0:0:
286,338,82569,1,2,0:0:0:0:
498,207,82734,5,8,0:0:0:0:
450,191,82816,1,8,0:0:0:0:
403,206,82899,1,8,0:0:0:0:
372,246,82982,1,8,0:0:0:0:
360,290,83066,5,8,0:0:0:0:
330,324,83149,1,8,0:0:0:0:
286,338,83232,1,8,0:0:0:0:
242,324,83315,1,8,0:0:0:0:
218,294,83397,6,0,P|150:279|93:348,1,127.5,2|0,0:0|0:0,0:0:0:0:
81,340,83729,6,0,L|71:157,1,170,4|0,0:0|0:0,0:0:0:0:
254,61,84226,6,0,B|286:136|286:136|237:228,1,170,4|0,0:0|0:0,0:0:0:0:
17,5,84723,6,0,B|155:-24|99:92|264:59,1,255,4|0,0:0|0:0,0:0:0:0:
489,91,85386,5,2,0:0:0:0:
469,217,85552,1,0,0:0:0:0:
448,342,85718,6,0,P|391:314|300:345,1,127.5,2|0,0:3|0:0,0:0:0:0:
329,323,86049,5,2,0:0:0:0:
165,369,86215,2,0,L|159:269,1,85,0|2,0:0|0:0,0:0:0:0:
247,144,86547,5,0,0:0:0:0:
247,144,86712,2,0,L|253:60,2,85,2|0|2,0:0|0:0|0:0,0:0:0:0:
329,323,87210,6,0,B|384:358|455:333|476:274|450:209|414:193|375:190|375:190|440:192|468:148|468:88|420:52|364:72,1,497.249977237702,4|0,0:0|0:0,0:0:0:0:
