osu file format v14

[General]
AudioFilename: audio.mp3
AudioLeadIn: 0
PreviewTime: 61270
Countdown: 0
SampleSet: Soft
StackLeniency: 0.7
Mode: 0
LetterboxInBreaks: 0
WidescreenStoryboard: 1

[Editor]
Bookmarks: 25065,72800,78104
DistanceSpacing: 1
BeatDivisor: 4
GridSize: 32
TimelineZoom: 2.599999

[Metadata]
Title:Habataki no Birthday
TitleUnicode:羽ばたきのバースデイ
Artist:Baby's breath
ArtistUnicode:Baby’s breath
Creator:Nitrous
Version:Kibbeb's Insane
Source:天使の3P!
Tags:Tenshi no 3P! Angel's 3Piece! 五島 潤 Jun Gotou 紅葉谷希美 Nozomi Momijidani 金城そら Sora Kaneshiro tv size opening Kibbleru Kisses xLolicore- Underforest Firis Mistlud ts8zs Akitoshi kurantemelodii Evanescent-
BeatmapID:1426390
BeatmapSetID:670800

[Difficulty]
HPDrainRate:6
CircleSize:4
OverallDifficulty:9
ApproachRate:9.3
SliderMultiplier:1.8
SliderTickRate:2

[Events]
//Background and Video events
0,0,"tenshi.jpg",0,0
Video,600,"tenshi.mp4"
//Break Periods
//Storyboard Layer 0 (Background)
//Storyboard Layer 1 (Fail)
//Storyboard Layer 2 (Pass)
//Storyboard Layer 3 (Foreground)
//Storyboard Sound Samples

[TimingPoints]
1188,331.491712707182,4,2,1,40,1,0
1188,-111.111111111111,4,2,1,40,0,0
6491,-100,4,2,1,50,0,0
11629,-100,4,2,1,70,0,0
12127,-100,4,2,1,70,0,0
14116,-166.666666666667,4,2,1,70,0,0
14447,-90.9090909090909,4,2,1,70,0,0
25055,-133.333333333333,4,2,2,60,0,0
35663,-111.111111111111,4,2,1,70,0,0
46270,-142.857142857143,4,2,1,60,0,0
46933,-125,4,2,1,60,0,0
47431,-100,4,2,1,60,0,0
48922,-142.857142857143,4,2,1,60,0,0
49585,-125,4,2,1,60,0,0
50083,-100,4,2,1,60,0,0
51574,-142.857142857143,4,2,1,60,0,0
54226,-125,4,2,1,60,0,0
60690,-166.666666666667,4,2,1,60,0,0
61022,-200,4,2,1,60,0,0
62182,-100,4,2,1,70,0,1
70138,-71.4285714285714,4,2,1,70,0,1
72127,-100,4,2,1,70,0,0
72790,-100,4,2,1,70,0,1
75442,-71.4285714285714,4,2,1,70,0,1
75773,-100,4,2,1,70,0,1
76105,-71.4285714285714,4,2,1,70,0,1
76436,-100,4,2,1,70,0,1
76768,-71.4285714285714,4,2,1,70,0,1
77099,-71.4285714285714,4,2,1,70,0,1
78094,-100,4,2,1,70,0,1
83397,-100,4,2,1,70,0,0
83729,-100,4,2,1,70,0,1
86049,-100,4,2,1,70,0,0
88701,-100,4,2,1,5,0,0

[Colours]
Combo1 : 73,86,248
Combo2 : 252,148,221
Combo3 : 192,80,235
Combo4 : 235,196,37

[HitObjects]
138,384,1188,6,0,P|121:347|131:294,1,80.9999975280763,2|0,0:0|0:0,0:0:0:0:
91,213,1519,2,0,P|123:188|177:185,1,80.9999975280763,0|0,0:0|0:0,0:0:0:0:
204,88,1850,2,0,P|283:110|341:58,1,161.999995056153,0|0,0:0|0:0,0:0:0:0:
397,130,2348,1,0,0:0:0:0:
263,29,2513,6,0,L|103:54,1,161.999995056153,2|0,0:0|0:0,0:0:0:0:
15,200,3011,2,0,B|4:84|4:84|48:125,1,161.999995056153,0|0,0:0|0:0,0:0:0:0:
114,239,3508,2,0,L|31:229,1,80.9999975280763,0|0,0:0|0:0,0:0:0:0:
214,307,3839,6,0,L|230:140,1,161.999995056153,2|0,0:0|0:0,0:0:0:0:
506,4,4502,2,0,P|418:5|404:78,1,161.999995056153,0|0,0:0|0:0,0:0:0:0:
220,127,5000,6,0,B|277:95|348:124|316:154|385:187|454:148,1,242.999992584229,0|0,0:0|0:0,0:0:0:0:
265,212,5828,1,0,0:0:0:0:
200,122,5994,1,0,0:0:0:0:
151,263,6160,1,0,0:0:0:0:
270,321,6326,2,0,L|321:310,1,40.4999987640381,0|0,0:0|0:0,0:0:0:0:
82,350,6491,6,0,P|37:275|67:189,2,180,2|2|2,0:0|0:0|0:0,0:0:0:0:
151,263,7320,1,0,0:0:0:0:
67,171,7486,1,2,0:0:0:0:
211,90,7652,6,0,B|252:73|252:73|227:206,1,180,0|0,0:0|0:0,0:0:0:0:
410,306,8149,1,2,0:0:0:0:
410,306,8315,2,0,P|328:274|261:326,1,180,0|0,0:0|0:0,0:0:0:0:
169,384,8812,2,0,P|146:345|150:290,1,90,2|0,0:0|0:0,0:0:0:0:
27,201,9143,6,0,L|211:178,2,180,2|2|2,0:0|0:0|0:0,0:0:0:0:
78,107,9972,1,0,0:0:0:0:
131,283,10138,1,2,0:0:0:0:
231,154,10304,6,0,P|297:215|271:294,1,180,0|0,0:0|0:0,0:0:0:0:
427,384,10801,1,2,0:0:0:0:
427,384,10967,2,0,L|415:281,1,90,0|2,0:0|0:0,0:0:0:0:
379,202,11298,1,2,0:0:0:0:
218,232,11464,1,2,0:0:0:0:
342,36,11629,5,2,0:0:0:0:
49,149,12127,6,0,P|129:178|195:110,1,180,4|0,0:0|0:0,0:0:0:0:
225,336,12624,2,0,P|157:282|173:198,1,180,4|0,0:0|0:0,0:0:0:0:
317,127,13121,2,0,B|279:16|455:39|363:189|363:189|322:140|264:173,1,360,4|0,0:0|0:0,0:0:0:0:
264,172,13950,1,2,0:0:0:0:
182,348,14116,6,0,L|189:256,1,80.9999975280763,2|0,0:3|0:0,0:0:0:0:
181,236,14447,6,0,P|238:277|317:261,1,148.50000453186,2|0,0:0|0:0,0:0:0:0:
362,191,14779,2,0,P|394:229|397:282,1,99.0000030212403,8|0,0:0|0:0,0:0:0:0:
504,380,15110,1,2,0:0:0:0:
504,380,15276,2,0,P|451:384|398:349,1,99.0000030212403,0|8,0:0|0:0,0:0:0:0:
328,159,15607,6,0,L|426:141,1,99.0000030212403,0|2,0:0|0:0,0:0:0:0:
175,239,15939,2,0,P|218:266|272:257,1,99.0000030212403,0|8,0:0|0:0,0:0:0:0:
71,384,16270,2,0,P|69:333|31:293,1,99.0000030212403,2|0,0:0|0:0,0:0:0:0:
18,158,16602,1,0,0:0:0:0:
0,361,16768,1,8,0:0:0:0:
160,249,16933,1,0,0:0:0:0:
247,376,17099,6,0,P|303:326|376:343,1,148.50000453186,4|0,0:0|0:0,0:0:0:0:
456,362,17431,2,0,P|457:313|431:272,2,99.0000030212403,8|0|2,0:0|0:0|0:0,0:0:0:0:
507,181,17928,1,0,0:0:0:0:
334,219,18094,1,8,0:0:0:0:
436,42,18259,6,0,L|427:141,1,99.0000030212403,0|2,0:0|0:0,0:0:0:0:
260,260,18591,2,0,L|250:197,2,49.5000015106202,0|0|8,0:0|0:0|0:0,0:0:0:0:
180,124,18922,2,0,P|225:100|290:104,1,99.0000030212403,0|2,0:0|0:0,0:0:0:0:
147,242,19254,2,0,B|139:164|60:154|60:154|25:164|2:209,1,198.000006042481,0|8,0:0|0:0,0:0:0:0:
23,310,19668,1,0,0:0:0:0:
15,292,19751,6,0,P|69:253|143:274,1,148.50000453186,4|0,0:0|0:0,0:0:0:0:
116,357,20083,2,0,P|163:360|209:329,1,99.0000030212403,8|0,0:0|0:0,0:0:0:0:
403,383,20414,1,2,0:0:0:0:
403,383,20580,2,0,L|285:364,1,99.0000030212403,0|8,0:0|0:0,0:0:0:0:
279,269,20911,1,0,0:0:0:0:
435,196,21077,6,0,P|455:156|445:93,1,99.0000030212403,2|0,0:0|0:0,0:0:0:0:
512,362,21408,2,0,L|502:252,1,99.0000030212403,8|2,0:0|0:0,0:0:0:0:
227,320,21740,1,0,0:0:0:0:
227,320,21906,2,0,P|294:258|398:299,1,198.000006042481,0|0,0:0|0:0,0:0:0:0:
449,212,22320,1,0,0:0:0:0:
438,199,22403,6,0,L|444:142,2,49.5000015106202,4|0|0,0:0|0:0|0:0,0:0:0:0:
512,97,22734,1,8,0:0:0:0:
348,179,22900,2,0,P|314:125|344:38,1,148.50000453186,4|0,0:0|0:0,0:0:0:0:
371,29,23232,1,0,0:0:0:0:
218,5,23397,2,0,B|159:50|159:50|89:28,1,148.50000453186,8|0,0:0|0:0,0:0:0:0:
137,95,23729,6,0,L|142:144,2,49.5000015106202,4|0|0,0:0|0:0|0:0,0:0:0:0:
1,15,24060,1,8,0:0:0:0:
0,216,24226,2,0,B|49:187|106:215|79:239|138:263|185:237,1,198.000006042481,4|2,0:0|0:0,0:0:0:0:
36,304,24723,1,8,0:0:0:0:
142,144,25055,6,0,P|207:133|262:169,1,135.000005149842,12|8,0:0|0:0,0:0:0:0:
307,253,25552,1,0,0:0:0:0:
399,209,25718,2,0,L|402:276,1,67.5000025749208,8|0,0:0|0:0,0:0:0:0:
207,248,26049,2,0,L|203:315,1,67.5000025749208,8|0,0:0|0:0,0:0:0:0:
304,92,26381,6,0,L|307:159,1,67.5000025749208,8|0,0:0|0:0,0:0:0:0:
112,131,26712,2,0,L|108:198,2,67.5000025749208,8|0|8,0:0|0:0|0:0,0:0:0:0:
114,37,27210,1,0,0:0:0:0:
17,162,27375,1,8,0:0:0:0:
200,90,27541,1,0,0:0:0:0:
333,202,27707,6,0,P|265:205|202:185,1,135.000005149842,8|8,0:0|0:0,0:0:0:0:
112,131,28204,1,0,0:0:0:0:
59,311,28370,2,0,P|116:285|187:285,1,135.000005149842,8|8,0:0|0:0,0:0:0:0:
256,357,28867,1,0,0:0:0:0:
284,191,29033,6,0,L|289:258,1,67.5000025749208,8|0,0:0|0:0,0:0:0:0:
117,173,29364,2,0,L|111:240,1,67.5000025749208,8|0,0:0|0:0,0:0:0:0:
374,119,29696,2,0,L|379:186,1,67.5000025749208
207,52,30027,2,0,L|201:119,1,67.5000025749208,8|0,0:0|0:0,0:0:0:0:
316,28,30359,1,8,0:0:0:0:
316,28,30690,5,8,0:0:0:0:
391,101,30856,1,0,0:0:0:0:
291,131,31022,2,0,P|228:112|151:114,1,135.000005149842,8|8,0:0|0:0,0:0:0:0:
64,155,31519,6,0,P|61:121|54:88,2,67.5000025749208,0|8|0,0:0|0:0|0:0,0:0:0:0:
256,110,32016,1,8,0:0:0:0:
210,194,32182,2,0,P|203:227|200:260,1,67.5000025749208,0|8,0:0|0:0,0:0:0:0:
159,112,32513,1,8,0:0:0:0:
296,242,32679,1,0,0:0:0:0:
118,313,32845,1,8,0:0:0:0:
296,242,33011,6,0,P|362:248|424:309,1,135.000005149842,8|8,0:0|0:0,0:0:0:0:
436,177,33508,1,0,0:0:0:0:
436,177,33674,2,0,P|448:132|448:88,1,67.5000025749208,8|0,0:0|0:0,0:0:0:0:
207,292,34005,2,0,P|195:247|195:203,1,67.5000025749208,8|8,0:0|0:3,0:0:0:0:
195,212,34254,1,8,0:3:0:0:
199,199,34337,5,12,0:3:0:0:
413,290,34502,1,4,0:0:0:0:
434,136,34834,5,4,0:0:0:0:
145,350,35165,5,6,0:0:0:0:
119,21,35663,6,0,P|177:35|238:36,1,121.499996292114,4|0,0:0|0:0,0:0:0:0:
238,36,35994,2,0,P|244:75|246:116,1,80.9999975280763,8|0,0:0|0:0,0:0:0:0:
299,205,36326,1,2,0:0:0:0:
140,112,36491,1,0,0:0:0:0:
335,47,36657,1,8,0:0:0:0:
231,290,36823,5,0,0:0:0:0:
195,200,36988,1,2,0:0:0:0:
246,116,37154,1,0,0:0:0:0:
128,279,37320,5,8,0:0:0:0:
444,241,37486,2,0,P|377:197|298:204,1,161.999995056153,2|0,0:0|0:0,0:0:0:0:
216,288,37983,2,0,P|213:247|204:208,1,80.9999975280763,8|0,0:0|0:0,0:0:0:0:
146,17,38315,6,0,P|206:15|263:34,1,121.499996292114,2|0,0:0|0:0,0:0:0:0:
264,35,38646,2,0,P|254:74|252:114,1,80.9999975280763,8|0,0:0|0:0,0:0:0:0:
453,94,38978,1,2,0:0:0:0:
451,266,39143,2,0,P|461:227|463:187,1,80.9999975280763,0|8,0:0|0:0,0:0:0:0:
342,221,39475,5,0,0:0:0:0:
356,124,39641,1,2,0:0:0:0:
371,28,39806,1,0,0:0:0:0:
453,94,39972,5,8,0:0:0:0:
111,203,40138,2,0,P|190:210|261:167,1,161.999995056153,2|0,0:0|0:0,0:0:0:0:
220,29,40635,2,0,P|179:25|141:13,1,80.9999975280763,8|0,0:0|0:0,0:0:0:0:
26,280,40967,5,4,0:0:0:0:
169,119,41132,1,0,0:0:0:0:
216,334,41298,1,8,0:0:0:0:
17,179,41464,6,0,B|97:168|88:230|168:221,1,161.999995056153,4|0,0:0|0:0,0:0:0:0:
263,172,41961,1,8,0:0:0:0:
31,360,42127,6,0,P|30:319|25:279,1,80.9999975280763,4|0,0:0|0:0,0:0:0:0:
169,119,42458,1,0,0:0:0:0:
132,314,42624,1,8,0:0:0:0:
263,172,42790,6,0,P|263:131|268:91,1,80.9999975280763,4|0,0:0|0:0,0:0:0:0:
150,217,43121,1,0,0:0:0:0:
150,217,43204,1,0,0:0:0:0:
150,217,43287,1,8,0:0:0:0:
361,131,43453,1,0,0:0:0:0:
125,25,43618,5,4,0:0:0:0:
361,131,43784,2,0,L|454:122,1,80.9999975280763,0|8,0:0|0:0,0:0:0:0:
393,302,44116,1,2,0:0:0:0:
218,150,44281,1,8,0:3:0:0:
441,123,44447,5,4,0:3:0:0:
172,285,44613,1,12,0:3:0:0:
305,207,44779,1,4,0:0:0:0:
148,63,45110,5,2,0:0:0:0:
238,116,45276,1,8,0:0:0:0:
146,167,45442,1,2,0:0:0:0:
353,10,45607,5,8,0:0:0:0:
55,117,45773,1,2,0:0:0:0:
353,243,45939,1,12,0:0:0:0:
12,208,46270,5,8,0:0:0:0:
12,208,46436,2,0,P|73:216|128:187,1,125.999996154785,8|2,0:0|0:0,0:0:0:0:
130,191,46850,1,2,0:0:0:0:
129,189,46933,2,0,L|121:261,1,72,8|8,0:3|0:3,0:0:0:0:
52,118,47265,1,8,0:3:0:0:
391,204,47431,6,0,B|302:181|312:258|220:234,1,180,4|0,0:0|0:0,0:0:0:0:
354,384,47928,2,0,P|355:344|364:283,1,90,8|0,0:0|0:0,0:0:0:0:
250,140,48259,1,8,0:0:0:0:
454,346,48425,1,0,0:0:0:0:
471,343,48508,1,0,0:0:0:0:
488,341,48591,1,8,0:0:0:0:
220,234,48757,1,0,0:0:0:0:
487,113,48922,5,8,0:0:0:0:
487,112,49088,2,0,P|442:155|372:153,1,125.999996154785,8|0,0:0|0:0,0:0:0:0:
384,160,49502,1,0,0:0:0:0:
382,158,49585,2,0,L|374:87,1,72,8|8,0:3|0:3,0:0:0:0:
395,261,49917,1,8,0:3:0:0:
118,120,50083,6,0,B|163:117|202:86|202:86|227:120|290:139,1,180,4|0,0:0|0:0,0:0:0:0:
124,24,50580,1,8,0:0:0:0:
191,195,50746,1,0,0:0:0:0:
290,35,50911,5,2,0:0:0:0:
96,221,51077,1,0,0:0:0:0:
369,304,51243,1,8,0:0:0:0:
369,304,51574,6,0,P|304:237|206:244,1,188.999994232178,4|0,0:0|0:0,0:0:0:0:
153,145,52237,2,0,L|283:134,1,125.999996154785,2|8,0:0|0:0,0:0:0:0:
376,166,52734,6,0,P|377:134|380:103,1,62.9999980773926,0|2,0:0|0:0,0:0:0:0:
379,266,53066,1,0,0:0:0:0:
379,266,53232,1,8,0:0:0:0:
472,146,53397,1,0,0:0:0:0:
299,42,53563,5,2,0:0:0:0:
472,146,53729,1,0,0:0:0:0:
291,223,53895,1,8,0:0:0:0:
361,138,54226,5,2,0:0:0:0:
361,138,54392,2,0,P|326:136|290:132,1,72,0|8,0:0|0:0,0:0:0:0:
201,179,54723,2,0,P|195:214|192:250,1,72,0|2,0:0|0:0,0:0:0:0:
130,84,55221,5,8,0:0:0:0:
130,84,55387,2,0,P|165:82|201:78,1,72,2|0,0:0|0:0,0:0:0:0:
296,29,55718,2,0,P|301:64|304:100,1,72,0|0,0:0|0:0,0:0:0:0:
338,323,56215,6,0,P|341:287|346:251,1,72,2|0,0:0|0:0,0:0:0:0:
450,213,56547,2,0,P|446:248|441:284,1,72,8|0,0:0|0:0,0:0:0:0:
175,73,56878,5,4,0:0:0:0:
369,159,57044,1,0,0:0:0:0:
253,220,57210,1,2,0:0:0:0:
485,48,57375,5,12,0:0:0:0:
271,119,57541,1,0,0:0:0:0:
469,223,57707,5,8,0:0:0:0:
355,58,57873,1,0,0:0:0:0:
475,119,58038,2,0,P|478:83|484:47,1,72,8|0,0:0|0:0,0:0:0:0:
259,324,58370,5,8,0:0:0:0:
373,159,58536,1,0,0:0:0:0:
253,220,58701,2,0,P|249:184|243:148,1,72,8|0,0:0|0:0,0:0:0:0:
347,276,59033,5,8,0:0:0:0:
147,198,59199,1,0,0:0:0:0:
321,68,59364,1,0,0:0:0:0:
39,164,59530,5,4,0:0:0:0:
240,191,59696,1,0,0:0:0:0:
72,276,59862,1,2,0:0:0:0:
321,68,60027,5,4,0:0:0:0:
147,198,60193,1,0,0:0:0:0:
340,282,60359,1,6,0:0:0:0:
178,90,60525,1,0,0:0:0:0:
215,278,60690,6,0,P|221:317|224:358,1,80.9999975280763,4|0,0:0|0:0,0:0:0:0:
286,176,61022,2,0,P|288:135|300:83,1,90,4|2,0:0|0:0,0:0:0:0:
481,277,62182,6,0,P|436:272|392:261,1,90,4|0,0:0|0:0,0:0:0:0:
244,15,62513,2,0,P|256:58|260:103,1,90,8|0,0:0|0:0,0:0:0:0:
407,159,62845,2,0,B|324:146|330:218|238:202,1,180,2|8,0:0|0:0,0:0:0:0:
162,129,63342,5,0,0:0:0:0:
162,129,63425,1,0,0:0:0:0:
162,129,63508,1,0,0:0:0:0:
318,292,63674,1,0,0:0:0:0:
112,367,63839,1,8,0:0:0:0:
211,321,64005,6,0,P|209:276|203:231,1,90,0|2,0:0|0:0,0:0:0:0:
321,163,64337,2,0,P|322:118|328:73,1,90,0|8,0:0|0:0,0:0:0:0:
404,233,64668,5,0,0:0:0:0:
221,111,64834,1,6,0:0:0:0:
422,131,65000,2,0,L|512:121,1,90,0|8,0:0|0:0,0:0:0:0:
318,170,65331,1,0,0:0:0:0:
318,170,65414,1,0,0:0:0:0:
318,170,65497,1,2,0:0:0:0:
290,280,65663,5,0,0:0:0:0:
344,59,65828,1,8,0:0:0:0:
417,241,65994,1,0,0:0:0:0:
221,93,66160,6,0,P|132:96|68:156,1,180,2|8,0:0|0:0,0:0:0:0:
171,294,66657,2,0,P|174:248|181:204,1,90,0|2,0:0|0:0,0:0:0:0:
435,141,66989,1,0,0:0:0:0:
273,259,67154,1,8,0:0:0:0:
438,328,67320,1,8,0:0:0:0:
438,328,67403,1,8,0:0:0:0:
438,328,67486,6,0,P|411:286|272:255,1,180,6|8,0:0|0:0,0:0:0:0:
69,126,67983,2,0,P|113:124|158:117,1,90,0|2,0:0|0:0,0:0:0:0:
355,88,68315,1,0,0:0:0:0:
190,213,68480,1,8,0:0:0:0:
254,73,68646,5,0,0:0:0:0:
255,90,68729,1,0,0:0:0:0:
256,107,68812,1,2,0:0:0:0:
330,182,68978,1,0,0:0:0:0:
171,19,69143,1,8,0:0:0:0:
444,79,69309,2,0,P|399:80|354:87,1,90,0|2,0:0|0:0,0:0:0:0:
236,248,69641,5,0,0:0:0:0:
260,49,69807,1,0,0:0:0:0:
422,171,69972,1,8,0:0:0:0:
354,86,70138,6,0,B|312:134|312:134|334:257,1,188.999994232178,4|4,0:0|0:3,0:0:0:0:
347,275,70469,2,0,L|270:267,1,62.9999980773926,8|0,0:0|0:0,0:0:0:0:
192,306,70635,6,0,P|190:274|185:240,1,62.9999980773926,4|0,0:0|0:0,0:0:0:0:
437,245,70801,2,0,P|438:276|444:311,1,62.9999980773926,0|4,0:0|0:3,0:0:0:0:
371,371,70967,1,8,0:0:0:0:
495,117,71132,6,0,B|406:97|416:174|316:153,1,188.999994232178,4|4,0:0|0:3,0:0:0:0:
226,182,71464,2,0,P|225:150|223:119,1,62.9999980773926,8|0,0:0|0:0,0:0:0:0:
475,221,71629,5,4,0:0:0:0:
338,54,71795,1,2,0:0:0:0:
293,268,71961,1,0,0:0:0:0:
74,160,72127,5,12,0:0:0:0:
103,193,72209,1,8,0:0:0:0:
144,210,72292,1,8,0:0:0:0:
189,205,72375,1,8,0:0:0:0:
226,182,72458,1,8,0:0:0:0:
263,158,72541,1,8,0:0:0:0:
308,154,72624,1,8,0:0:0:0:
349,170,72707,1,8,0:0:0:0:
378,204,72790,6,0,L|368:306,1,90,6|0,0:0|0:0,0:0:0:0:
496,174,73121,2,0,L|487:84,1,90,8|0,0:0|0:0,0:0:0:0:
260,37,73453,2,0,P|345:72|411:13,1,180,2|8,0:0|0:0,0:0:0:0:
211,128,73950,1,0,0:0:0:0:
211,128,74033,1,0,0:0:0:0:
211,128,74116,6,0,L|99:108,1,90,2|0,0:0|0:0,0:0:0:0:
301,260,74447,1,8,0:0:0:0:
372,94,74613,1,0,0:0:0:0:
394,92,74696,1,0,0:0:0:0:
416,89,74779,1,2,0:0:0:0:
283,20,74944,1,0,0:0:0:0:
223,112,75110,2,0,L|234:212,1,90,8|0,0:0|0:0,0:0:0:0:
27,319,75442,6,0,B|52:362|82:372|82:372|159:372|181:311,1,188.999994232178,6|0,0:0|0:0,0:0:0:0:
214,224,75773,2,0,L|202:313,1,90,8|0,0:0|0:0,0:0:0:0:
319,143,76105,6,0,B|310:7|310:7|357:42,1,188.999994232178,6|0,0:0|0:0,0:0:0:0:
465,41,76436,2,0,L|375:52,1,90,8|0,0:0|0:0,0:0:0:0:
238,219,76768,6,0,B|312:274|312:274|398:232,1,188.999994232178,6|0,0:0|0:0,0:0:0:0:
478,149,77099,2,0,P|421:205|470:294,1,188.999994232178,8|0,0:0|0:0,0:0:0:0:
369,350,77431,1,2,0:0:0:0:
332,342,77514,1,0,0:0:0:0:
295,335,77597,1,0,0:0:0:0:
258,329,77680,1,0,0:0:0:0:
222,324,77762,1,8,0:0:0:0:
136,199,77928,1,0,0:0:0:0:
136,199,78011,1,0,0:0:0:0:
136,199,78094,6,0,P|201:209|268:173,1,135,6|0,0:0|0:0,0:0:0:0:
281,158,78425,2,0,P|279:115|267:52,1,90,8|0,0:0|0:0,0:0:0:0:
359,0,78757,1,2,0:0:0:0:
180,109,78922,1,0,0:0:0:0:
179,0,79088,1,8,0:0:0:0:
375,164,79254,1,0,0:0:0:0:
375,164,79337,1,0,0:0:0:0:
375,164,79420,6,0,L|483:151,1,90,2|0,0:0|0:0,0:0:0:0:
340,266,79751,1,8,0:0:0:0:
280,85,79917,1,0,0:0:0:0:
268,98,80000,1,0,0:0:0:0:
257,112,80083,2,0,B|241:155|241:155|251:201,1,90,2|0,0:0|0:0,0:0:0:0:
182,55,80414,1,8,0:0:0:0:
357,22,80580,1,0,0:0:0:0:
108,0,80746,6,0,P|88:68|121:126,1,135,4|0,0:0|0:0,0:0:0:0:
121,151,81077,2,0,L|22:134,1,90,8|0,0:0|0:0,0:0:0:0:
194,225,81408,1,2,0:0:0:0:
182,55,81574,1,0,0:0:0:0:
62,246,81740,1,8,0:0:0:0:
296,181,81906,1,0,0:0:0:0:
296,181,81989,1,0,0:0:0:0:
296,181,82071,6,0,B|311:224|311:224|297:275,1,90,2|0,0:0|0:0,0:0:0:0:
77,350,82403,2,0,B|62:307|62:307|76:256,1,90,8|0,0:0|0:0,0:0:0:0:
67,91,82734,5,8,0:0:0:0:
96,124,82816,1,8,0:0:0:0:
137,141,82899,1,8,0:0:0:0:
182,136,82982,1,8,0:0:0:0:
219,113,83065,1,8,0:0:0:0:
256,89,83148,1,8,0:0:0:0:
301,85,83231,1,8,0:0:0:0:
342,101,83314,1,8,0:0:0:0:
371,135,83397,5,2,0:0:0:0:
299,362,83729,6,0,L|290:180,1,180,4|0,0:0|0:0,0:0:0:0:
443,52,84226,2,0,P|481:133|444:216,1,180,4|0,0:0|0:0,0:0:0:0:
370,134,84723,6,0,B|319:101|231:125|247:159|175:182|113:144,1,270,4|0,0:0|0:0,0:0:0:0:
175,63,85386,1,2,0:0:0:0:
208,254,85552,1,0,0:0:0:0:
175,63,85718,6,0,L|27:74,1,135,2|0,0:3|0:0,0:0:0:0:
17,159,86049,5,2,0:0:0:0:
17,159,86215,1,0,0:0:0:0:
277,117,86381,1,2,0:0:0:0:
186,266,86547,5,0,0:0:0:0:
186,266,86712,1,2,0:0:0:0:
434,301,86878,1,0,0:0:0:0:
512,81,87210,5,4,0:0:0:0:
256,192,87375,12,0,88701,0:0:0:0:
