osu file format v14

[General]
AudioFilename: audio.mp3
AudioLeadIn: 0
PreviewTime: 61270
Countdown: 0
SampleSet: Soft
StackLeniency: 0.7
Mode: 0
LetterboxInBreaks: 0
WidescreenStoryboard: 1

[Editor]
DistanceSpacing: 1.2
BeatDivisor: 4
GridSize: 8
TimelineZoom: 1.2

[Metadata]
Title:Habataki no Birthday
TitleUnicode:羽ばたきのバースデイ
Artist:Baby's breath
ArtistUnicode:Baby’s breath
Creator:Nitrous
Version:Hard
Source:天使の3P!
Tags:Tenshi no 3P! Angel's 3Piece! 五島 潤 Jun Gotou 紅葉谷希美 Nozomi Momijidani 金城そら Sora Kaneshiro tv size opening Kibbleru Kisses xLolicore- Underforest Firis Mistlud ts8zs Akitoshi kurantemelodii Evanescent-
BeatmapID:1421366
BeatmapSetID:670800

[Difficulty]
HPDrainRate:5
CircleSize:4
OverallDifficulty:6
ApproachRate:8
SliderMultiplier:1.4
SliderTickRate:1

[Events]
//Background and Video events
0,0,"tenshi.jpg",0,0
Video,600,"tenshi.mp4"
//Break Periods
//Storyboard Layer 0 (Background)
//Storyboard Layer 1 (Fail)
//Storyboard Layer 2 (Pass)
//Storyboard Layer 3 (Foreground)
//Storyboard Sound Samples

[TimingPoints]
1188,331.491712707182,4,2,1,40,1,0
1188,-100,4,2,1,40,0,0
3757,-100,4,2,1,5,0,0
3839,-100,4,2,1,40,0,0
6491,-100,4,2,1,50,0,0
11629,-100,4,2,1,70,0,0
12127,-100,4,2,1,50,0,0
14116,-100,4,2,1,70,0,0
14447,-100,4,2,1,50,0,0
25055,-100,4,2,2,50,0,0
34337,-100,4,2,1,60,0,0
35165,-100,4,2,1,50,0,0
35663,-100,4,2,1,70,0,0
46270,-100,4,2,1,70,0,0
51574,-100,4,2,1,70,0,0
54226,-100,4,2,1,70,0,0
56878,-100,4,2,1,70,0,0
59530,-100,4,2,1,80,0,0
61353,-100,4,2,2,50,0,0
62182,-100,4,2,1,80,0,1
70138,-100,4,2,1,80,0,1
70635,-100,4,2,1,80,0,1
71629,-100,4,2,1,80,0,1
72127,-100,4,2,1,80,0,0
72790,-100,4,2,1,80,0,1
73121,-100,4,2,1,80,0,1
83397,-100,4,2,1,40,0,0
83646,-100,4,2,1,5,0,0
83729,-100,4,2,1,80,0,1
86049,-100,4,2,1,60,0,0
87210,-100,4,2,1,60,0,0
88536,-100,4,2,1,50,0,0
88701,-100,4,2,1,5,0,0

[Colours]
Combo1 : 73,86,248
Combo2 : 252,148,221
Combo3 : 192,80,235
Combo4 : 235,196,37

[HitObjects]
299,187,1022,5,0,0:0:0:0:
299,187,1188,6,0,B|334:192|334:192|376:185,1,70,2|0,0:0|0:0,0:0:0:0:
417,254,1519,2,0,P|444:225|452:183,1,70,0|0,0:0|0:0,0:0:0:0:
418,119,1850,2,0,B|373:103|373:103|276:112,1,140,0|0,0:0|0:0,0:0:0:0:
197,101,2348,6,0,P|99:134|140:225,1,210,0|0,0:0|0:0,0:0:0:0:
195,262,3011,1,0,0:0:0:0:
272,229,3176,2,0,P|279:194|270:152,1,70,0|0,0:0|0:0,0:0:0:0:
344,115,3508,2,0,B|318:89|318:89|278:73,1,70,0|0,0:0|0:0,0:0:0:0:
209,107,3839,6,0,P|140:78|78:99,1,140,2|0,0:0|0:0,0:0:0:0:
73,181,4337,1,0,0:0:0:0:
73,181,4502,2,0,P|142:210|204:189,1,140,0|0,0:0|0:0,0:0:0:0:
276,152,5000,1,0,0:0:0:0:
340,98,5165,6,0,L|342:24,1,70,2|0,0:0|0:0,0:0:0:0:
417,66,5497,2,0,L|415:140,1,70,0|0,0:0|0:0,0:0:0:0:
341,176,5828,2,0,P|334:212|340:249,1,70,0|0,0:0|0:0,0:0:0:0:
410,288,6160,2,0,P|417:252|411:215,1,70,0|0,0:0|0:0,0:0:0:0:
342,319,6491,6,0,B|283:317|283:317|258:302|258:302|203:298,1,140,2|2,0:0|0:0,0:0:0:0:
126,324,6989,1,0,0:0:0:0:
64,267,7154,2,0,P|59:227|66:184,1,70,2|0,0:0|0:0,0:0:0:0:
145,180,7486,2,0,P|148:145|143:110,1,70,2|0,0:0|0:0,0:0:0:0:
84,50,7817,6,0,P|127:83|214:72,1,140,2|2,0:0|0:0,0:0:0:0:
280,30,8315,1,0,0:0:0:0:
345,82,8480,2,0,B|352:119|352:119|345:158,1,70,2|0,0:0|0:0,0:0:0:0:
264,173,8812,2,0,B|257:210|257:210|264:249,1,70,2|0,0:0|0:0,0:0:0:0:
331,290,9143,6,0,B|262:278|262:278|182:287,1,140,2|2,0:0|0:0,0:0:0:0:
112,314,9641,1,0,0:0:0:0:
40,271,9806,2,0,P|33:235|41:195,1,70,2|0,0:0|0:0,0:0:0:0:
112,162,10138,2,0,P|119:198|111:238,1,70,2|0,0:0|0:0,0:0:0:0:
112,314,10469,6,0,B|172:307|172:307|196:316|196:316|270:307,1,140,2|2,0:0|0:0,0:0:0:0:
318,260,10967,1,0,0:0:0:0:
401,268,11132,2,0,L|409:349,1,70,2|2,0:0|0:0,0:0:0:0:
489,359,11464,1,2,0:0:0:0:
480,234,11629,1,2,0:0:0:0:
480,234,12127,6,0,B|382:202|382:202|337:207,1,140,4|0,0:0|0:0,0:0:0:0:
220,218,12624,2,0,P|194:167|265:154,1,140,4|0,0:0|0:0,0:0:0:0:
290,267,13121,2,0,B|300:303|300:303|291:336|291:336|337:328|337:328|366:362|412:365|465:353|480:293,1,280,4|0,0:0|0:0,0:0:0:0:
401,267,13950,1,2,0:0:0:0:
469,144,14116,1,2,0:3:0:0:
469,144,14447,6,0,B|400:129|400:129|320:142,1,140,2|8,0:0|0:0,0:0:0:0:
251,165,14944,1,0,0:0:0:0:
173,131,15110,2,0,P|167:95|173:61,1,70,2|0,0:0|0:0,0:0:0:0:
250,96,15442,2,0,P|256:132|250:166,1,70,8|0,0:0|0:0,0:0:0:0:
179,209,15773,6,0,L|96:202,2,70,2|0|8,0:0|0:0|0:0,0:0:0:0:
216,284,16270,2,0,P|242:257|356:272,1,140,2|0,0:0|0:0,0:0:0:0:
414,295,16768,2,0,L|414:365,1,70,8|0,0:0|0:0,0:0:0:0:
483,259,17099,6,0,B|479:203|479:203|463:174|463:174|460:121,1,140,4|8,0:0|0:0,0:0:0:0:
406,58,17596,1,0,0:0:0:0:
337,106,17762,2,0,P|300:99|267:106,1,70,2|0,0:0|0:0,0:0:0:0:
267,189,18094,2,0,P|304:196|337:189,1,70,8|0,0:0|0:0,0:0:0:0:
410,151,18425,6,0,B|419:186|419:186|411:232,1,70,2|0,0:0|0:0,0:0:0:0:
342,266,18757,2,0,B|336:299|336:299|345:334,1,70,8|0,0:0|0:0,0:0:0:0:
416,379,19088,2,0,P|347:353|268:379,1,140,2|8,0:0|0:0,0:0:0:0:
186,289,19585,1,8,0:0:0:0:
186,289,19668,1,0,0:0:0:0:
186,289,19751,6,0,B|197:191|197:191|183:145,1,140,4|8,0:0|0:0,0:0:0:0:
144,77,20248,1,0,0:0:0:0:
60,87,20414,2,0,P|52:122|58:163,1,70,2|0,0:0|0:0,0:0:0:0:
112,218,20746,2,0,P|115:252|107:286,1,70,8|0,0:0|0:0,0:0:0:0:
69,361,21077,6,0,L|-8:355,2,70,2|0|8,0:0|0:0|0:0,0:0:0:0:
153,364,21574,2,0,P|168:334|270:297,1,140,2|0,0:0|0:0,0:0:0:0:
336,332,22071,2,0,P|343:295|336:262,1,70,8|0,0:0|0:0,0:0:0:0:
247,174,22403,6,0,L|177:165,2,70,4|0|8,0:0|0:0|0:0,0:0:0:0:
128,98,22900,2,0,P|94:172|127:233,1,140,4|0,0:0|0:0,0:0:0:0:
197,272,23397,2,0,B|203:310|203:310|192:350,1,70,8|0,0:0|0:0,0:0:0:0:
115,221,23729,6,0,B|84:215|84:215|45:221,2,70,4|0|8,0:0|0:0|0:0,0:0:0:0:
264,138,24226,2,0,B|161:155|161:155|117:143,1,140,4|2,0:0|0:0,0:0:0:0:
115,221,24723,2,0,P|124:256|113:303,1,70,8|0,0:0|0:0,0:0:0:0:
83,365,25055,6,0,P|101:336|219:328,1,140,12|8,0:0|0:0,0:0:0:0:
273,353,25552,1,0,0:0:0:0:
273,353,25718,2,0,P|280:317|272:279,1,70,8|0,0:0|0:0,0:0:0:0:
206,234,26049,2,0,P|200:199|207:165,1,70,8|0,0:0|0:0,0:0:0:0:
284,131,26381,6,0,L|358:128,2,70,8|0|8,0:0|0:0|0:0,0:0:0:0:
250,54,26878,2,0,B|190:49|190:49|162:34|162:34|102:32,1,140,0|0,0:0|0:0,0:0:0:0:
42,76,27375,2,0,P|31:113|42:157,1,70,8|0,0:0|0:0,0:0:0:0:
78,216,27707,6,0,B|184:221|184:221|233:208,1,140,8|8,0:0|0:0,0:0:0:0:
285,164,28204,1,0,0:0:0:0:
208,130,28370,2,0,P|222:59|292:60,1,140,8|8,0:0|0:0,0:0:0:0:
339,111,28867,1,0,0:0:0:0:
414,73,29033,6,0,B|411:168|411:168|426:228,1,140,8|8,0:0|0:0,0:0:0:0:
464,284,29530,1,0,0:0:0:0:
397,336,29696,2,0,P|359:342|327:335,1,70,0|0,0:0|0:0,0:0:0:0:
268,276,30027,2,0,P|233:269|199:275,1,70,8|0,0:0|0:0,0:0:0:0:
99,197,30359,6,0,P|134:204|168:198,1,70,8|0,0:0|0:0,0:0:0:0:
239,155,30690,2,0,L|240:81,1,70,8|0,0:0|0:0,0:0:0:0:
315,48,31022,2,0,B|314:152|314:152|325:190,1,140,8|8,0:0|0:0,0:0:0:0:
386,243,31519,1,0,0:0:0:0:
461,205,31685,6,0,P|467:242|461:286,1,70,8|0,0:0|0:0,0:0:0:0:
394,321,32016,1,8,0:0:0:0:
317,285,32182,2,0,B|247:271|247:271|178:279,1,140,0|8,0:0|0:0,0:0:0:0:
103,240,32679,2,0,P|95:277|103:318,1,70,0|8,0:0|0:0,0:0:0:0:
168,199,33011,6,0,B|251:191|251:191|323:204,1,140,8|8,0:0|0:0,0:0:0:0:
387,225,33508,1,0,0:0:0:0:
463,190,33674,2,0,L|457:109,1,70,8|0,0:0|0:0,0:0:0:0:
504,49,34005,1,8,0:0:0:0:
419,48,34171,1,8,0:3:0:0:
419,48,34254,1,8,0:3:0:0:
419,48,34337,5,12,0:3:0:0:
297,78,34502,1,4,0:0:0:0:
280,100,34834,1,4,0:0:0:0:
262,121,35165,1,6,0:0:0:0:
194,232,35663,6,0,P|268:269|330:239,1,140,4|8,0:0|0:0,0:0:0:0:
385,198,36160,1,0,0:0:0:0:
462,230,36326,2,0,P|469:195|460:155,1,70,2|0,0:0|0:0,0:0:0:0:
390,119,36657,1,8,0:0:0:0:
313,154,36823,1,0,0:0:0:0:
313,154,36989,6,0,L|232:144,2,70,2|0|8,0:0|0:0|0:0,0:0:0:0:
385,198,37486,2,0,P|347:242|378:319,1,140,2|0,0:0|0:0,0:0:0:0:
453,301,37983,2,0,B|459:264|459:264|453:229,1,70,8|0,0:0|0:0,0:0:0:0:
421,365,38315,6,0,B|352:353|352:353|266:361,1,140,2|8,0:0|0:0,0:0:0:0:
198,366,38812,1,0,0:0:0:0:
134,311,38978,2,0,L|137:240,1,70,2|0,0:0|0:0,0:0:0:0:
203,189,39309,1,8,0:0:0:0:
274,232,39475,1,0,0:0:0:0:
274,232,39641,6,0,B|311:234|311:234|353:223,2,70,2|0|8,0:0|0:0|0:0,0:0:0:0:
248,312,40138,2,0,B|315:317|315:317|389:297,1,140,2|0,0:0|0:0,0:0:0:0:
446,239,40635,2,0,P|466:285|464:323,1,70,8|0,0:0|0:0,0:0:0:0:
373,220,40967,6,0,P|392:174|390:136,2,70,4|0|8,0:0|0:0|0:0,0:0:0:0:
466,137,41464,2,0,P|409:83|335:106,1,140,4|0,0:0|0:0,0:0:0:0:
286,142,41961,1,8,0:0:0:0:
172,82,42127,6,0,B|154:149|154:149|174:221,1,140,4|0,0:0|0:0,0:0:0:0:
231,277,42624,1,8,0:0:0:0:
299,228,42790,2,0,P|369:197|434:233,1,140,4|0,0:0|0:0,0:0:0:0:
423,221,43204,1,0,0:0:0:0:
423,221,43287,1,8,0:0:0:0:
364,281,43453,1,0,0:0:0:0:
231,277,43618,6,0,L|235:352,2,70,4|0|8,0:0|0:0|0:0,0:0:0:0:
167,220,44116,1,2,0:0:0:0:
167,220,44199,1,8,0:3:0:0:
167,220,44281,1,8,0:3:0:0:
233,168,44447,2,0,B|266:161|266:161|304:166,1,70,4|12,0:3|0:3,0:0:0:0:
167,220,44779,6,0,B|149:169|149:169|162:131|162:131|152:84,1,140,4|2,0:0|0:0,0:0:0:0:
217,32,45276,2,0,L|288:25,1,70,8|2,0:0|0:0,0:0:0:0:
301,107,45607,2,0,L|230:114,1,70,8|2,0:0|0:0,0:0:0:0:
152,86,45939,1,12,0:0:0:0:
207,244,46270,5,8,0:0:0:0:
207,244,46436,1,8,0:0:0:0:
277,198,46602,2,0,L|365:192,1,70,2|2,0:0|0:0,0:0:0:0:
346,193,46850,1,2,0:0:0:0:
346,193,46933,1,8,0:3:0:0:
430,192,47099,1,8,0:3:0:0:
449,273,47265,1,8,0:3:0:0:
346,193,47431,6,0,B|360:90|360:90|345:44,1,140,4|0,0:0|0:0,0:0:0:0:
277,10,47928,2,0,B|241:5|241:5|195:10,1,70,8|0,0:0|0:0,0:0:0:0:
203,92,48259,2,0,B|239:97|239:97|285:92,1,70,8|0,0:0|0:0,0:0:0:0:
348,55,48591,1,8,0:0:0:0:
322,220,48922,5,8,0:0:0:0:
322,220,49088,1,8,0:0:0:0:
255,271,49254,2,0,L|178:269,1,70,2|0,0:0|0:0,0:0:0:0:
185,269,49502,1,0,0:0:0:0:
185,269,49585,1,8,0:3:0:0:
132,203,49751,1,8,0:3:0:0:
202,156,49917,1,8,0:3:0:0:
192,276,50083,6,0,P|194:320|287:331,1,140,4|0,0:0|0:0,0:0:0:0:
351,306,50580,2,0,B|344:269|344:269|348:233,1,70,8|0,0:0|0:0,0:0:0:0:
426,266,50911,2,0,B|429:233|429:233|422:196,1,70,2|0,0:0|0:0,0:0:0:0:
383,122,51243,1,8,0:0:0:0:
231,193,51574,6,0,B|190:174|190:174|90:205,1,140,4|8,0:0|0:0,0:0:0:0:
101,286,52071,1,0,0:0:0:0:
180,313,52237,2,0,P|218:322|281:239,1,140,2|8,0:0|0:0,0:0:0:0:
231,193,52734,6,0,B|235:135|235:135|221:107|221:107|228:47,1,140,0|0,0:0|0:0,0:0:0:0:
301,17,53232,1,8,0:0:0:0:
373,59,53397,1,0,0:0:0:0:
373,59,53563,2,0,L|452:48,1,70,2|0,0:0|0:0,0:0:0:0:
460,131,53895,2,0,L|381:142,1,70,8|0,0:0|0:0,0:0:0:0:
306,234,54226,6,0,L|151:223,1,140,2|8,0:0|0:0,0:0:0:0:
122,151,54723,1,0,0:0:0:0:
54,200,54889,2,0,L|58:282,1,70,2|0,0:0|0:0,0:0:0:0:
11,341,55221,1,8,0:0:0:0:
91,364,55386,6,0,B|149:353|149:353|180:359|180:359|236:350,1,140,2|0,0:0|0:0,0:0:0:0:
307,381,55884,2,0,P|311:345|303:310,1,70,0|0,0:0|0:0,0:0:0:0:
240,257,56215,2,0,L|163:245,1,70,2|0,0:0|0:0,0:0:0:0:
213,173,56547,2,0,L|290:185,1,70,8|0,0:0|0:0,0:0:0:0:
392,225,56878,6,0,B|399:188|399:188|389:146,2,70,4|0|2,0:0|0:0|0:0,0:0:0:0:
378,307,57375,2,0,B|371:344|371:344|381:386,1,70,12|0,0:0|0:0,0:0:0:0:
463,376,57707,2,0,B|470:339|470:339|460:297,1,70,8|0,0:0|0:0,0:0:0:0:
416,237,58038,2,0,B|409:200|419:158,1,70,8|0,0:0|0:0,0:0:0:0:
431,84,58370,2,0,L|513:81,2,70,8|0|8,0:0|0:0|0:0,0:0:0:0:
363,36,58867,1,0,0:0:0:0:
297,88,59033,2,0,L|297:159,1,70,8|0,0:0|0:0,0:0:0:0:
241,220,59364,1,0,0:0:0:0:
123,265,59530,6,0,B|117:302|117:302|122:347,1,70,4|0,0:0|0:0,0:0:0:0:
199,364,59862,1,2,0:0:0:0:
274,328,60027,2,0,P|309:321|350:327,1,70,4|0,0:0|0:0,0:0:0:0:
341,240,60359,2,0,P|306:247|265:241,1,70,6|0,0:0|0:0,0:0:0:0:
202,195,60690,1,4,0:0:0:0:
156,357,61022,1,4,0:0:0:0:
51,222,61353,6,0,L|57:300,1,70,2|0,0:0|0:0,0:0:0:0:
132,255,61685,2,0,L|138:177,1,70
61,148,62016,1,2,0:0:0:0:
130,33,62182,6,0,P|167:25|206:32,1,70,4|0,0:0|0:0,0:0:0:0:
244,99,62513,2,0,P|207:107|168:100,1,70,8|0,0:0|0:0,0:0:0:0:
129,173,62845,2,0,B|201:158|201:158|272:171,1,140,2|8,0:0|0:0,0:0:0:0:
320,234,63342,1,0,0:0:0:0:
242,266,63508,6,0,P|261:328|330:308,1,140,0|8,0:0|0:0,0:0:0:0:
320,234,64005,1,0,0:0:0:0:
401,256,64171,2,0,L|398:172,1,70,2|0,0:0|0:0,0:0:0:0:
469,141,64502,1,8,0:0:0:0:
437,72,64668,1,0,0:0:0:0:
437,72,64751,1,0,0:0:0:0:
437,72,64834,6,0,B|403:58|369:70|369:70|336:81|296:66,1,140,6|8,0:0|0:0,0:0:0:0:
222,35,65331,1,0,0:0:0:0:
162,94,65497,2,0,B|156:131|156:131|163:169,1,70,2|0,0:0|0:0,0:0:0:0:
245,169,65828,2,0,B|250:200|250:200|244:237,1,70,8|0,0:0|0:0,0:0:0:0:
188,300,66160,6,0,B|126:291|126:291|99:295|99:295|44:286,1,140,2|8,0:0|0:0,0:0:0:0:
3,216,66657,1,0,0:0:0:0:
64,158,66823,2,0,L|61:86,1,70,2|0,0:0|0:0,0:0:0:0:
132,43,67154,2,0,L|135:115,1,70,8|0,0:0|0:0,0:0:0:0:
165,143,67403,1,0,0:0:0:0:
165,143,67486,6,0,B|208:158|236:140|236:140|265:121|319:131,1,140,6|8,0:0|0:0,0:0:0:0:
384,131,67983,1,0,0:0:0:0:
337,200,68149,2,0,L|344:280,1,70,2|0,0:0|0:0,0:0:0:0:
294,338,68480,1,8,0:0:0:0:
210,350,68646,1,0,0:0:0:0:
148,293,68812,6,0,L|141:213,1,70,2|0,0:0|0:0,0:0:0:0:
211,176,69143,1,8,0:0:0:0:
292,196,69309,2,0,L|299:276,1,70,0|2,0:0|0:0,0:0:0:0:
378,290,69641,1,0,0:0:0:0:
414,214,69806,2,0,B|445:201|445:201|488:198,1,70,8|0,0:0|0:0,0:0:0:0:
362,153,70138,6,0,B|325:158|325:158|287:142,1,70,4|0,0:0|0:0,0:0:0:0:
294,145,70386,1,4,0:3:0:0:
294,145,70469,1,8,0:0:0:0:
218,182,70635,1,4,0:0:0:0:
285,232,70801,2,0,L|290:270,2,35,0|4|8,0:0|0:3|0:0,0:0:0:0:
227,104,71132,6,0,B|123:121|123:121|91:147,1,140,4|2,0:0|0:0,0:0:0:0:
160,196,71629,1,4,0:0:0:0:
105,260,71795,2,0,L|96:348,1,70,2|0,0:0|0:0,0:0:0:0:
183,343,72127,2,0,L|188:297,3,35,12|8|8|8,0:0|0:0|0:0|0:0,0:0:0:0:
225,292,72458,2,0,L|220:246,3,35,8|8|8|8,0:0|0:0|0:0|0:0,0:0:0:0:
255,231,72790,6,0,P|290:238|325:232,1,70,6|0,0:0|0:0,0:0:0:0:
323,148,73121,2,0,P|288:141|253:147,1,70,8|0,0:0|0:0,0:0:0:0:
181,188,73453,2,0,B|144:171|111:184|111:184|77:197|32:182,1,140,2|8,0:0|0:0,0:0:0:0:
75,107,73950,1,0,0:0:0:0:
159,109,74116,6,0,B|160:210|160:210|151:255,1,140,2|8,0:0|0:0,0:0:0:0:
96,310,74613,1,0,0:0:0:0:
176,334,74779,2,0,B|212:340|212:340|247:336,1,70,2|0,0:0|0:0,0:0:0:0:
306,278,75110,2,0,B|342:272|342:272|377:276,1,70,8|0,0:0|0:0,0:0:0:0:
409,138,75442,6,0,B|337:150|337:150|267:142,1,140,6|8,0:0|0:0,0:0:0:0:
188,124,75939,1,0,0:0:0:0:
112,161,76105,2,0,P|153:229|186:198,1,140,6|8,0:0|0:0,0:0:0:0:
188,124,76602,1,0,0:0:0:0:
270,142,76768,6,0,B|279:185|279:185|264:297,1,140,6|8,0:0|0:0,0:0:0:0:
211,344,77265,1,0,0:0:0:0:
138,300,77431,2,8,L|146:250,2,35,10|8|8,0:0|0:0|0:0,0:0:0:0:
68,346,77762,1,8,0:0:0:0:
9,285,77928,1,8,0:0:0:0:
9,285,78011,1,8,0:0:0:0:
9,285,78094,6,0,B|19:228|19:228|9:194|9:194|20:145,1,140,6|8,0:0|0:0,0:0:0:0:
71,82,78591,1,0,0:0:0:0:
145,121,78757,2,0,P|179:110|215:113,2,70,2|0|8,0:0|0:0|0:0,0:0:0:0:
118,202,79254,6,0,P|187:206|253:184,1,140,0|0,0:0|0:0,0:0:0:0:
326,146,79751,1,8,0:0:0:0:
404,176,79917,2,0,L|407:245,1,70,0|2,0:0|0:0,0:0:0:0:
483,281,80248,1,0,0:0:0:0:
427,344,80414,2,0,B|391:351|391:351|353:346,1,70,8|0,0:0|0:0,0:0:0:0:
198,300,80746,6,0,P|222:357|280:331,1,140,4|8,0:0|0:0,0:0:0:0:
257,250,81243,1,0,0:0:0:0:
301,179,81408,2,0,P|309:145|301:104,1,70,2|0,0:0|0:0,0:0:0:0:
238,56,81740,1,8,0:0:0:0:
228,139,81906,6,0,L|370:122,1,140
449,136,82403,2,0,B|455:172|455:172|449:217,1,70,8|0,0:0|0:0,0:0:0:0:
375,242,82734,2,0,L|379:276,3,35,8|8|8|8,0:0|0:0|0:0|0:0,0:0:0:0:
405,309,83066,2,0,L|400:343,3,35,8|8|8|8,0:0|0:0|0:0|0:0,0:0:0:0:
363,364,83397,2,0,L|287:355,1,70,2|0,0:0|0:0,0:0:0:0:
152,303,83729,6,0,P|143:234|205:259,1,140,4|0,0:0|0:0,0:0:0:0:
237,309,84226,1,4,0:0:0:0:
312,270,84392,2,0,B|317:302|317:302|311:339,1,70
263,197,84723,6,0,B|310:169|356:187|377:214|377:214|419:192|419:192|455:192,1,210,4|0,0:0|0:0,0:0:0:0:
491,268,85386,2,0,L|478:336,1,70,2|0,0:0|0:0,0:0:0:0:
399,368,85718,2,0,L|380:300,1,70,2|0,0:3|0:0,0:0:0:0:
256,252,86049,6,0,L|331:239,1,70,2|0,0:0|0:0,0:0:0:0:
387,182,86381,2,0,L|455:193,2,70,2|0|2,0:0|0:0|0:0,0:0:0:0:
329,120,86878,2,0,L|260:132,1,70,0|2,0:0|0:0,0:0:0:0:
177,149,87210,5,4,0:0:0:0:
256,192,87292,12,0,88701,0:0:0:0:
