osu file format v14

[General]
AudioFilename: audio.mp3
AudioLeadIn: 0
PreviewTime: 61270
Countdown: 0
SampleSet: Soft
StackLeniency: 0.7
Mode: 0
LetterboxInBreaks: 0
WidescreenStoryboard: 0

[Editor]
DistanceSpacing: 1.3
BeatDivisor: 4
GridSize: 32
TimelineZoom: 3

[Metadata]
Title:Habataki no Birthday
TitleUnicode:羽ばたきのバースデイ
Artist:Baby's breath
ArtistUnicode:Baby’s breath
Creator:Nitrous
Version:Forest's Insane
Source:天使の3P!
Tags:Tenshi no 3P! Angel's 3Piece! 五島 潤 Jun Gotou 紅葉谷希美 Nozomi Momijidani 金城そら Sora Kaneshiro tv size opening Kibbleru Kisses xLolicore- Underforest Firis Mistlud ts8zs Akitoshi kurantemelodii Evanescent-
BeatmapID:1421312
BeatmapSetID:670800

[Difficulty]
HPDrainRate:6
CircleSize:4
OverallDifficulty:7.5
ApproachRate:9
SliderMultiplier:1.8
SliderTickRate:1

[Events]
//Background and Video events
0,0,"ForestBg.jpg",0,0
Video,600,"tenshi.mp4"
//Break Periods
//Storyboard Layer 0 (Background)
//Storyboard Layer 1 (Fail)
//Storyboard Layer 2 (Pass)
//Storyboard Layer 3 (Foreground)
//Storyboard Sound Samples

[TimingPoints]
1188,331.491712707182,4,2,18,40,1,0
1188,-125,4,2,18,40,0,0
6491,-100,4,2,18,60,0,0
12127,-90.9090909090909,4,2,18,70,0,0
13121,-200,4,2,18,70,0,0
14116,-66.6666666666667,4,2,18,60,0,0
14447,-100,4,2,18,70,0,0
25055,-125,4,2,18,60,0,0
34834,-125,4,2,18,70,0,0
35663,-100,4,2,18,70,0,0
51574,-100,4,2,18,60,0,0
56878,-100,4,2,18,70,0,0
62182,-100,4,2,18,80,0,1
70635,-100,4,2,18,80,0,1
71629,-100,4,2,18,80,0,1
72127,-100,4,2,18,70,0,0
72790,-100,4,2,18,80,0,1
73121,-100,4,2,18,80,0,1
83397,-133.333333333333,4,2,18,50,0,0
83729,-90.9090909090909,4,2,18,80,0,1
86049,-100,4,2,18,60,0,0
88701,-100,4,2,18,5,0,0

[Colours]
Combo1 : 73,86,248
Combo2 : 252,148,221
Combo3 : 192,80,235
Combo4 : 235,196,37

[HitObjects]
80,121,1188,6,0,L|152:131,1,72,2|0,0:0|0:0,0:0:0:0:
242,107,1519,2,0,L|314:97,1,72,0|0,0:0|0:0,0:0:0:0:
388,40,1850,2,0,P|404:81|400:128,1,72,2|0,0:0|0:0,0:0:0:0:
353,188,2182,2,0,P|337:229|341:276,1,72,0|0,0:0|0:0,0:0:0:0:
403,321,2513,6,0,P|354:348|262:310,1,144,2|0,0:0|0:0,0:0:0:0:
190,280,3011,2,0,P|114:288|35:293,1,144,0|0,0:0|0:0,0:0:0:0:
9,206,3508,1,0,0:0:0:0:
60,127,3674,1,0,0:0:0:0:
124,192,3839,6,0,P|173:189|218:184,1,72,2|0,0:0|0:0,0:0:0:0:
274,134,4171,2,0,P|309:130|345:128,1,72,0|0,0:0|0:0,0:0:0:0:
430,167,4502,2,0,P|447:204|409:310,1,144,2|0,0:0|0:0,0:0:0:0:
331,329,5000,1,0,0:0:0:0:
239,346,5165,6,0,B|198:359|198:359|89:334,1,144,2|0,0:0|0:0,0:0:0:0:
75,150,5828,1,2,0:0:0:0:
99,59,5994,1,0,0:0:0:0:
189,83,6160,1,0,0:0:0:0:
164,173,6326,1,0,0:0:0:0:
75,150,6491,6,0,P|77:215|80:256,1,90,8|0,3:0|0:0,0:0:0:0:
226,331,6823,2,0,P|228:286|229:241,1,90,8|0,3:0|0:0,0:0:0:0:
231,80,7154,1,8,3:0:0:0:
164,173,7320,1,0,0:0:0:0:
292,159,7486,2,0,P|338:150|388:160,1,90,8|0,3:0|0:0,3:3:0:0:
425,309,7818,6,0,P|379:318|329:308,1,90,8|0,3:0|0:0,0:0:0:0:
216,245,8149,1,8,3:0:0:0:
216,245,8315,2,0,L|200:346,1,90,0|8,0:0|3:0,0:0:0:0:
85,371,8647,1,0,0:0:0:0:
77,232,8812,2,0,L|62:143,1,90,8|0,3:0|0:0,0:0:0:0:
170,68,9143,6,0,P|209:60|261:67,1,90,8|0,3:0|0:0,0:0:0:0:
324,202,9475,2,0,P|363:210|415:203,1,90,8|0,3:0|0:0,0:0:0:0:
484,81,9806,1,8,3:0:0:0:
368,118,9972,1,0,0:0:0:0:
408,18,10138,1,8,3:0:0:0:
494,164,10304,1,0,0:0:0:0:
494,164,10469,6,0,L|485:262,1,90,8|0,3:0|0:0,0:0:0:0:
393,306,10801,1,8,3:0:0:0:
282,170,10967,2,0,L|291:268,1,90,0|8,0:0|3:0,0:0:0:0:
230,375,11298,1,0,0:0:0:0:
151,232,11464,1,8,0:0:0:0:
329,333,11629,1,8,0:0:0:0:
329,333,12127,6,0,P|363:347|476:253,1,198.000006042481,4|0,0:0|0:0,0:0:0:0:
454,108,12623,2,0,P|376:160|382:255,1,198.000006042481,4|0,0:0|0:0,0:0:0:0:
237,343,13121,2,0,B|193:325|147:362|147:362|169:278|138:223,1,225,4|2,0:0|3:0,0:0:0:0:
125,162,14032,1,2,3:0:0:0:
123,148,14116,2,0,P|39:137|39:30,1,202.500007724762,10|0,0:0|0:0,0:0:0:0:
89,84,14447,6,0,L|184:56,1,90,4|2,0:0|0:0,0:0:0:0:
320,20,14779,1,8,0:0:0:0:
245,192,14944,1,2,0:0:0:0:
409,152,15110,2,0,P|413:209|406:274,1,90,0|2,0:0|0:0,0:0:0:0:
245,192,15442,2,0,P|241:147|242:102,1,90,8|2,0:0|0:0,0:0:0:0:
305,279,15773,6,0,P|258:298|192:284,1,90,0|2,0:0|0:0,0:0:0:0:
50,216,16105,2,0,P|97:197|163:211,1,90,8|2,0:0|0:0,0:0:0:0:
269,326,16436,1,0,0:0:0:0:
111,280,16602,1,2,0:0:0:0:
247,203,16768,1,8,0:0:0:0:
111,280,16933,1,2,0:0:0:0:
133,114,17099,6,0,L|153:17,1,90,4|2,0:0|0:0,0:0:0:0:
309,73,17431,2,0,L|327:161,1,90,8|2,0:0|0:0,0:0:0:0:
370,322,17762,1,0,0:0:0:0:
446,214,17928,1,2,0:0:0:0:
277,271,18094,2,0,P|236:277|172:268,1,90,8|2,0:0|0:0,0:0:0:0:
109,114,18425,6,0,P|150:108|214:117,1,90,0|2,0:0|0:0,0:0:0:0:
366,156,18757,1,8,0:0:0:0:
303,27,18922,1,2,0:0:0:0:
266,184,19088,1,0,0:0:0:0:
418,73,19254,1,2,0:0:0:0:
435,251,19420,1,8,0:0:0:0:
366,156,19585,1,8,0:0:0:0:
366,156,19668,1,8,0:0:0:0:
366,156,19751,6,0,P|361:200|354:256,1,90,4|2,0:0|0:0,0:0:0:0:
195,316,20083,2,0,P|189:271|184:226,1,90,8|2,0:0|0:0,0:0:0:0:
150,36,20414,1,0,0:0:0:0:
82,165,20580,1,2,0:0:0:0:
248,75,20746,1,8,0:0:0:0:
82,165,20911,1,2,0:0:0:0:
266,260,21077,6,0,L|368:243,1,90,0|2,0:0|0:0,0:0:0:0:
248,75,21408,2,0,L|146:58,1,90,8|2,0:0|0:0,0:0:0:0:
7,127,21740,1,0,0:0:0:0:
130,241,21906,1,2,0:0:0:0:
130,241,21989,1,0,0:0:0:0:
130,241,22071,2,0,P|133:288|121:357,1,90,8|0,0:0|0:0,0:0:0:0:
314,356,22403,5,4,0:0:0:0:
403,264,22569,2,0,L|511:254,1,90,2|0,0:0|0:0,0:0:0:0:
269,126,22900,5,8,0:0:0:0:
180,218,23066,2,0,L|72:228,1,90,0|0,0:0|0:0,0:0:0:0:
24,84,23397,2,0,L|113:75,1,90,2|0,3:0|0:0,0:0:0:0:
269,126,23729,5,8,0:0:0:0:
361,215,23895,2,0,L|371:323,1,90,0|0,0:0|0:0,0:0:0:0:
211,365,24226,5,8,0:0:0:0:
119,276,24392,2,0,L|109:168,1,90,0|0,0:0|0:0,0:0:0:0:
123,39,24723,1,0,3:0:0:0:
432,121,25056,6,0,L|360:131,1,72,6|0,0:0|0:0,0:0:0:0:
270,107,25387,2,0,L|198:97,1,72,2|0,0:0|0:0,0:0:0:0:
124,40,25719,2,0,P|108:81|112:128,1,72,2|0,0:0|0:0,0:0:0:0:
159,188,26050,2,0,P|175:229|171:276,1,72,2|0,0:0|0:0,0:0:0:0:
109,321,26382,6,0,P|158:348|250:310,1,144,2|0,0:0|0:0,0:0:0:0:
322,280,26879,2,0,P|398:288|477:293,1,144,2|0,0:0|0:0,0:0:0:0:
503,206,27376,1,2,0:0:0:0:
452,127,27542,1,0,0:0:0:0:
388,192,27708,6,0,P|339:189|294:184,1,72,2|0,0:0|0:0,0:0:0:0:
238,134,28039,2,0,P|203:130|167:128,1,72,2|0,0:0|0:0,0:0:0:0:
82,167,28371,2,0,P|65:204|103:310,1,144,2|2,0:0|0:0,0:0:0:0:
181,329,28868,1,0,0:0:0:0:
273,345,29034,6,0,B|314:358|314:358|423:333,1,144,2|2,0:0|0:0,0:0:0:0:
469,262,29530,1,0,0:0:0:0:
418,183,29696,2,0,P|414:133|411:80,1,72,2|0,0:0|0:0,0:0:0:0:
320,127,30027,2,0,P|322:162|325:198,1,72,2|0,0:0|0:0,0:0:0:0:
252,258,30359,6,0,P|201:284|103:237,1,144,2|2,0:0|0:0,0:0:0:0:
57,191,30856,1,0,0:0:0:0:
96,105,31022,2,0,P|139:110|178:219,1,144,2|0,0:0|0:0,0:0:0:0:
252,258,31519,6,0,L|426:262,1,144,2|0,0:0|0:0,0:0:0:0:
467,199,32017,1,2,0:0:0:0:
388,149,32182,2,0,L|314:147,1,72,0|2,0:0|0:0,0:0:0:0:
230,106,32514,2,0,L|156:104,1,72,0|2,0:0|0:0,0:0:0:0:
67,128,32845,1,0,0:0:0:0:
38,217,33011,6,0,P|28:260|80:360,1,144,2|2,0:0|0:0,0:0:0:0:
159,354,33508,1,0,0:0:0:0:
252,349,33674,2,0,L|340:336,1,72,2|0,0:0|0:0,0:0:0:0:
353,249,34005,1,2,0:0:0:0:
159,227,34171,5,8,3:0:0:0:
159,227,34254,1,8,3:0:0:0:
159,227,34337,1,8,0:0:0:0:
288,291,34502,2,0,L|358:275,1,72,4|0,0:0|0:0,0:0:0:0:
319,90,34834,2,0,L|222:112,1,72,8|0,0:0|0:0,0:0:0:0:
159,227,35165,2,0,L|256:205,1,72,8|0,0:0|0:0,0:0:0:0:
29,131,35663,5,4,0:0:0:0:
203,138,35828,2,0,P|249:134|306:131,1,90,0|8,0:0|0:0,0:0:0:0:
440,229,36161,1,0,0:0:0:0:
329,309,36326,2,0,P|323:262|328:208,1,90,0|0,3:0|0:0,0:0:0:0:
296,36,36656,1,8,0:0:0:0:
422,115,36822,1,0,0:0:0:0:
247,136,36989,6,0,P|207:141|152:148,1,90,0|0,3:0|0:0,0:0:0:0:
31,93,37320,1,8,0:0:0:0:
21,244,37486,2,0,P|14:282|31:347,1,90,0|0,0:0|3:0,0:0:0:0:
154,235,37817,2,0,P|164:191|157:147,1,90,0|8,0:0|0:0,0:0:0:0:
96,287,38149,1,0,0:0:0:0:
96,287,38315,6,0,P|144:312|232:235,1,180,0|8,3:0|0:0,0:0:0:0:
311,115,38812,1,0,0:0:0:0:
406,274,38978,2,0,L|306:265,1,90,0|0,3:0|0:0,0:0:0:0:
421,139,39310,2,0,L|511:147,1,90,8|0,0:0|0:0,0:0:0:0:
354,35,39641,5,0,3:0:0:0:
266,174,39806,1,0,0:0:0:0:
185,44,39972,1,8,0:0:0:0:
185,44,40138,2,0,P|143:25|18:77,1,180,0|0,0:0|0:0,0:0:0:0:
50,203,40635,2,0,L|66:296,1,90,8|0,0:0|0:0,0:0:0:0:
213,353,40967,5,4,0:0:0:0:
312,281,41132,2,0,P|375:269|429:266,1,90
214,230,41464,2,0,P|131:259|33:226,1,180,2|0,0:0|0:0,0:0:0:0:
78,122,41961,1,0,0:0:0:0:
78,122,42127,6,0,P|126:132|179:114,1,90,4|0,0:0|0:0,0:0:0:0:
288,25,42458,2,0,P|240:15|187:33,1,90,2|0,0:0|0:0,0:0:0:0:
332,118,42790,2,0,P|422:137|504:79,1,180,2|0,0:0|0:0,0:0:0:0:
400,32,43287,1,8,0:0:0:0:
239,122,43453,1,0,0:0:0:0:
239,122,43618,6,0,L|246:227,1,90,12|0,0:0|0:0,0:0:0:0:
156,343,43950,1,8,0:0:0:0:
52,218,44116,2,0,P|89:209|146:225,1,90,0|8,0:0|3:0,0:0:0:0:
251,310,44447,2,0,P|295:321|338:312,1,90,8|8,3:0|3:0,0:0:0:0:
464,208,44779,6,0,B|407:178|407:178|264:234,1,180,4|8,0:0|3:0,0:0:0:0:
143,301,45276,1,8,3:0:0:0:
174,133,45442,1,8,3:0:0:0:
251,310,45607,1,8,3:0:0:0:
101,209,45773,1,8,3:0:0:0:
266,134,45939,2,0,P|271:85|272:31,1,90,8|0,3:0|0:0,0:0:0:0:
438,111,46270,5,8,0:0:0:0:
438,111,46436,1,8,0:0:0:0:
352,216,46602,2,0,P|293:249|245:248,1,90,0|2,0:0|3:0,0:0:0:0:
263,254,46850,1,2,3:0:0:0:
254,257,46933,1,10,0:0:0:0:
117,292,47099,1,0,3:0:0:0:
228,370,47265,1,0,3:0:0:0:
185,201,47431,6,0,L|209:9,1,180,4|0,0:0|0:0,0:0:0:0:
304,149,47928,2,0,P|340:156|418:141,1,90,8|0,0:0|0:0,0:0:0:0:
500,27,48259,2,0,P|455:21|411:28,1,90,8|0,0:0|0:0,0:0:0:0:
392,150,48591,2,0,L|383:273,1,90,8|0,0:0|0:0,0:0:0:0:
434,365,48922,5,8,0:0:0:0:
434,365,49088,1,8,0:0:0:0:
291,342,49254,2,0,L|194:327,1,90,0|2,0:0|3:0,0:0:0:0:
179,326,49475,2,0,L|168:353,2,30,2|2|10,3:0|3:0|0:0,0:0:0:0:
249,172,49751,1,0,3:0:0:0:
310,266,49917,1,0,3:0:0:0:
132,224,50083,6,0,P|103:225|33:94,1,180,4|0,0:0|0:0,0:0:0:0:
195,98,50580,2,0,L|94:142,1,90,8|0,0:0|0:0,0:0:0:0:
273,162,50911,2,0,L|366:203,1,90,8|0,3:0|3:0,0:0:0:0:
486,268,51243,1,8,3:0:0:0:
486,268,51574,6,0,P|460:313|315:334,1,180,4|0,0:0|0:0,0:0:0:0:
143,282,52237,2,0,L|155:193,1,90,8|0,0:0|0:0,0:0:0:0:
242,118,52569,1,0,0:0:0:0:
333,34,52734,2,0,L|304:219,1,180,0|0,0:0|0:0,0:0:0:0:
305,211,53397,1,0,0:0:0:0:
439,287,53563,1,8,0:0:0:0:
434,294,53895,1,2,3:0:0:0:
430,302,54226,6,0,P|395:307|336:315,1,90,4|0,0:0|0:0,0:0:0:0:
227,284,54557,2,0,P|182:277|137:271,1,90,8|0,3:0|0:0,0:0:0:0:
124,154,54889,2,0,P|159:159|218:167,1,90,8|0,3:0|0:0,0:0:0:0:
327,136,55220,2,0,P|371:129|416:123,1,90,8|0,3:0|0:0,0:0:0:0:
447,237,55552,6,0,P|457:276|446:327,1,90,8|0,3:0|0:0,0:0:0:0:
330,311,55884,2,0,P|320:267|330:223,1,90,8|0,3:0|0:0,0:0:0:0:
424,153,56215,2,0,P|364:114|247:148,1,180,8|8,3:0|3:0,0:0:0:0:
43,197,56878,6,0,P|92:209|143:193,1,90,4|0,0:0|0:0,0:0:0:0:
241,97,57210,1,0,0:0:0:0:
241,97,57375,2,0,L|344:113,1,90,8|0,0:0|0:0,0:0:0:0:
507,149,57707,1,8,0:0:0:0:
442,42,57873,1,0,0:0:0:0:
415,216,58038,6,0,P|416:283|401:322,1,90,8|0,0:0|0:0,0:0:0:0:
223,318,58370,1,8,0:0:0:0:
339,256,58536,1,0,0:0:0:0:
214,326,58701,2,0,L|99:311,1,90,8|0,0:0|0:0,0:0:0:0:
54,209,59033,1,0,0:0:0:0:
202,245,59199,1,8,0:0:0:0:
36,316,59365,1,0,0:0:0:0:
210,237,59530,6,0,L|224:145,1,90,4|0,0:0|0:0,0:0:0:0:
322,21,59862,1,8,0:0:0:0:
436,138,60027,2,0,P|393:156|339:152,1,90,8|0,0:0|0:0,0:0:0:0:
212,16,60359,2,0,P|247:46|267:97,1,90,8|0,0:0|0:0,0:0:0:0:
229,268,60690,6,0,P|234:221|263:176,1,90,4|0,0:0|0:0,0:0:0:0:
374,66,61022,1,4,0:0:0:0:
227,308,62182,6,0,P|222:266|220:213,1,90,4|2,0:0|0:0,0:0:0:0:
95,143,62513,2,0,P|96:98|102:53,1,90,8|2,0:0|0:0,0:0:0:0:
295,21,62845,2,0,P|297:65|302:110,1,90,0|2,0:0|0:0,0:0:0:0:
220,218,63176,1,8,0:0:0:0:
385,217,63342,6,0,P|423:207|477:220,1,90,2|0,0:0|0:0,0:0:0:0:
434,342,63674,1,2,0:0:0:0:
434,342,63839,1,8,0:0:0:0:
308,363,64005,2,0,L|194:357,1,90,2|0,0:0|0:0,0:0:0:0:
149,223,64337,2,0,L|238:227,1,90,2|8,0:0|0:0,0:0:0:0:
99,323,64668,1,2,0:0:0:0:
47,169,64834,6,0,P|51:135|62:62,1,90,4|2,0:0|0:0,0:0:0:0:
222,62,65165,1,8,0:0:0:0:
314,178,65331,2,0,P|324:221|318:265,1,90,2|0,0:0|0:0,0:0:0:0:
146,212,65663,2,0,P|140:167|150:124,1,90,2|8,0:0|0:0,0:0:0:0:
233,239,65994,6,0,P|185:292|68:257,1,180,2|2,0:0|0:0,0:0:0:0:
150,124,66491,1,8,0:0:0:0:
150,124,66657,2,0,P|140:167|146:212,1,90,2|0,0:0|0:0,0:0:0:0:
252,356,66989,1,2,0:0:0:0:
319,217,67154,1,8,0:0:0:0:
454,290,67319,1,8,0:0:0:0:
454,290,67402,1,8,0:0:0:0:
454,290,67486,6,0,L|443:181,1,90,4|2,0:0|0:0,0:0:0:0:
330,125,67817,1,8,0:0:0:0:
213,192,67983,2,0,L|222:281,1,90,2|0,0:0|0:0,0:0:0:0:
362,357,68315,1,2,0:0:0:0:
301,227,68480,1,8,0:0:0:0:
203,362,68646,6,0,P|159:371|90:347,1,90,2|0,0:0|0:0,0:0:0:0:
26,206,68978,2,0,P|70:197|139:221,1,90,2|8,0:0|0:0,0:0:0:0:
263,262,69309,2,0,P|306:270|350:261,1,90,2|0,0:0|0:0,0:0:0:0:
496,244,69641,1,2,0:0:0:0:
451,142,69806,1,8,0:0:0:0:
402,343,69972,1,2,0:0:0:0:
297,173,70138,6,0,B|258:142|258:142|122:167,1,180,4|0,0:0|3:0,0:0:0:0:
263,262,70635,2,0,P|329:263|394:166,1,180,0|0,0:0|3:0,0:0:0:0:
246,69,71132,2,0,L|56:102,1,180,12|0,0:0|3:0,0:0:0:0:
85,231,71629,2,0,L|275:264,1,180,8|0,0:0|3:0,0:0:0:0:
397,189,72127,5,8,0:0:0:0:
380,173,72210,1,8,0:0:0:0:
377,151,72292,1,8,0:0:0:0:
388,131,72375,1,8,0:0:0:0:
410,124,72458,1,8,0:0:0:0:
431,133,72541,1,8,0:0:0:0:
442,153,72624,1,8,0:0:0:0:
437,175,72707,1,8,0:0:0:0:
419,190,72790,6,0,P|416:231|410:293,1,90,4|2,0:0|0:0,0:0:0:0:
232,327,73121,2,0,P|236:282|239:237,1,90,8|2,0:0|0:0,0:0:0:0:
275,72,73453,1,0,0:0:0:0:
333,224,73618,1,2,0:0:0:0:
205,137,73784,1,8,0:0:0:0:
356,129,73950,1,2,0:0:0:0:
238,237,74116,6,0,P|194:255|136:248,1,90,0|2,0:0|0:0,0:0:0:0:
14,257,74447,1,8,0:0:0:0:
90,116,74613,2,0,L|94:24,1,90,2|0,0:0|0:0,0:0:0:0:
184,174,74944,1,2,0:0:0:0:
262,22,75110,1,8,0:0:0:0:
166,86,75276,1,2,0:0:0:0:
318,145,75442,6,0,P|363:132|425:135,1,90,4|2,0:0|0:0,0:0:0:0:
476,275,75773,1,8,0:0:0:0:
510,138,75939,1,2,0:0:0:0:
376,256,76105,6,0,P|331:269|269:266,1,90,4|2,0:0|0:0,0:0:0:0:
168,365,76436,1,8,0:0:0:0:
128,203,76602,1,2,0:0:0:0:
168,365,76768,6,0,P|117:368|71:365,1,90,4|2,0:0|0:0,0:0:0:0:
39,204,77099,2,0,P|90:201|136:204,1,90,8|2,0:0|0:0,0:0:0:0:
257,174,77431,1,8,3:0:0:0:
257,174,77513,1,8,3:0:0:0:
257,174,77596,1,8,3:0:0:0:
418,241,77762,1,8,0:0:0:0:
392,67,77928,1,8,0:0:0:0:
392,67,78011,1,8,0:0:0:0:
392,67,78094,6,0,P|432:64|486:59,1,90,4|2,0:0|0:0,0:0:0:0:
346,181,78425,2,0,P|306:178|252:173,1,90,8|2,0:0|0:0,0:0:0:0:
76,151,78757,1,0,0:0:0:0:
203,88,78922,1,2,0:0:0:0:
171,284,79088,2,0,P|168:225|171:174,1,90,8|2,0:0|0:0,0:0:0:0:
348,91,79420,6,0,P|349:135|346:180,1,90,0|2,0:0|0:0,0:0:0:0:
407,327,79751,1,8,0:0:0:0:
256,297,79917,2,0,P|206:300|154:267,1,90,2|0,0:0|0:0,0:0:0:0:
88,151,80248,1,2,0:0:0:0:
220,223,80414,1,8,0:0:0:0:
49,273,80580,1,2,0:0:0:0:
182,135,80746,6,0,L|187:45,1,90,4|2,0:0|0:0,0:0:0:0:
361,115,81077,2,0,L|356:205,1,90,8|2,0:0|0:0,0:0:0:0:
387,351,81408,1,0,0:0:0:0:
445,210,81574,1,2,0:0:0:0:
315,287,81740,1,8,0:0:0:0:
461,290,81906,1,2,0:0:0:0:
315,287,82071,5,8,0:0:0:0:
269,147,82237,1,0,0:0:0:0:
104,285,82404,1,12,0:0:0:0:
150,145,82570,1,0,0:0:0:0:
297,218,82734,5,8,0:0:0:0:
318,223,82816,1,8,0:0:0:0:
341,225,82899,1,8,0:0:0:0:
363,221,82982,1,8,0:0:0:0:
384,213,83065,1,8,0:0:0:0:
405,206,83148,1,8,0:0:0:0:
428,203,83231,1,8,0:0:0:0:
450,206,83314,1,8,0:0:0:0:
472,212,83397,2,0,L|481:137,1,67.5000025749208
425,349,83729,6,0,L|192:328,1,198.000006042481,4|0,0:0|0:0,0:0:0:0:
41,215,84226,2,0,L|274:194,1,198.000006042481,4|0,0:0|0:0,0:0:0:0:
416,125,84723,2,0,P|337:49|245:92,1,198.000006042481,4|0,0:0|0:0,0:0:0:0:
238,197,85221,1,8,0:0:0:0:
205,334,85386,1,8,0:0:0:0:
180,330,85468,1,8,0:0:0:0:
155,327,85551,1,8,0:0:0:0:
131,324,85634,1,8,0:0:0:0:
106,321,85718,2,0,P|96:279|108:215,1,99.0000030212403,10|0,0:0|0:0,0:0:0:0:
128,68,86049,6,0,L|222:82,1,90,0|0,3:0|0:0,0:0:0:0:
280,241,86381,1,2,3:2:0:0:
343,79,86547,1,0,0:0:0:0:
270,153,86712,1,0,3:0:0:0:
410,165,86878,2,0,L|510:176,1,90,2|0,0:0|0:0,0:0:0:0:
362,256,87210,5,2,0:0:0:0:
256,192,87292,12,0,88701,0:0:0:0:
