osu file format v14

[General]
AudioFilename: audio.mp3
AudioLeadIn: 0
PreviewTime: 61270
Countdown: 0
SampleSet: Soft
StackLeniency: 0.7
Mode: 0
LetterboxInBreaks: 0
WidescreenStoryboard: 1

[Editor]
DistanceSpacing: 0.8
BeatDivisor: 4
GridSize: 4
TimelineZoom: 2.3

[Metadata]
Title:Habataki no Birthday
TitleUnicode:羽ばたきのバースデイ
Artist:Baby's breath
ArtistUnicode:Baby’s breath
Creator:Nitrous
Version:Firis' Extra
Source:天使の3P!
Tags:Tenshi no 3P! Angel's 3Piece! 五島 潤 Jun Gotou 紅葉谷希美 Nozomi Momijidani 金城そら Sora Kaneshiro tv size opening Kibbleru Kisses xLolicore- Underforest Firis Mistlud ts8zs Akitoshi kurantemelodii Evanescent-
BeatmapID:1574470
BeatmapSetID:670800

[Difficulty]
HPDrainRate:7
CircleSize:4
OverallDifficulty:8.5
ApproachRate:9
SliderMultiplier:1.8
SliderTickRate:1

[Events]
//Background and Video events
Video,600,"tenshi.mp4"
0,0,"tenshi.jpg",0,0
//Break Periods
//Storyboard Layer 0 (Background)
//Storyboard Layer 1 (Fail)
//Storyboard Layer 2 (Pass)
//Storyboard Layer 3 (Foreground)
//Storyboard Sound Samples

[TimingPoints]
1188,331.491712707182,4,2,1,40,1,0
1188,-133.333333333333,4,2,1,40,0,0
6490,-111.111111111111,4,2,1,50,0,0
11629,-111.111111111111,4,2,1,70,0,0
12127,-66.6666666666667,4,2,1,70,0,0
14116,-57.1428571428571,4,2,1,70,0,0
14447,-83.3333333333333,4,2,1,70,0,0
25055,-133.333333333333,4,2,2,60,0,0
34171,-200,4,2,2,60,0,0
34502,-80,4,2,1,60,0,0
35663,-100,4,2,1,70,0,0
56215,-90.9090909090909,4,2,1,70,0,0
56547,-83.3333333333333,4,2,1,70,0,0
62182,-83.3333333333333,4,2,1,80,0,1
78094,-100,4,2,1,80,0,1
80746,-83.3333333333333,4,2,1,80,0,1
83397,-83.3333333333333,4,2,1,80,0,0
83729,-83.3333333333333,4,2,1,80,0,1
86049,-133.333333333333,4,2,1,70,0,0
88701,-133.333333333333,4,2,1,5,0,0

[Colours]
Combo1 : 73,86,248
Combo2 : 252,148,221
Combo3 : 192,80,235
Combo4 : 235,196,37

[HitObjects]
481,259,1022,5,0,0:0:0:0:
481,259,1188,2,0,L|471:346,1,67.5000025749208,2|0,0:0|0:0,0:0:0:0:
398,256,1519,2,0,L|405:188,1,67.5000025749208,0|0,0:0|0:0,0:0:0:0:
467,129,1850,2,0,P|409:150|337:119,1,135.000005149842,0|0,0:0|0:0,0:0:0:0:
329,50,2348,2,0,L|305:196,1,135.000005149842,0|0,0:0|0:0,0:0:0:0:
204,183,2845,1,0,0:0:0:0:
204,183,3011,6,0,L|183:50,1,135.000005149842,0|0,0:0|0:0,0:0:0:0:
114,100,3508,2,0,L|125:172,1,67.5000025749208,0|0,0:0|0:0,0:0:0:0:
82,237,3839,6,0,P|120:177|105:251,1,202.500007724762,2|0,0:0|0:0,0:0:0:0:
112,252,4502,2,0,P|158:234|247:263,1,135.000005149842,0|0,0:0|0:0,0:0:0:0:
306,314,5000,6,0,L|466:302,1,135.000005149842,0|0,0:0|0:0,0:0:0:0:
440,303,5828,1,0,0:0:0:0:
405,229,5994,1,0,0:0:0:0:
331,263,6160,1,0,0:0:0:0:
366,338,6326,1,0,0:0:0:0:
488,237,6491,6,0,P|499:181|493:143,1,80.9999975280763,2|0,0:0|0:0,0:0:0:0:
361,32,6823,2,0,P|350:88|356:126,1,80.9999975280763,2|0,0:0|0:0,0:0:0:0:
405,229,7154,1,2,0:0:0:0:
334,188,7320,1,0,0:0:0:0:
259,219,7486,1,2,0:0:0:0:
216,330,7652,6,0,P|219:284|186:165,1,161.999995056153,0|0,0:0|0:0,0:0:0:0:
31,119,8149,1,2,0:0:0:0:
108,157,8315,2,0,P|154:160|273:127,1,161.999995056153,0|0,0:0|0:0,0:0:0:0:
356,29,8812,2,0,P|336:86|340:124,1,80.9999975280763,2|0,0:0|0:0,0:0:0:0:
416,193,9143,6,0,P|370:190|251:223,1,161.999995056153,2|2,0:0|0:0,0:0:0:0:
258,218,9806,2,0,P|303:232|347:220,1,80.9999975280763,2|0,0:0|0:0,0:0:0:0:
416,193,10138,1,2,0:0:0:0:
335,225,10304,2,0,P|289:222|170:255,1,161.999995056153,0|0,0:0|0:0,0:0:0:0:
68,384,10801,1,2,0:0:0:0:
114,314,10967,2,0,P|130:243|104:138,1,161.999995056153,0|2,0:0|0:0,0:0:0:0:
36,203,11464,1,2,0:0:0:0:
187,122,11629,1,2,0:0:0:0:
187,122,12127,6,0,B|168:78|113:50|47:87|47:87|53:150|120:158,1,270.000010299683,4|0,0:0|0:0,0:0:0:0:
325,122,12624,2,0,B|343:78|398:50|464:87|464:87|458:150|391:158,1,270.000010299683,4|0,0:0|0:0,0:0:0:0:
287,289,13121,6,0,B|279:324|226:302|241:248|269:192|327:218|387:264|464:210|464:210|444:244|414:265|378:270|378:270|406:278|421:275|458:255|458:255|438:277|423:294|393:309|393:309|416:312|439:300|439:300|428:337|386:349,1,675.000025749208,4|2,0:0|0:0,0:0:0:0:
297,372,14033,5,0,0:0:0:0:
246,373,14116,2,0,B|164:336|180:254|191:231|191:231|151:215|127:260,1,236.250002253056,2|0,0:3|0:0,0:0:0:0:
89,318,14447,6,0,P|111:254|93:193,1,107.999996704102,2|0,0:0|0:0,0:0:0:0:
23,39,14779,1,8,0:0:0:0:
12,256,14944,1,0,0:0:0:0:
206,157,15110,1,2,0:0:0:0:
0,117,15276,1,0,0:0:0:0:
89,318,15442,1,8,0:0:0:0:
269,218,15607,6,0,P|291:155|273:94,1,107.999996704102,0|2,0:0|0:0,0:0:0:0:
87,113,15939,1,0,0:0:0:0:
176,314,16105,1,8,0:0:0:0:
363,194,16270,2,0,P|435:190|500:316,1,215.999993408203,2|0,0:0|0:0,0:0:0:0:
310,295,16768,1,8,0:0:0:0:
442,150,16933,1,0,0:0:0:0:
249,359,17099,6,0,P|226:295|245:234,1,107.999996704102,4|0,0:0|0:0,0:0:0:0:
354,71,17431,1,8,0:0:0:0:
406,285,17596,1,0,0:0:0:0:
254,126,17762,1,2,0:0:0:0:
467,73,17928,1,0,0:0:0:0:
310,226,18094,1,8,0:0:0:0:
157,69,18259,1,0,0:0:0:0:
332,153,18425,5,2,0:0:0:0:
171,262,18591,1,0,0:0:0:0:
235,50,18757,1,8,0:0:0:0:
386,211,18922,2,0,P|371:272|315:302,1,107.999996704102,0|2,0:0|0:0,0:0:0:0:
119,197,19254,2,0,P|179:179|233:212,1,107.999996704102,0|8,0:0|0:0,0:0:0:0:
68,357,19585,1,8,0:0:0:0:
68,357,19668,1,0,0:0:0:0:
68,357,19751,6,0,L|50:236,1,107.999996704102,4|0,0:0|0:0,0:0:0:0:
143,40,20083,1,8,0:0:0:0:
171,262,20248,1,0,0:0:0:0:
36,84,20414,1,2,0:0:0:0:
257,56,20580,1,0,0:0:0:0:
285,277,20746,1,8,0:0:0:0:
80,180,20911,1,0,0:0:0:0:
307,162,21077,5,2,0:0:0:0:
209,367,21243,1,0,0:0:0:0:
192,141,21408,1,8,0:0:0:0:
396,239,21574,1,2,0:0:0:0:
171,260,21740,1,0,0:0:0:0:
257,56,21906,1,0,0:0:0:0:
285,277,22071,1,8,0:0:0:0:
80,180,22237,1,0,0:0:0:0:
419,121,22403,5,4,0:0:0:0:
303,367,22569,1,0,0:0:0:0:
303,367,22652,1,0,0:0:0:0:
303,367,22734,1,8,0:0:0:0:
192,141,22900,2,0,P|207:52|333:86,1,215.999993408203,4|0,0:0|0:0,0:0:0:0:
392,286,23397,2,0,L|240:273,1,107.999996704102,8|0,0:0|0:0,0:0:0:0:
93,121,23729,5,4,0:0:0:0:
209,367,23895,1,0,0:0:0:0:
209,367,23978,1,0,0:0:0:0:
209,367,24060,1,8,0:0:0:0:
468,219,24226,2,0,L|232:196,1,215.999993408203,4|2,0:0|0:0,0:0:0:0:
36,319,24723,1,8,0:0:0:0:
35,319,25055,6,0,P|82:273|146:285,1,135.000005149842,12|8,0:0|0:0,0:0:0:0:
190,357,25552,1,0,0:0:0:0:
190,357,25718,2,0,P|227:306|203:222,1,135.000005149842,8|8,0:0|0:0,0:0:0:0:
153,197,26215,1,0,0:0:0:0:
263,302,26381,6,0,P|315:308|344:299,1,67.5000025749208,8|0,0:0|0:0,0:0:0:0:
387,247,26712,1,8,0:0:0:0:
331,370,26878,2,0,P|325:318|334:289,1,67.5000025749208,0|8,0:0|0:0,0:0:0:0:
387,247,27210,1,0,0:0:0:0:
458,284,27375,1,8,0:0:0:0:
469,364,27541,1,0,0:0:0:0:
319,198,27707,6,0,P|365:167|445:187,1,135.000005149842,8|8,0:0|0:0,0:0:0:0:
340,124,28204,1,0,0:0:0:0:
340,124,28370,2,0,P|309:78|329:-2,1,135.000005149842,8|8,0:0|0:0,0:0:0:0:
390,55,28867,1,0,0:0:0:0:
267,102,29033,6,0,P|229:105|195:95,1,67.5000025749208,8|0,0:0|0:0,0:0:0:0:
130,56,29364,1,8,0:0:0:0:
267,102,29530,6,0,P|229:93|194:98,1,67.5000025749208
129,134,29862,1,0,0:0:0:0:
89,201,30027,1,8,0:0:0:0:
50,132,30193,1,0,0:0:0:0:
169,202,30359,5,8,0:0:0:0:
169,202,30690,2,0,P|191:248|179:293,1,67.5000025749208,8|0,0:0|0:0,0:0:0:0:
160,333,31022,2,0,P|151:266|168:201,1,135.000005149842,8|8,0:0|0:0,0:0:0:0:
237,176,31519,2,0,L|398:190,1,135.000005149842,0|0,0:0|0:0,0:0:0:0:
445,191,32016,1,8,0:0:0:0:
445,191,32182,2,0,P|454:124|437:59,2,135.000005149842,0|8|8,0:0|0:0|0:0,0:0:0:0:
409,252,33011,6,0,P|400:319|417:384,1,135.000005149842,8|8,0:0|0:0,0:0:0:0:
366,328,33508,1,0,0:0:0:0:
366,328,33674,2,0,P|299:319|234:336,1,135.000005149842,8|8,0:0|0:0,0:0:0:0:
170,378,34171,2,0,L|136:375,1,22.5,8|8,0:3|0:3,0:0:0:0:
25,359,34337,5,12,0:3:0:0:
151,138,34502,2,0,P|187:198|143:284,1,168.75,4|0,0:0|0:0,0:0:0:0:
21,197,34834,2,0,P|70:133|151:138,1,168.75,4|0,0:0|0:0,0:0:0:0:
105,208,35165,1,6,0:0:0:0:
105,208,35663,6,0,P|174:148|285:181,1,180,4|8,0:0|0:0,0:0:0:0:
407,245,36160,1,0,0:0:0:0:
265,332,36326,2,0,P|253:278|266:243,1,90,2|0,0:0|0:0,0:0:0:0:
408,158,36657,1,8,0:0:0:0:
406,332,36823,1,0,0:0:0:0:
335,201,36989,5,2,0:0:0:0:
481,289,37154,2,0,P|493:343|480:378,1,90,0|8,0:0|0:0,0:0:0:0:
483,202,37486,1,2,0:0:0:0:
332,288,37652,1,0,0:0:0:0:
333,114,37817,1,0,0:0:0:0:
407,245,37983,1,8,0:0:0:0:
256,157,38149,1,0,0:0:0:0:
407,70,38315,6,0,P|419:122|317:200,1,180,2|8,0:0|0:0,0:0:0:0:
184,113,38812,1,0,0:0:0:0:
336,27,38978,1,2,0:0:0:0:
256,157,39143,1,0,0:0:0:0:
105,69,39309,1,8,0:0:0:0:
259,73,39475,1,0,0:0:0:0:
181,197,39641,5,2,0:0:0:0:
187,29,39806,1,0,0:0:0:0:
256,157,39972,1,8,0:0:0:0:
106,237,40138,2,0,P|72:301|178:363,1,180,2|0,0:0|0:0,0:0:0:0:
249,246,40635,2,0,L|256:150,1,90,8|0,0:0|0:0,0:0:0:0:
483,357,40967,5,4,0:0:0:0:
336,180,41132,1,0,0:0:0:0:
321,342,41298,1,8,0:0:0:0:
474,142,41464,2,0,P|476:69|387:16,1,180,4|0,0:0|0:0,0:0:0:0:
255,156,41961,1,8,0:0:0:0:
397,102,42127,6,0,L|384:301,1,180,4|0,0:0|0:0,0:0:0:0:
483,357,42624,1,8,0:0:0:0:
314,217,42790,2,0,P|246:181|184:253,1,180,4|0,0:0|0:0,0:0:0:0:
187,264,43204,1,0,0:0:0:0:
194,280,43287,1,8,0:0:0:0:
255,156,43453,1,0,0:0:0:0:
29,27,43618,5,4,0:0:0:0:
181,120,43784,2,0,L|195:14,1,90,0|8,0:0|0:0,0:0:0:0:
107,178,44116,1,2,0:0:0:0:
110,195,44199,1,8,0:3:0:0:
113,212,44281,1,8,0:3:0:0:
255,156,44447,1,4,0:3:0:0:
92,95,44613,1,12,0:3:0:0:
137,357,44779,5,4,0:0:0:0:
137,357,45110,1,2,0:0:0:0:
195,208,45276,1,8,0:0:0:0:
37,233,45442,1,2,0:0:0:0:
207,302,45607,1,8,0:0:0:0:
181,120,45773,1,2,0:0:0:0:
125,269,45939,1,12,0:0:0:0:
344,32,46270,5,8,0:0:0:0:
404,290,46436,1,8,0:0:0:0:
404,290,46768,5,2,0:0:0:0:
404,290,46850,1,2,0:0:0:0:
404,290,46933,1,8,0:3:0:0:
371,165,47099,1,8,0:3:0:0:
280,257,47265,1,8,0:3:0:0:
344,32,47431,6,0,P|296:98|199:110,1,180,4|0,0:0|0:0,0:0:0:0:
4,71,47928,1,8,0:0:0:0:
159,177,48094,1,0,0:0:0:0:
141,49,48259,1,8,0:0:0:0:
34,205,48425,1,0,0:0:0:0:
190,312,48591,2,0,L|283:296,1,90,8|0,0:0|0:0,0:0:0:0:
203,111,48922,5,8,0:0:0:0:
64,339,49088,1,8,0:0:0:0:
64,339,49420,6,0,L|75:389,3,30,0|8|8|8,0:0|0:3|0:3|0:3,0:0:0:0:
171,236,49751,1,8,0:3:0:0:
241,367,49917,1,8,0:3:0:0:
102,126,50083,6,0,P|150:192|247:204,1,180,4|0,0:0|0:0,0:0:0:0:
377,79,50580,1,8,0:0:0:0:
203,111,50746,1,0,0:0:0:0:
318,246,50911,2,0,L|428:229,1,90,2|0,0:0|0:0,0:0:0:0:
280,63,51243,2,0,P|286:116|325:163,1,90,8|0,0:0|0:0,0:0:0:0:
474,297,51574,6,0,L|263:331,1,180,4|8,0:0|0:0,0:0:0:0:
114,359,52071,1,0,0:0:0:0:
185,187,52237,2,0,P|211:266|212:380,1,180,2|8,0:0|0:0,0:0:0:0:
35,307,52734,6,0,P|37:217|64:131,1,180,0|0,0:0|0:0,0:0:0:0:
64,131,53232,1,8,0:0:0:0:
129,68,53563,1,8,0:0:0:0:
223,218,53729,1,0,0:0:0:0:
41,210,53895,1,2,0:0:0:0:
317,368,54226,6,0,B|384:306|384:306|372:180,1,180,2|8,0:0|0:0,0:0:0:0:
195,368,54889,2,0,B|128:306|128:306|140:180,1,180,2|8,0:0|0:0,0:0:0:0:
320,42,55552,2,0,L|301:233,1,180,0|0,0:0|0:0,0:0:0:0:
87,149,56215,6,0,P|140:133|196:157,1,99.0000030212403,2|0,0:0|0:0,0:0:0:0:
128,301,56547,2,0,P|66:263|53:213,1,107.999996704102,8|0,0:0|0:0,0:0:0:0:
207,31,56878,5,4,0:0:0:0:
136,217,57044,1,0,0:0:0:0:
10,62,57210,1,2,0:0:0:0:
214,238,57375,2,0,L|344:217,1,107.999996704102,12|0,0:0|0:0,0:0:0:0:
459,318,57707,5,8,0:0:0:0:
350,139,57873,1,0,0:0:0:0:
234,318,58038,2,0,L|104:297,1,107.999996704102,8|0,0:0|0:0,0:0:0:0:
205,136,58370,5,8,0:0:0:0:
314,315,58536,1,0,0:0:0:0:
434,134,58701,2,0,P|401:76|361:55,1,107.999996704102,8|0,0:0|0:0,0:0:0:0:
214,237,59033,5,8,0:0:0:0:
436,212,59199,1,0,0:0:0:0:
294,33,59364,1,0,0:0:0:0:
223,327,59530,5,4,0:0:0:0:
353,125,59696,1,0,0:0:0:0:
113,114,59862,1,2,0:0:0:0:
316,244,60027,1,4,0:0:0:0:
447,42,60193,1,0,0:0:0:0:
233,152,60359,1,6,0:0:0:0:
343,366,60525,1,0,0:0:0:0:
509,126,60690,5,4,0:0:0:0:
31,95,61022,1,4,0:0:0:0:
31,95,62182,6,0,P|101:80|155:100,1,107.999996704102,4|0,0:0|0:0,0:0:0:0:
252,288,62513,2,0,P|182:303|128:283,1,107.999996704102,8|0,0:0|0:0,0:0:0:0:
298,103,62845,1,2,0:0:0:0:
351,262,63011,1,0,0:0:0:0:
194,177,63176,1,8,0:0:0:0:
406,88,63342,1,0,0:0:0:0:
497,291,63508,6,0,P|474:359|430:395,1,107.999996704102,0|0,0:0|0:0,0:0:0:0:
283,213,63839,1,8,0:0:0:0:
512,154,64005,1,0,0:0:0:0:
377,317,64171,1,2,0:0:0:0:
194,177,64337,2,0,L|187:55,1,107.999996704102,0|8,0:0|0:0,0:0:0:0:
390,174,64668,1,0,0:0:0:0:
161,350,64834,5,6,0:0:0:0:
283,213,65000,2,0,P|304:268|291:325,1,107.999996704102,0|8,0:0|0:0,0:0:0:0:
113,181,65331,1,0,0:0:0:0:
321,91,65497,1,2,0:0:0:0:
207,274,65663,2,0,L|99:259,1,107.999996704102,0|8,0:0|0:0,0:0:0:0:
45,42,65994,1,0,0:0:0:0:
212,186,66160,5,2,0:0:0:0:
3,258,66326,1,0,0:0:0:0:
148,92,66491,1,8,0:0:0:0:
305,274,66657,2,0,L|411:259,1,107.999996704102,0|2,0:0|0:0,0:0:0:0:
467,42,66989,1,0,0:0:0:0:
300,186,67154,1,8,0:0:0:0:
444,353,67320,1,8,0:0:0:0:
444,353,67403,1,8,0:0:0:0:
444,353,67486,6,0,P|506:282|499:228,1,107.999996704102,6|0,0:0|0:0,0:0:0:0:
369,90,67817,1,8,0:0:0:0:
186,228,67983,2,0,L|198:368,1,107.999996704102,0|2,0:0|0:0,0:0:0:0:
411,259,68315,1,0,0:0:0:0:
237,109,68480,1,8,0:0:0:0:
313,326,68646,1,0,0:0:0:0:
463,152,68812,5,2,0:0:0:0:
306,0,68978,1,0,0:0:0:0:
274,221,69143,1,8,0:0:0:0:
413,46,69309,2,0,P|362:89|350:158,1,107.999996704102,0|2,0:0|0:0,0:0:0:0:
349,126,69806,1,8,0:0:0:0:
208,278,69972,1,0,0:0:0:0:
74,97,70138,6,0,P|115:62|224:169,1,215.999993408203,4|8,0:0|0:0,0:0:0:0:
161,350,70635,6,0,P|126:296|130:247,1,107.999996704102,4|0,0:0|0:0,0:0:0:0:
146,140,70967,1,8,0:0:0:0:
383,161,71132,6,0,P|353:218|309:239,1,107.999996704102,4|0,0:0|0:0,0:0:0:0:
208,278,71464,1,10,0:0:0:0:
31,168,71629,5,4,0:0:0:0:
112,44,71795,2,0,P|147:98|143:147,1,107.999996704102,2|0,0:0|0:0,0:0:0:0:
67,306,72127,6,0,L|50:244,1,53.9999983520508,12|8,0:0|0:0,0:0:0:0:
242,143,72292,2,0,L|225:205,1,53.9999983520508,8|8,0:0|0:0,0:0:0:0:
158,348,72458,6,0,L|141:286,1,53.9999983520508,8|8,0:0|0:0,0:0:0:0:
330,185,72624,2,0,L|313:247,1,53.9999983520508,8|8,0:0|0:0,0:0:0:0:
239,369,72790,5,6,0:0:0:0:
418,227,72955,1,0,0:0:0:0:
214,277,73121,1,8,0:0:0:0:
435,347,73287,1,0,0:0:0:0:
386,121,73453,2,0,P|347:104|273:122,1,107.999996704102,2|0,0:0|0:0,0:0:0:0:
335,334,73784,1,8,0:0:0:0:
500,179,73950,1,0,0:0:0:0:
280,231,74116,6,0,B|216:218|216:218|144:177|144:177|59:157,1,215.999993408203,2|8,0:0|0:0,0:0:0:0:
153,384,74613,2,0,B|177:328|177:328|172:266,1,107.999996704102,0|2,0:0|0:0,0:0:0:0:
13,114,74944,1,0,0:0:0:0:
0,346,75110,2,0,B|60:338|60:338|111:303,1,107.999996704102,8|0,0:0|0:0,0:0:0:0:
241,61,75442,6,0,P|169:19|181:109,1,215.999993408203,6|8,0:0|0:0,0:0:0:0:
179,108,76105,2,0,P|170:160|188:210,1,107.999996704102,6|0,0:0|0:0,0:0:0:0:
294,306,76436,1,8,0:0:0:0:
324,166,76602,1,0,0:0:0:0:
127,381,76768,6,0,L|250:363,1,107.999996704102,6|0,0:0|0:0,0:0:0:0:
410,335,77099,1,8,0:0:0:0:
178,277,77265,1,0,0:0:0:0:
338,379,77431,1,2,0:0:0:0:
338,379,77513,1,0,0:0:0:0:
338,379,77596,1,0,0:0:0:0:
440,219,77762,1,8,0:0:0:0:
294,306,77928,2,0,L|360:293,1,53.9999983520508,0|0,0:0|0:0,0:0:0:0:
472,131,78094,6,0,P|386:141|344:217,1,180,6|8,0:0|0:0,0:0:0:0:
344,217,78757,1,2,0:0:0:0:
188,337,78922,1,0,0:0:0:0:
162,143,79088,1,8,0:0:0:0:
282,298,79254,1,0,0:0:0:0:
101,223,79420,6,0,P|61:147|115:52,1,180,2|8,0:0|0:0,0:0:0:0:
258,169,79917,2,0,P|233:208|194:234,1,90,0|2,0:0|0:0,0:0:0:0:
176,47,80248,1,0,0:0:0:0:
347,125,80414,2,0,P|368:165|371:211,1,90,8|0,0:0|0:0,0:0:0:0:
165,356,80746,6,0,P|212:330|265:327,1,107.999996704102,4|0,0:0|0:0,0:0:0:0:
482,246,81077,1,8,0:0:0:0:
245,162,81243,1,0,0:0:0:0:
409,354,81408,1,2,0:0:0:0:
494,116,81574,1,0,0:0:0:0:
312,270,81740,1,8,0:0:0:0:
158,88,81906,1,0,0:0:0:0:
383,169,82071,5,2,0:0:0:0:
200,323,82237,1,0,0:0:0:0:
315,117,82403,2,0,P|383:85|431:95,1,107.999996704102,8|0,0:0|0:0,0:0:0:0:
489,308,82734,5,8,0:0:0:0:
445,339,82817,1,8,0:0:0:0:
392,343,82900,1,8,0:0:0:0:
345,319,82983,1,8,0:0:0:0:
317,273,83066,6,0,L|307:194,1,53.9999983520508,8|8,0:0|0:0,0:0:0:0:
494,116,83232,2,0,L|487:169,1,53.9999983520508,8|8,0:0|0:0,0:0:0:0:
410,247,83397,5,2,0:0:0:0:
410,247,83729,5,4,0:0:0:0:
184,173,83895,1,0,0:0:0:0:
345,92,84060,1,0,0:0:0:0:
102,247,84226,5,4,0:0:0:0:
328,173,84392,1,0,0:0:0:0:
167,92,84557,1,0,0:0:0:0:
285,321,84723,6,0,P|250:246|272:101,1,215.999993408203,4|0,0:0|0:0,0:0:0:0:
420,70,85221,1,0,0:0:0:0:
328,173,85386,1,2,0:0:0:0:
285,42,85552,1,0,0:0:0:0:
412,157,85718,2,0,P|395:224|339:256,1,107.999996704102,2|0,0:3|0:0,0:0:0:0:
192,199,86049,5,2,0:0:0:0:
192,199,86215,1,0,0:0:0:0:
285,42,86381,2,0,L|272:121,1,67.5000025749208,2|0,0:0|0:0,0:0:0:0:
106,180,86712,5,2,0:0:0:0:
199,23,86878,2,0,L|186:102,1,67.5000025749208,0|2,0:0|0:0,0:0:0:0:
80,278,87210,6,0,B|163:283|147:229|211:223|211:223|145:269|166:331|166:331|212:279|326:270|261:383|501:355|381:217|299:296,1,607.500023174287,4|0,0:0|0:0,0:0:0:0:
