osu file format v14

[General]
AudioFilename: audio.mp3
AudioLeadIn: 0
PreviewTime: 61270
Countdown: 0
SampleSet: Soft
StackLeniency: 0.7
Mode: 0
LetterboxInBreaks: 0
WidescreenStoryboard: 1

[Editor]
DistanceSpacing: 0.9
BeatDivisor: 4
GridSize: 4
TimelineZoom: 1.6

[Metadata]
Title:Habataki no Birthday
TitleUnicode:羽ばたきのバースデイ
Artist:Baby's breath
ArtistUnicode:Baby’s breath
Creator:Nitrous
Version:Evanescent's Extra
Source:天使の3P!
Tags:Tenshi no 3P! Angel's 3Piece! 五島 潤 Jun Gotou 紅葉谷希美 Nozomi Momijidani 金城そら Sora Kaneshiro tv size opening Kibbleru Kisses xLolicore- Underforest Firis Mistlud ts8zs Akitoshi kurantemelodii Evanescent-
BeatmapID:1419681
BeatmapSetID:670800

[Difficulty]
HPDrainRate:6
CircleSize:4.2
OverallDifficulty:9
ApproachRate:9.3
SliderMultiplier:1.8
SliderTickRate:1

[Events]
//Background and Video events
0,0,"tenshi.jpg",0,0
Video,600,"tenshi.mp4"
//Break Periods
//Storyboard Layer 0 (Background)
//Storyboard Layer 1 (Fail)
//Storyboard Layer 2 (Pass)
//Storyboard Layer 3 (Foreground)
//Storyboard Sound Samples

[TimingPoints]
1188,331.491712707182,4,2,9,70,1,0
1188,-125,4,2,9,50,0,0
6491,-100,4,2,9,70,0,0
12127,-90.9090909090909,4,2,9,70,0,0
13121,-200,4,2,9,80,0,0
14116,-200,4,2,9,80,0,0
14447,-100,4,2,9,70,0,0
25055,-125,4,2,9,55,0,0
34834,-100,4,2,9,65,0,0
35663,-100,4,2,9,65,0,0
51574,-117.647058823529,4,2,9,70,0,0
56878,-100,4,2,9,75,0,0
62182,-100,4,2,9,80,0,1
70635,-83.3333333333333,4,2,9,80,0,1
71629,-90.9090909090909,4,2,9,80,0,1
72127,-90.9090909090909,4,2,9,80,0,0
72790,-90.9090909090909,4,2,9,80,0,1
73121,-100,4,2,9,80,0,1
83397,-100,4,2,9,80,0,0
83729,-100,4,2,9,80,0,1
86049,-100,4,2,9,80,0,0
88701,-100,4,2,9,5,0,0

[Colours]
Combo1 : 73,86,248
Combo2 : 252,148,221
Combo3 : 192,80,235
Combo4 : 235,196,37

[HitObjects]
52,56,1188,6,0,P|94:51|136:48,1,72
244,120,1519,2,0,P|202:115|160:112,1,72
304,48,1850,2,0,P|328:84|336:120,1,72
296,192,2182,1,0,0:0:0:0:
448,128,2348,2,0,P|408:172|428:260,1,144
488,344,2845,1,0,0:0:0:0:
352,312,3011,2,0,P|312:308|216:356,1,144
220,350,3508,1,0,0:0:0:0:
232,204,3674,1,0,0:0:0:0:
128,272,3839,6,0,B|144:236|144:236|124:116,1,144
32,212,4337,1,0,0:0:0:0:
48,56,4502,2,0,L|216:32,1,144
384,152,5000,2,0,P|324:164|256:92,1,144
328,8,5497,6,0,P|340:64|344:96,1,72
476,192,5828,2,0,P|481:156|490:121,1,72
384,152,6160,1,0,0:0:0:0:
432,288,6326,1,0,0:0:0:0:
239,222,6491,6,0,L|335:230,1,90,2|0,0:0|0:0,0:0:0:0:
172,372,6823,2,0,P|168:320|140:280,1,90,2|0,0:0|0:0,0:0:0:0:
56,140,7154,2,0,P|95:173|143:182,1,90,2|0,0:0|0:0,0:0:0:0:
323,200,7486,2,0,P|271:203|231:231,1,90,2|0,0:0|0:0,0:0:0:0:
336,344,7817,6,0,P|392:348|448:240,1,180,2|2,0:0|0:0,0:0:0:0:
336,136,8315,2,0,B|376:172|376:172|528:148,1,180
352,48,8812,2,0,P|300:52|264:84,1,90,2|0,0:0|0:0,0:0:0:0:
96,164,9143,6,0,P|144:172|200:180,1,90,2|0,0:0|0:0,0:0:0:0:
368,248,9475,2,0,P|320:256|264:264,1,90,2|0,0:0|0:0,0:0:0:0:
172,284,9806,1,2,0:0:0:0:
296,368,9972,1,0,0:0:0:0:
404,164,10138,1,0,0:0:0:0:
149,268,10304,2,0,P|197:253|237:124,1,180
200,68,10801,2,0,P|214:116|256:147,1,90,2|0,0:0|0:0,0:0:0:0:
345,166,11132,5,0,0:0:0:0:
288,60,11298,1,0,0:0:0:0:
164,194,11464,2,0,L|172:294,1,90,8|0,0:0|0:0,0:0:0:0:
171,283,12127,6,0,B|239:275|239:275|291:295|291:295|371:287,1,198.000006042481,4|0,3:0|0:0,0:0:0:0:
484,144,12624,2,0,P|436:172|332:96,1,198.000006042481,4|0,3:0|0:0,0:0:0:0:
232,40,13121,2,0,B|212:92|232:140|232:140|220:196|220:196|248:240|224:312,1,270,4|4,3:0|0:0,0:0:0:0:
360,196,14447,6,0,B|268:160|276:240|180:196,1,180,0|8,0:0|0:0,0:0:0:0:
104,100,14944,1,0,0:0:0:0:
240,24,15110,2,0,P|232:88|228:128,1,90
316,268,15442,1,8,0:0:0:0:
416,120,15607,6,0,P|468:116|520:112,1,90
316,268,15939,2,0,P|280:264|216:256,1,90,0|8,0:0|0:0,0:0:0:0:
20,120,16270,2,0,P|80:144|156:60,1,180
304,16,16768,2,0,P|288:64|300:128,1,90,8|0,0:0|0:0,0:0:0:0:
468,260,17099,6,0,B|400:248|400:248|344:264|344:264|268:248,1,180,4|8,0:3|0:0,0:0:0:0:
332,176,17596,1,0,0:0:0:0:
424,356,17762,1,0,0:0:0:0:
488,152,17928,1,0,0:0:0:0:
304,308,18094,1,8,0:0:0:0:
332,84,18259,6,0,P|380:88|424:92,1,90
304,308,18591,2,0,P|256:312|212:316,1,90,0|8,0:0|0:0,0:0:0:0:
40,208,18922,2,0,P|80:160|204:180,1,180
304,308,19420,1,8,0:0:0:0:
324,92,19585,1,8,0:0:0:0:
320,116,19668,1,8,0:0:0:0:
316,136,19751,6,0,P|400:156|476:72,1,180,0|8,0:0|0:0,0:0:0:0:
188,60,20248,1,0,0:0:0:0:
176,96,20331,1,0,0:0:0:0:
180,132,20414,1,0,0:0:0:0:
300,248,20580,1,0,0:0:0:0:
376,64,20746,1,8,0:0:0:0:
192,216,20911,6,0,P|184:272|200:320,1,90
424,368,21243,2,0,P|432:312|416:264,1,90,0|8,0:0|0:0,0:0:0:0:
344,136,21574,2,0,P|392:160|488:92,1,180
268,32,22071,2,0,P|200:36|164:36,1,90,8|0,0:0|0:0,0:0:0:0:
296,188,22403,5,8,0:0:0:0:
152,352,22569,1,0,0:0:0:0:
152,352,22652,1,0,0:0:0:0:
152,352,22734,1,0,0:0:0:0:
40,196,22900,2,0,P|104:216|184:148,1,180,8|0,0:0|0:0,0:0:0:0:
220,32,23397,1,0,0:0:0:0:
96,124,23563,1,0,0:0:0:0:
152,352,23729,5,8,0:0:0:0:
344,192,23895,1,0,0:0:0:0:
344,192,23978,1,0,0:0:0:0:
344,192,24060,1,0,0:0:0:0:
188,240,24226,2,0,B|248:252|248:252|276:288|276:288|356:304,1,180,8|0,0:0|0:0,0:0:0:0:
484,140,24723,1,0,0:0:0:0:
416,52,24889,1,0,0:0:0:0:
324,104,25055,6,0,L|180:118,1,144,4|2,0:3|0:0,0:0:0:0:
392,268,25552,1,0,0:0:0:0:
392,268,25718,2,0,L|384:192,1,72,2|0,0:0|0:0,0:0:0:0:
268,192,26049,2,0,L|260:263,1,72,2|0,0:0|0:0,0:0:0:0:
116,104,26381,6,0,P|164:120|244:64,1,144,2|0,0:0|0:0,0:0:0:0:
372,24,26878,2,0,B|352:68|352:68|376:188,1,144,2|0,0:0|0:0,0:0:0:0:
459,315,27375,2,0,P|464:276|443:235,1,72
312,268,27707,6,0,L|476:244,1,144,2|2,0:0|0:0,0:0:0:0:
312,156,28204,1,0,0:0:0:0:
232,304,28370,2,0,P|264:352|296:364,1,72,2|0,0:0|0:0,0:0:0:0:
312,268,28701,1,2,0:0:0:0:
192,184,28867,1,0,0:0:0:0:
88,368,29033,6,0,L|76:216,1,144,2|2,0:0|0:0,0:0:0:0:
192,184,29530,1,0,0:0:0:0:
32,140,29696,2,0,L|112:132,1,72,2|0,0:0|0:0,0:0:0:0:
256,104,30027,2,0,L|176:96,1,72,2|0,0:0|0:0,0:0:0:0:
292,200,30359,6,0,B|340:192|340:192|380:204|380:204|452:192,1,144,2|2,0:0|0:0,0:0:0:0:
388,120,30856,1,0,0:0:0:0:
380,304,31022,1,2,0:0:0:0:
372,112,31187,1,0,0:0:0:0:
400,316,31353,1,2,0:0:0:0:
172,226,31519,6,0,P|228:246|296:186,1,144
228,116,32016,1,2,0:0:0:0:
72,212,32182,2,0,L|84:356,1,144
204,288,32679,1,2,0:0:0:0:
136,116,32845,1,0,0:0:0:0:
332,88,33011,6,0,P|288:128|312:216,1,144,2|2,0:0|0:0,0:0:0:0:
440,296,33508,1,0,0:0:0:0:
464,216,33674,2,0,P|428:212|384:236,1,72,2|0,0:0|0:0,0:0:0:0:
236,336,34005,2,0,P|272:340|316:316,1,72,2|0,0:0|0:0,0:0:0:0:
332,308,34254,1,0,0:0:0:0:
332,308,34337,1,8,0:0:0:0:
200,68,34502,2,0,L|196:192,1,108
160,208,34834,2,0,P|216:240|320:160,1,180
463,218,35663,6,0,P|419:174|303:198,1,180,0|8,0:0|0:0,0:0:0:0:
168,268,36160,1,0,0:0:0:0:
296,372,36326,2,0,P|304:324|288:284,1,90,2|2,0:0|0:0,0:0:0:0:
76,184,36657,2,0,P|128:176|172:168,1,90,8|0,0:0|0:0,0:0:0:0:
288,100,36989,5,2,0:0:0:0:
224,256,37154,1,2,0:0:0:0:
148,52,37320,1,8,0:0:0:0:
396,132,37486,2,0,P|352:192|384:292,1,180,2|0,0:0|0:0,0:0:0:0:
468,356,37983,2,0,P|476:300|496:268,1,90,8|0,0:0|0:0,0:0:0:0:
209,322,38315,6,0,B|309:346|285:262|393:290,1,180,0|8,0:0|0:0,0:0:0:0:
236,236,38812,1,0,0:0:0:0:
236,236,38895,1,0,0:0:0:0:
236,236,38978,1,2,0:0:0:0:
282,96,39143,1,2,0:0:0:0:
438,195,39309,2,0,P|390:187|346:183,1,90,8|0,0:0|0:0,0:0:0:0:
40,120,39641,6,0,P|124:136|180:64,1,180,0|8,0:0|0:0,0:0:0:0:
412,56,40138,2,0,B|300:36|300:36|272:64|284:100,1,180,2|2,0:0|0:0,0:0:0:0:
348,312,40635,1,8,0:0:0:0:
484,220,40801,5,0,0:0:0:0:
484,220,40884,1,0,0:0:0:0:
484,220,40967,1,8,0:0:0:0:
432,368,41132,1,0,0:0:0:0:
320,128,41298,1,8,0:0:0:0:
240,316,41464,6,0,B|216:352|216:352|180:288|216:208,1,180
332,60,41961,1,8,0:0:0:0:
448,208,42127,2,0,P|428:268|504:364,1,180
308,312,42624,1,8,0:0:0:0:
480,128,42790,2,0,B|380:104|400:188|296:160,1,180
140,104,43287,5,8,0:0:0:0:
168,100,43370,1,0,0:0:0:0:
196,96,43453,1,0,0:0:0:0:
224,92,43536,1,0,0:0:0:0:
252,88,43618,5,0,0:0:0:0:
128,236,43784,1,0,0:0:0:0:
80,24,43950,1,8,0:0:0:0:
296,184,44116,1,0,0:0:0:0:
296,184,44199,1,0,0:0:0:0:
296,184,44281,1,8,0:0:0:0:
228,360,44447,1,0,0:0:0:0:
128,236,44613,1,8,0:0:0:0:
268,88,44779,6,0,P|328:80|400:176,1,180
372,340,45276,1,8,0:0:0:0:
316,172,45442,1,2,0:0:0:0:
316,172,45525,1,0,0:0:0:0:
316,172,45607,1,8,0:0:0:0:
492,256,45773,1,2,0:0:0:0:
282,347,45939,2,0,P|334:343|378:339,1,90,8|2,0:0|0:0,0:0:0:0:
220,112,46270,5,8,0:0:0:0:
140,360,46436,1,8,0:0:0:0:
72,296,46768,5,0,0:0:0:0:
72,296,46850,1,0,0:0:0:0:
72,296,46933,1,8,0:0:0:0:
156,248,47099,1,0,0:0:0:0:
224,316,47265,1,8,0:0:0:0:
80,176,47431,6,0,P|136:196|224:112,1,180
376,36,47928,1,8,0:0:0:0:
332,312,48094,1,2,0:0:0:0:
332,312,48176,1,0,0:0:0:0:
332,312,48259,1,8,0:0:0:0:
222,126,48425,1,2,0:0:0:0:
472,208,48591,1,8,0:0:0:0:
248,360,48757,1,2,0:0:0:0:
222,126,48922,5,8,0:0:0:0:
424,352,49088,1,8,0:0:0:0:
492,296,49420,5,0,0:0:0:0:
492,296,49502,1,0,0:0:0:0:
492,296,49585,1,8,0:0:0:0:
408,248,49751,1,0,0:0:0:0:
340,316,49917,1,8,0:0:0:0:
432,64,50083,6,0,B|372:52|372:52|320:100|344:180,1,180
392,304,50580,1,8,0:0:0:0:
492,188,50746,1,2,0:0:0:0:
492,188,50828,1,0,0:0:0:0:
492,188,50911,1,0,0:0:0:0:
288,304,51077,1,2,0:0:0:0:
468,372,51243,1,8,0:0:0:0:
300,144,51408,1,2,0:0:0:0:
135,315,51574,6,0,P|219:307|295:303,1,153.000002918243
176,160,52071,1,0,0:0:0:0:
24,244,52237,2,0,P|64:240|108:232,1,76.5000014591217,8|0,0:0|0:0,0:0:0:0:
176,160,52569,1,0,0:0:0:0:
328,304,52734,2,0,P|252:324|188:256,1,153.000002918243,0|8,0:0|0:0,0:0:0:0:
312,224,53232,2,0,P|360:228|400:260,1,76.5000014591217
432,348,53563,5,8,0:0:0:0:
480,156,53729,1,0,0:0:0:0:
312,224,53895,2,0,L|304:140,1,76.5000014591217,8|0,0:0|0:0,0:0:0:0:
88,68,54226,6,0,P|132:56|172:56,1,76.5000014591217,2|0,0:0|0:0,0:0:0:0:
304,147,54558,2,0,P|265:145|229:134,1,76.5000014591217,2|0,0:0|0:0,0:0:0:0:
368,52,54889,1,2,0:0:0:0:
340,232,55055,1,0,0:0:0:0:
168,168,55221,1,2,0:0:0:0:
392,156,55386,6,0,P|432:224|408:300,1,153.000002918243
232,356,55884,2,0,P|272:348|316:344,1,76.5000014591217,2|0,0:0|0:0,0:0:0:0:
344,232,56215,2,0,P|304:240|260:244,1,76.5000014591217,2|0,0:0|0:0,0:0:0:0:
268,243,56547,1,2,0:0:0:0:
248,112,56712,1,0,0:0:0:0:
164,284,56878,6,0,P|124:288|64:296,1,90,8|2,0:0|0:0,0:0:0:0:
248,112,57210,1,2,0:0:0:0:
402,257,57375,2,0,P|447:262|492:268,1,90,8|0,0:0|0:0,0:0:0:0:
392,156,57707,5,8,0:0:0:0:
356,360,57872,1,0,0:0:0:0:
168,156,58038,2,0,P|160:104|172:60,1,90,8|0,0:0|0:0,0:0:0:0:
272,240,58370,5,10,0:0:0:0:
84,312,58535,1,0,0:0:0:0:
112,88,58701,2,0,P|160:68|208:80,1,90,8|0,0:0|0:0,0:0:0:0:
404,160,59033,5,0,0:0:0:0:
280,344,59199,1,8,0:0:0:0:
208,76,59364,5,0,0:0:0:0:
208,76,59447,1,0,0:0:0:0:
208,76,59530,1,8,0:0:0:0:
456,196,59696,1,8,0:0:0:0:
204,304,59862,1,8,0:0:0:0:
440,68,60027,5,8,0:0:0:0:
196,176,60193,1,8,0:0:0:0:
420,344,60359,1,8,0:0:0:0:
272,44,60525,1,8,0:0:0:0:
52,224,60690,2,0,P|96:240|180:196,1,135,8|0,0:0|0:0,0:0:0:0:
196,176,61022,1,8,0:0:0:0:
176,256,61353,5,0,0:0:0:0:
240,308,61519,1,0,0:0:0:0:
320,288,61685,1,0,0:0:0:0:
340,208,61850,1,0,0:0:0:0:
280,152,62016,1,0,0:0:0:0:
176,256,62182,6,0,P|236:248|276:236,1,90,6|0,0:0|0:0,0:0:0:0:
464,364,62513,2,0,P|420:352|375:348,1,90,8|0,0:0|0:0,0:0:0:0:
348,140,62845,2,0,P|404:164|500:68,1,180,2|8,0:0|0:0,0:0:0:0:
216,44,63342,2,0,B|204:120|236:196|236:196|248:148,1,180
348,140,63839,1,8,0:0:0:0:
88,192,64005,6,0,P|44:188|-8:172,1,90,0|2,0:0|0:0,0:0:0:0:
96,40,64337,2,0,P|140:36|192:20,1,90,0|8,0:0|0:0,0:0:0:0:
240,168,64668,1,0,0:0:0:0:
484,84,64834,6,0,P|404:68|348:144,1,180,2|8,0:0|0:0,0:0:0:0:
412,296,65331,2,0,P|464:296|516:308,1,90,0|2,0:0|0:0,0:0:0:0:
228,232,65663,1,0,0:0:0:0:
316,368,65828,1,8,0:0:0:0:
408,140,65994,2,0,P|320:152|264:68,1,180
396,24,66491,1,8,0:0:0:0:
496,180,66657,2,0,L|480:280,1,90,0|2,0:0|0:0,0:0:0:0:
352,368,66989,5,0,0:0:0:0:
324,212,67154,1,8,0:0:0:0:
500,292,67320,1,0,0:0:0:0:
500,292,67403,1,0,0:0:0:0:
500,292,67486,5,4,0:3:0:0:
408,76,67652,1,0,0:0:0:0:
352,368,67817,1,8,0:0:0:0:
234,217,67983,2,0,P|282:217|338:209,1,90,0|2,0:0|0:0,0:0:0:0:
120,360,68315,2,0,P|104:300|128:256,1,90,0|8,0:0|0:0,0:0:0:0:
200,96,68646,6,0,L|92:84,1,90,0|2,0:0|0:0,0:0:0:0:
368,128,68978,2,0,L|476:116,1,90,0|8,0:0|0:0,0:0:0:0:
312,232,69309,2,0,P|248:224|168:316,1,180
56,364,69806,2,0,P|64:308|52:256,1,90,8|0,0:0|0:0,0:0:0:0:
20,80,70138,6,0,L|164:96,1,135,6|0,0:3|0:3,0:0:0:0:
188,100,70469,1,8,0:0:0:0:
496,112,70635,2,0,P|424:108|360:192,1,161.999995056153,2|0,0:3|0:3,0:0:0:0:
352,200,70967,1,8,0:0:0:0:
152,360,71132,2,0,B|180:312|180:312|164:184,1,161.999995056153,2|0,0:3|0:3,0:0:0:0:
164,164,71464,1,8,0:0:0:0:
92,28,71629,5,0,0:0:0:0:
260,80,71795,1,8,0:0:0:0:
60,184,71961,1,0,0:0:0:0:
368,56,72127,5,0,0:0:0:0:
392,52,72210,1,0,0:0:0:0:
416,52,72292,1,0,0:0:0:0:
440,60,72375,1,0,0:0:0:0:
456,76,72458,5,8,0:0:0:0:
416,92,72541,1,8,0:0:0:0:
372,96,72624,1,8,0:0:0:0:
328,80,72707,1,8,0:0:0:0:
296,48,72790,6,0,P|244:36|188:32,1,99.0000030212403,6|0,0:0|0:0,0:0:0:0:
60,184,73121,2,0,P|112:172|156:168,1,90,8|0,0:0|0:0,0:0:0:0:
360,124,73453,2,0,P|304:168|324:280,1,180,2|8,0:0|0:0,0:0:0:0:
412,372,73950,1,0,0:0:0:0:
496,204,74116,6,0,P|512:248|500:308,1,90,2|0,0:0|0:0,0:0:0:0:
412,372,74447,1,8,0:0:0:0:
208,256,74613,2,0,P|260:280|360:204,1,180
240,120,75110,2,0,P|164:128|128:128,1,90,10|0,0:0|0:0,0:0:0:0:
44,96,75442,5,2,0:0:0:0:
160,248,75607,1,0,0:0:0:0:
304,60,75773,2,0,P|320:108|312:168,1,90,8|0,0:0|0:0,0:0:0:0:
264,368,76105,1,2,0:0:0:0:
224,204,76270,1,0,0:0:0:0:
104,296,76436,1,8,0:0:0:0:
216,92,76602,5,0,0:0:0:0:
216,92,76685,1,0,0:0:0:0:
216,92,76768,2,0,P|264:96|314:100,1,90
484,272,77099,2,8,L|472:324,1,45
288,248,77265,2,8,L|277:204,1,45
96,348,77431,5,8,0:0:0:0:
100,320,77513,1,8,0:0:0:0:
104,292,77596,1,8,0:0:0:0:
108,264,77679,1,8,0:0:0:0:
112,232,77762,5,8,0:0:0:0:
221,104,77928,1,8,0:0:0:0:
233,144,78011,1,8,0:0:0:0:
222,185,78094,5,6,0:3:0:0:
304,360,78259,1,0,0:0:0:0:
460,188,78425,2,0,P|392:180|360:168,1,90,8|0,0:0|0:0,0:0:0:0:
244,96,78757,1,2,0:0:0:0:
448,64,78922,1,0,0:0:0:0:
304,212,79088,1,8,0:0:0:0:
504,344,79254,6,0,P|452:280|348:312,1,180
208,188,79751,2,0,P|276:184|320:176,1,90,8|0,0:0|0:0,0:0:0:0:
164,344,80083,2,0,P|119:338|74:336,1,90,2|0,0:0|0:0,0:0:0:0:
74,336,80331,1,0,0:0:0:0:
74,336,80414,1,8,0:0:0:0:
28,168,80580,1,0,0:0:0:0:
184,16,80746,6,0,B|176:96|176:96|184:124|184:124|176:208,1,180,4|8,0:3|0:0,0:0:0:0:
292,288,81243,1,0,0:0:0:0:
480,200,81408,2,0,P|416:192|380:184,1,90,2|0,0:0|0:0,0:0:0:0:
384,360,81740,1,8,0:0:0:0:
172,188,81906,6,0,P|228:204|312:120,1,180
76,28,82403,2,0,P|60:76|84:132,1,90,8|0,0:0|0:0,0:0:0:0:
222,283,82734,1,8,0:0:0:0:
186,279,82817,1,8,0:0:0:0:
150,287,82900,1,8,0:0:0:0:
122,311,82983,1,8,0:0:0:0:
136,344,83066,5,8,0:0:0:0:
172,348,83149,1,8,0:0:0:0:
208,344,83232,1,8,0:0:0:0:
240,324,83315,1,8,0:0:0:0:
264,296,83397,1,2,0:0:0:0:
464,92,83729,6,0,P|404:72|320:160,1,180,6|0,0:3|0:0,0:0:0:0:
212,360,84226,2,0,B|216:292|216:292|200:252|200:252|204:176,1,180,6|0,0:3|0:0,0:0:0:0:
68,80,84723,2,0,P|136:96|216:28,1,180,6|0,0:3|0:0,0:0:0:0:
320,216,85221,2,0,P|312:164|336:112,1,90,0|8,0:0|0:0,0:0:0:0:
456,40,85552,2,0,L|464:144,2,90
344,140,86049,5,0,0:0:0:0:
408,296,86215,1,0,0:0:0:0:
232,232,86381,2,0,L|324:228,1,90
456,188,86712,1,0,0:0:0:0:
408,296,86878,1,0,0:0:0:0:
340,92,87044,1,0,0:0:0:0:
256,352,87210,5,0,0:0:0:0:
256,192,87375,12,0,88701,0:0:0:0:
