osu file format v14

[General]
AudioFilename: audio.mp3
AudioLeadIn: 0
PreviewTime: 61270
Countdown: 0
SampleSet: Soft
StackLeniency: 0.7
Mode: 0
LetterboxInBreaks: 0
WidescreenStoryboard: 1

[Editor]
DistanceSpacing: 1
BeatDivisor: 2
GridSize: 4
TimelineZoom: 1.2

[Metadata]
Title:Habataki no Birthday
TitleUnicode:羽ばたきのバースデイ
Artist:Baby's breath
ArtistUnicode:Baby’s breath
Creator:Nitrous
Version:Easy
Source:天使の3P!
Tags:Tenshi no 3P! Angel's 3Piece! 五島 潤 Jun Gotou 紅葉谷希美 Nozomi Momijidani 金城そら Sora Kaneshiro tv size opening Kibbleru Kisses xLolicore- Underforest Firis Mistlud ts8zs Akitoshi kurantemelodii Evanescent-
BeatmapID:1418537
BeatmapSetID:670800

[Difficulty]
HPDrainRate:1
CircleSize:2
OverallDifficulty:2
ApproachRate:3
SliderMultiplier:0.9
SliderTickRate:1

[Events]
//Background and Video events
0,0,"tenshi.jpg",0,0
Video,600,"tenshi.mp4"
//Break Periods
//Storyboard Layer 0 (Background)
//Storyboard Layer 1 (Fail)
//Storyboard Layer 2 (Pass)
//Storyboard Layer 3 (Foreground)
//Storyboard Sound Samples

[TimingPoints]
1188,331.491712707182,4,2,1,40,1,0
1188,-100,4,2,1,40,0,0
3757,-100,4,2,1,5,0,0
3839,-100,4,2,1,40,0,0
6491,-100,4,2,1,50,0,0
11629,-100,4,2,1,70,0,0
12127,-100,4,2,1,50,0,0
14116,-100,4,2,1,70,0,0
14447,-100,4,2,1,70,0,0
25055,-100,4,2,1,50,0,0
34337,-100,4,2,1,60,0,0
35663,-100,4,2,1,70,0,0
46270,-100,4,2,1,70,0,0
51574,-100,4,2,1,70,0,0
54226,-100,4,2,1,70,0,0
56878,-100,4,2,1,70,0,0
59530,-100,4,2,1,80,0,0
61353,-100,4,2,2,50,0,0
62182,-100,4,2,1,80,0,1
70138,-100,4,2,1,80,0,1
70635,-100,4,2,1,80,0,1
71629,-100,4,2,1,80,0,1
72127,-100,4,2,1,80,0,0
72790,-100,4,2,1,80,0,1
73121,-100,4,2,1,80,0,1
83397,-100,4,2,1,80,0,0
83646,-100,4,2,1,5,0,0
83729,-100,4,2,1,80,0,1
86049,-100,4,2,1,60,0,0
87210,-100,4,2,1,60,0,0
88536,-100,4,2,1,50,0,0
88701,-100,4,2,1,5,0,0

[Colours]
Combo1 : 73,86,248
Combo2 : 252,148,221
Combo3 : 192,80,235
Combo4 : 235,196,37

[HitObjects]
165,193,1188,6,0,P|188:105|236:164,1,180,2|0,0:0|0:0,0:0:0:0:
246,224,2182,1,0,0:0:0:0:
180,285,2513,2,0,B|136:297|136:297|39:274,2,135,2|0|0,0:0|0:0|0:0,0:0:0:0:
266,310,3839,6,0,B|311:303|311:303|359:310,1,90,2|0,0:0|0:0,0:0:0:0:
413,241,4502,2,0,P|443:317|415:380,2,135,0|0|0,0:0|0:0|0:0,0:0:0:0:
326,215,5828,2,0,B|318:169|318:169|326:122,1,90,0|0,0:0|0:0,0:0:0:0:
392,66,6491,6,0,P|367:92|238:73,1,180,2|2,0:0|0:0,0:0:0:0:
165,19,7486,1,2,0:0:0:0:
88,65,7817,2,0,P|76:110|89:160,1,90,2|2,0:0|0:0,0:0:0:0:
167,187,8480,2,0,P|175:230|163:273,1,90,2|2,0:0|0:0,0:0:0:0:
100,337,9143,6,0,B|159:324|159:324|222:339|222:339|286:327,1,180,2|2,0:0|0:0,0:0:0:0:
362,303,10138,1,2,0:0:0:0:
423,368,10469,2,0,B|416:231|416:231|429:190,1,180,2|2,0:0|0:0,0:0:0:0:
491,124,11464,2,0,L|486:67,1,45,2|2,0:0|0:0,0:0:0:0:
359,35,12127,6,0,B|261:28|261:28|208:44,2,135,4|4|4,0:0|0:0|0:0,0:0:0:0:
407,208,13784,2,0,L|410:163,2,45,0|2|2,0:0|0:0|0:3,0:0:0:0:
433,294,14447,5,2,0:0:0:0:
356,341,14779,2,0,B|298:343|298:343|235:318|235:318|168:320,1,180,8|8,0:0|0:0,0:0:0:0:
131,243,15773,2,0,P|93:304|112:376,2,135,2|2|8,0:0|0:0|0:0,0:0:0:0:
208,195,17099,6,0,B|217:150|217:150|208:101,1,90,4|8,0:0|0:0,0:0:0:0:
126,70,17762,2,0,B|117:115|117:115|126:164,1,90,2|8,0:0|0:0,0:0:0:0:
131,243,18425,1,2,0:0:0:0:
203,296,18757,2,0,B|247:274|292:293|292:293|332:311|389:283,1,180,8|8,0:0|0:0,0:0:0:0:
453,241,19751,5,4,0:0:0:0:
461,151,20083,2,0,P|391:116|376:193,1,180,8|8,0:0|0:0,0:0:0:0:
453,241,21077,2,0,B|476:272|476:272|466:371,2,135,2|2|8,0:0|0:0|0:0,0:0:0:0:
377,191,22403,6,0,L|521:168,2,135,4|4|8,0:0|0:0|0:0,0:0:0:0:
377,100,23729,2,0,L|233:77,2,135,4|4|8,0:0|0:0|0:0,0:0:0:0:
448,44,25055,6,0,P|420:133|479:213,1,180,12|8,0:0|0:0,0:0:0:0:
448,291,26049,1,8,0:0:0:0:
365,253,26381,2,0,L|267:242,2,90,8|8|8,0:0|0:0|0:0,0:0:0:0:
369,343,27375,1,8,0:0:0:0:
281,361,27707,6,0,B|137:354|137:354|101:338,1,180,8|8,0:0|0:0,0:0:0:0:
134,254,28701,1,8,0:0:0:0:
43,251,29033,2,0,P|15:183|109:205,1,180,8|0,0:0|0:0,0:0:0:0:
186,178,30027,1,8,0:0:0:0:
223,259,30359,6,0,L|214:362,1,90,8|8,0:0|0:0,0:0:0:0:
303,365,31022,2,0,L|312:262,1,90,8|8,0:0|0:0,0:0:0:0:
277,191,31685,1,8,0:0:0:0:
344,131,32016,2,0,B|214:119|214:119|157:135,1,180,8|8,0:0|0:0,0:0:0:0:
81,100,33011,6,0,B|64:145|92:188|92:188|114:227|97:280,1,180,8|8,0:0|0:0,0:0:0:0:
132,356,34005,1,8,0:0:0:0:
223,360,34337,2,0,B|266:343|266:343|378:358,1,135,12|4,0:3|0:0,0:0:0:0:
437,320,35165,1,6,0:0:0:0:
474,190,35663,6,0,B|410:199|410:199|355:178|355:178|293:188,1,180,4|2,0:0|0:0,0:0:0:0:
218,227,36657,1,8,0:0:0:0:
165,300,36989,2,0,B|148:168|148:168|113:117,1,180,2|2,0:0|0:0,0:0:0:0:
145,42,37983,1,8,0:0:0:0:
219,92,38315,6,0,P|265:134|389:97,1,180,2|2,0:0|0:0,0:0:0:0:
393,27,39309,1,8,0:0:0:0:
306,52,39641,2,0,B|299:184|299:184|317:245,1,180,2|0,0:0|0:0,0:0:0:0:
356,308,40635,1,8,0:0:0:0:
287,366,40967,6,0,B|237:377|237:377|140:355,1,135,4|4,0:0|0:0,0:0:0:0:
60,205,42127,2,0,B|69:159|69:159|61:113,1,90,4|0,0:0|0:0,0:0:0:0:
118,47,42790,2,0,P|148:32|272:41,1,135,4|8,0:0|0:0,0:0:0:0:
332,60,43618,6,0,B|330:149|330:149|348:210,1,135,4|2,0:0|0:0,0:0:0:0:
386,271,44447,1,4,0:3:0:0:
321,333,44779,2,0,P|287:353|176:328,1,135,4|8,0:0|0:0,0:0:0:0:
117,297,45607,2,0,B|126:252|126:252|116:195,1,90,8|12,0:0|0:0,0:0:0:0:
50,149,46270,6,0,L|41:102,1,45,8|8,0:0|0:0,0:0:0:0:
158,37,46933,1,8,0:3:0:0:
286,77,47431,2,0,B|330:61|330:61|442:78,1,135,4|8,0:0|0:0,0:0:0:0:
466,149,48259,2,0,P|451:200|464:252,1,90,8|8,0:0|0:0,0:0:0:0:
510,307,48922,6,0,L|506:358,1,45,8|8,0:0|0:0,0:0:0:0:
371,362,49585,1,8,0:3:0:0:
249,303,50083,2,0,B|162:281|162:281|100:288,1,135,4|8,0:0|0:0,0:0:0:0:
36,325,50911,2,0,P|29:280|43:235,1,90,2|8,0:0|0:0,0:0:0:0:
101,171,51574,6,0,B|144:152|194:168|194:168|236:183|292:158,1,180,4|2,0:0|0:0,0:0:0:0:
388,88,52734,2,0,B|403:159|403:159|388:240,1,135,0|8,0:0|0:0,0:0:0:0:
330,286,53563,2,0,L|237:280,1,90,2|8,0:0|0:0,0:0:0:0:
154,307,54226,1,2,0:0:0:0:
71,271,54558,2,0,B|66:224|66:224|78:178,1,90,8|2,0:0|0:0,0:0:0:0:
118,103,55221,6,0,B|177:93|177:93|244:108|244:108|311:97,1,180,8|8,0:0|0:0,0:0:0:0:
373,143,56215,2,0,P|359:188|368:246,1,90,2|8,0:0|0:0,0:0:0:0:
426,294,56878,2,0,L|278:282,1,135,4|12,0:0|0:0,0:0:0:0:
210,322,57707,2,0,P|202:278|219:228,1,90,8|8,0:0|0:0,0:0:0:0:
269,163,58370,6,0,B|201:177|201:177|131:160,1,135,8|0,0:0|0:0,0:0:0:0:
57,120,59199,1,0,0:0:0:0:
256,192,59530,12,4,60690,0:0:0:0:
165,107,62182,6,0,L|268:100,1,90,4|8,0:0|0:0,0:0:0:0:
324,158,62845,2,0,B|414:158|414:158|465:179,2,135,2|0|8,0:0|0:0|0:0,0:0:0:0:
244,200,64171,2,0,B|254:248|254:248|246:294,1,90,2|8,0:0|0:0,0:0:0:0:
174,342,64834,5,6,0:0:0:0:
93,303,65165,2,0,B|80:246|80:246|100:180|100:180|87:107,1,180,8|8,0:0|0:0,0:0:0:0:
16,76,66160,2,0,L|157:58,2,135,2|0|8,0:0|0:0|0:0,0:0:0:0:
48,159,67486,6,0,L|57:258,1,90,6|8,0:0|0:0,0:0:0:0:
139,282,68149,2,0,L|147:192,1,90,2|8,0:0|0:0,0:0:0:0:
214,132,68812,1,2,0:0:0:0:
297,164,69143,2,0,L|413:156,1,90,8|2,0:0|0:0,0:0:0:0:
468,196,69806,1,8,0:0:0:0:
394,248,70138,6,0,B|374:289|374:289|283:300,1,135,4|4,0:0|0:0,0:0:0:0:
162,358,71132,2,0,B|145:293|145:293|162:224,1,135,4|4,0:0|0:0,0:0:0:0:
238,116,72127,2,0,B|283:122|283:122|331:117,1,90,12|8,0:0|0:0,0:0:0:0:
404,71,72790,6,0,P|416:123|405:162,1,90,6|8,0:0|0:0,0:0:0:0:
331,205,73453,2,0,P|319:257|330:296,1,90,2|8,0:0|0:0,0:0:0:0:
396,349,74116,2,0,B|337:329|337:329|207:347,1,180,2|2,0:0|0:0,0:0:0:0:
131,362,75110,1,8,0:0:0:0:
48,326,75442,6,0,P|12:278|89:210,1,180,6|6,0:0|0:0,0:0:0:0:
162,256,76436,1,8,0:0:0:0:
231,198,76768,2,0,L|326:205,1,90,6|8,0:0|0:0,0:0:0:0:
326,294,77431,2,0,L|231:301,1,90,2|8,0:0|0:0,0:0:0:0:
159,347,78094,6,0,L|58:342,1,90,6|8,0:0|0:0,0:0:0:0:
17,268,78757,2,0,B|26:225|26:225|20:174,1,90,2|8,0:0|0:0,0:0:0:0:
89,120,79420,2,0,B|129:130|129:130|228:118,2,135,2|0|8,0:0|0:0|0:0,0:0:0:0:
20,179,80746,5,4,0:0:0:0:
94,229,81077,2,0,L|99:321,1,90,8|2,0:0|0:0,0:0:0:0:
184,346,81740,1,8,0:0:0:0:
259,297,82071,2,0,B|303:291|303:291|356:297,1,90,2|8,0:0|0:0,0:0:0:0:
427,339,82734,2,0,B|440:294|440:294|413:222|413:222|429:156,1,180,8|2,0:0|0:0,0:0:0:0:
495,104,83729,6,0,P|427:77|360:103,1,135,4|4,0:0|0:0,0:0:0:0:
253,161,84723,2,0,P|182:165|198:79,1,180,4|2,0:0|0:0,0:0:0:0:
284,76,85718,1,2,0:3:0:0:
345,141,86049,5,2,0:0:0:0:
318,227,86381,2,0,B|321:317|321:317|361:362,1,135,2|0,0:0|0:0,0:0:0:0:
440,353,87210,2,0,B|456:305|440:265|440:265|424:217|440:173|440:173|398:241|320:229|274:161|326:97,1,405,4|0,0:0|0:0,0:0:0:0:
