osu file format v14

[General]
AudioFilename: audio.mp3
AudioLeadIn: 0
PreviewTime: 61270
Countdown: 0
SampleSet: Soft
StackLeniency: 0.7
Mode: 0
LetterboxInBreaks: 0
WidescreenStoryboard: 1

[Editor]
DistanceSpacing: 1
BeatDivisor: 4
GridSize: 4
TimelineZoom: 1.2

[Metadata]
Title:Habataki no Birthday
TitleUnicode:羽ばたきのバースデイ
Artist:Baby's breath
ArtistUnicode:Baby’s breath
Creator:Nitrous
Version:Akitoshi's Normal
Source:天使の3P!
Tags:Tenshi no 3P! Angel's 3Piece! 五島 潤 Jun Gotou 紅葉谷希美 Nozomi Momijidani 金城そら Sora Kaneshiro tv size opening Kibbleru Kisses xLolicore- Underforest Firis Mistlud ts8zs Akitoshi kurantemelodii Evanescent-
BeatmapID:1423987
BeatmapSetID:670800

[Difficulty]
HPDrainRate:4
CircleSize:3
OverallDifficulty:4
ApproachRate:5
SliderMultiplier:1.05
SliderTickRate:1

[Events]
//Background and Video events
0,0,"tenshi.jpg",0,0
Video,600,"tenshi.mp4"
//Break Periods
//Storyboard Layer 0 (Background)
//Storyboard Layer 1 (Fail)
//Storyboard Layer 2 (Pass)
//Storyboard Layer 3 (Foreground)
//Storyboard Sound Samples

[TimingPoints]
1188,331.491712707182,4,2,1,40,1,0
1188,-111.111111111111,4,2,1,40,0,0
6491,-111.111111111111,4,2,1,50,0,0
11629,-111.111111111111,4,2,1,70,0,0
12127,-111.111111111111,4,2,1,70,0,0
14447,-100,4,2,1,70,0,0
25055,-105.263157894737,4,2,2,60,0,0
35663,-100,4,2,1,70,0,0
50083,-105.263157894737,4,2,1,60,0,0
56878,-100,4,2,1,70,0,0
62182,-95.2380952380952,4,2,1,80,0,1
72127,-95.2380952380952,4,2,1,80,0,0
72790,-95.2380952380952,4,2,1,80,0,1
83397,-95.2380952380952,4,2,1,80,0,0
83729,-95.2380952380952,4,2,1,80,0,1
86049,-100,4,2,1,70,0,0
88701,-100,4,2,1,5,0,0

[Colours]
Combo1 : 73,86,248
Combo2 : 252,148,221
Combo3 : 192,80,235
Combo4 : 235,196,37

[HitObjects]
385,209,1188,6,0,L|274:218,1,94.499997116089,2|0,0:0|0:0,0:0:0:0:
210,266,1850,2,0,L|67:254,1,141.749995674133,0|0,0:0|0:0,0:0:0:0:
21,120,2845,2,0,P|73:73|205:78,1,188.999994232178,0|0,0:0|0:0,0:0:0:0:
264,123,3839,6,0,L|364:116,1,94.499997116089,2|0,0:0|0:0,0:0:0:0:
447,147,4502,2,0,P|462:191|459:243,1,94.499997116089,0|0,0:0|0:0,0:0:0:0:
439,281,5000,2,0,L|297:271,1,141.749995674133,0|0,0:0|0:0,0:0:0:0:
203,268,5828,1,0,0:0:0:0:
120,221,6160,2,0,L|115:173,1,47.2499985580445,0|0,0:0|0:0,0:0:0:0:
86,136,6491,6,0,L|95:41,2,94.499997116089,2|2|2,0:0|0:0|0:0,0:0:0:0:
16,200,7486,1,2,0:0:0:0:
46,289,7817,2,0,P|82:313|153:319,1,94.499997116089,2|2,0:0|0:0,0:0:0:0:
180,308,8315,1,0,0:0:0:0:
180,308,8480,2,0,L|293:311,1,94.499997116089,2|2,0:0|0:0,0:0:0:0:
364,282,9143,6,0,P|374:229|365:177,1,94.499997116089,2|2,0:0|0:0,0:0:0:0:
298,125,9806,2,0,L|203:127,1,94.499997116089,2|2,0:0|0:0,0:0:0:0:
169,160,10304,1,0,0:0:0:0:
169,160,10469,2,0,L|74:157,1,94.499997116089,2|2,0:0|0:0,0:0:0:0:
14,83,11132,1,2,0:0:0:0:
87,23,11464,2,0,L|134:21,1,47.2499985580445,2|2,0:0|0:0,0:0:0:0:
254,96,12127,6,0,P|311:99|354:85,1,94.499997116089,4|0,0:0|0:0,0:0:0:0:
371,48,12624,2,0,P|428:51|471:37,1,94.499997116089,4|0,0:0|0:0,0:0:0:0:
507,22,13121,2,0,L|491:223,1,188.999994232178,4|0,0:0|0:0,0:0:0:0:
460,246,13950,1,2,0:0:0:0:
460,246,14116,2,0,L|468:306,1,47.2499985580445,2|0,0:3|0:0,0:0:0:0:
470,345,14447,6,0,P|414:362|352:345,1,105,2|8,0:0|0:0,0:0:0:0:
275,307,15110,2,0,L|203:315,2,52.5,2|0|8,0:0|0:0|0:0,0:0:0:0:
318,277,15607,2,0,L|306:156,1,105,0|0,0:0|0:0,0:0:0:0:
303,125,16105,1,8,0:0:0:0:
303,125,16270,2,0,P|233:131|182:114,1,105,2|0,0:0|0:0,0:0:0:0:
155,94,16768,1,8,0:0:0:0:
71,156,17099,6,0,P|65:226|82:277,1,105,4|8,0:0|0:0,0:0:0:0:
154,325,17762,2,0,L|149:383,2,52.5,2|0|8,0:0|0:0|0:0,0:0:0:0:
181,280,18259,2,0,P|251:274|302:291,1,105,0|0,0:0|0:0,0:0:0:0:
334,299,18757,1,8,0:0:0:0:
334,299,18922,2,0,P|356:248|356:185,1,105,0|0,0:0|0:0,0:0:0:0:
344,148,19420,1,8,0:0:0:0:
255,91,19751,6,0,P|199:97|145:128,1,105,4|8,0:0|0:0,0:0:0:0:
71,182,20414,2,0,L|5:178,2,52.5,2|0|8,0:0|0:0|0:0,0:0:0:0:
116,208,20911,2,0,L|111:329,1,105,0|0,0:0|0:0,0:0:0:0:
110,370,21408,1,8,0:0:0:0:
110,370,21574,2,0,P|163:358|226:362,1,105,2|0,0:0|0:0,0:0:0:0:
264,373,22071,1,8,0:0:0:0:
358,326,22403,6,0,L|362:257,1,52.5,4|0,0:0|0:0,0:0:0:0:
403,242,22734,1,8,0:0:0:0:
403,242,22900,2,0,L|391:120,1,105,4|0,0:0|0:0,0:0:0:0:
388,85,23397,1,8,0:0:0:0:
286,56,23729,6,0,P|250:61|217:60,1,52.5,4|0,0:0|0:0,0:0:0:0:
187,50,24060,1,8,0:0:0:0:
187,50,24226,2,0,P|171:101|180:158,1,105,4|2,0:0|0:0,0:0:0:0:
196,200,24723,1,8,0:0:0:0:
238,290,25055,6,0,P|187:331|56:313,1,199.499994672775,12|8,0:0|0:0,0:0:0:0:
8,231,26049,1,8,0:0:0:0:
78,160,26381,2,0,L|181:151,1,99.7499973363877,8|8,0:0|0:0,0:0:0:0:
244,76,27044,2,0,L|347:85,1,99.7499973363877,8|8,0:0|0:0,0:0:0:0:
440,107,27707,6,0,B|468:166|448:211|440:194|416:252|447:312,1,199.499994672775,8|8,0:0|0:0,0:0:0:0:
370,370,28701,1,8,0:0:0:0:
270,373,29033,2,0,P|232:340|217:282,1,99.7499973363877,8|8,0:0|0:0,0:0:0:0:
216,194,29696,2,0,P|249:156|307:141,1,99.7499973363877,8|8,0:0|0:0,0:0:0:0:
348,152,30193,1,0,0:0:0:0:
348,152,30359,6,0,L|340:32,1,99.7499973363877,8|8,0:0|0:0,0:0:0:0:
243,31,31022,2,0,P|186:55|86:35,2,149.624996004582,0|0|8,0:0|0:0|0:0,0:0:0:0:
341,52,32348,2,0,L|348:152,1,99.7499973363877,8|8,0:0|0:0,0:0:0:0:
336,251,33011,6,0,P|237:282|141:237,1,199.499994672775,8|8,0:0|0:0,0:0:0:0:
114,154,34005,1,8,0:0:0:0:
129,58,34337,1,12,0:3:0:0:
129,58,34502,2,0,L|25:67,2,99.7499973363877,4|4|6,0:0|0:0|0:0,0:0:0:0:
285,37,35663,6,0,L|403:48,1,105,4|8,0:0|0:0,0:0:0:0:
445,59,36160,1,0,0:0:0:0:
445,59,36326,2,0,P|460:106|453:180,1,105,2|8,0:0|0:0,0:0:0:0:
398,247,36989,2,0,P|351:232|277:239,1,105,2|8,0:0|0:0,0:0:0:0:
250,255,37486,1,2,0:0:0:0:
250,255,37652,2,0,L|239:151,1,105,0|8,0:0|0:0,0:0:0:0:
230,45,38315,6,0,P|277:60|351:53,1,105,2|8,0:0|0:0,0:0:0:0:
387,47,38812,1,0,0:0:0:0:
387,47,38978,2,0,L|398:151,1,105,2|8,0:0|0:0,0:0:0:0:
455,239,39641,2,0,L|444:343,1,105,2|8,0:0|0:0,0:0:0:0:
406,380,40138,2,0,P|350:365|288:371,1,105,2|0,0:0|0:0,0:0:0:0:
251,371,40635,1,8,0:0:0:0:
183,290,40967,6,0,L|194:186,1,105,4|8,0:0|0:0,0:0:0:0:
195,133,41464,2,0,P|140:115|85:124,1,105,4|0,0:0|0:0,0:0:0:0:
51,148,41961,1,8,0:0:0:0:
51,148,42127,2,0,L|40:252,1,105,4|0,0:0|0:0,0:0:0:0:
28,356,42790,2,0,P|83:374|138:365,1,105,4|0,0:0|0:0,0:0:0:0:
179,352,43287,1,8,0:0:0:0:
246,271,43618,6,0,L|371:275,1,105,4|8,0:0|0:0,0:0:0:0:
403,274,44116,1,2,0:0:0:0:
472,195,44447,1,4,0:3:0:0:
443,93,44779,2,0,P|393:76|329:81,1,105,4|2,0:0|0:0,0:0:0:0:
291,92,45276,1,8,0:0:0:0:
222,169,45607,2,0,L|228:282,1,105,8|12,0:0|0:0,0:0:0:0:
161,355,46270,5,8,0:0:0:0:
161,355,46436,1,8,0:0:0:0:
24,277,46933,2,0,P|11:224|25:172,1,105,8|8,0:3|0:3,0:0:0:0:
60,139,47431,2,0,P|113:152|165:138,1,105,4|0,0:0|0:0,0:0:0:0:
206,114,47928,1,8,0:0:0:0:
283,42,48259,2,0,L|404:52,1,105,8|8,0:0|0:0,0:0:0:0:
470,124,48922,5,8,0:0:0:0:
470,124,49088,1,8,0:0:0:0:
389,259,49585,2,0,L|396:316,2,52.5,8|8|8,0:3|0:3|0:3,0:0:0:0:
351,225,50083,2,0,P|302:241|237:235,1,99.7499973363877,4|0,0:0|0:0,0:0:0:0:
210,215,50580,1,8,0:0:0:0:
111,200,50911,1,2,0:0:0:0:
42,272,51243,1,8,0:0:0:0:
77,364,51574,6,0,L|235:352,1,149.624996004582,4|0,0:0|0:0,0:0:0:0:
267,324,52237,2,0,L|383:332,1,99.7499973363877,2|8,0:0|0:0,0:0:0:0:
416,332,52734,2,0,P|433:270|424:223,1,99.7499973363877,0|0,0:0|0:0,0:0:0:0:
401,193,53232,1,8,0:0:0:0:
308,155,53563,2,0,P|246:172|199:163,1,99.7499973363877,2|8,0:0|0:0,0:0:0:0:
119,129,54226,6,0,L|114:16,2,99.7499973363877,2|8|2,0:0|0:0|0:0,0:0:0:0:
134,227,55221,2,0,L|129:340,2,99.7499973363877,8|0|8,0:0|0:0|0:0,0:0:0:0:
212,167,56215,1,2,0:0:0:0:
306,200,56547,1,8,0:0:0:0:
316,304,56878,6,0,P|366:324|425:317,1,105,4|2,0:0|0:0,0:0:0:0:
463,298,57375,1,12,0:0:0:0:
504,201,57707,1,8,0:0:0:0:
460,105,58038,2,0,L|341:112,1,105,8|8,0:0|0:0,0:0:0:0:
251,129,58701,1,8,0:0:0:0:
206,224,59033,1,2,0:0:0:0:
206,224,59199,2,0,L|213:298,1,52.5,8|0,0:0|0:0,0:0:0:0:
217,328,59530,6,0,P|167:349|95:338,1,105,4|2,0:0|0:0,0:0:0:0:
65,338,60027,1,4,0:0:0:0:
10,248,60359,1,6,0:0:0:0:
51,151,60690,2,0,L|118:147,1,52.5,4|0,0:0|0:0,0:0:0:0:
150,124,61022,2,0,L|217:128,1,52.5,4|0,0:0|0:0,0:0:0:0:
202,127,62182,6,0,L|216:240,1,110.249996635437,4|8,0:0|0:0,0:0:0:0:
254,339,62845,2,0,P|314:346|369:334,1,110.249996635437,2|8,0:0|0:0,0:0:0:0:
407,306,63342,2,0,L|421:193,1,110.249996635437
428,146,63839,1,8,0:0:0:0:
428,146,64005,2,0,P|369:159|311:145,1,110.249996635437,0|0,0:0|0:0,0:0:0:0:
269,129,64502,1,8,0:0:0:0:
177,67,64834,6,0,L|182:5,2,55.1249983177186,6|0|8,0:0|0:0|0:0,0:0:0:0:
137,105,65331,2,0,L|149:228,1,110.249996635437,0|0,0:0|0:0,0:0:0:0:
155,269,65828,1,8,0:0:0:0:
245,331,66160,2,0,P|298:312|366:317,1,110.249996635437,2|8,0:0|0:0,0:0:0:0:
403,332,66657,2,0,L|415:208,1,110.249996635437,0|0,0:0|0:0,0:0:0:0:
419,167,67154,1,8,0:0:0:0:
346,83,67486,6,0,P|288:67|220:76,1,110.249996635437,6|8,0:0|0:0,0:0:0:0:
190,96,67983,1,0,0:0:0:0:
131,189,68315,1,0,0:0:0:0:
145,298,68646,2,0,L|30:301,1,110.249996635437,0|0,0:0|0:0,0:0:0:0:
6,194,69309,2,0,P|2:141|22:86,1,110.249996635437,0|0,0:0|0:0,0:0:0:0:
57,46,69806,1,8,0:0:0:0:
166,35,70138,6,0,L|281:38,1,110.249996635437,4|8,0:0|0:0,0:0:0:0:
302,86,70635,2,0,L|417:83,1,110.249996635437,4|8,0:0|0:0,0:0:0:0:
464,66,71132,2,0,P|477:124|472:190,1,110.249996635437,4|8,0:0|0:0,0:0:0:0:
424,196,71629,2,0,P|411:254|416:320,1,110.249996635437,4|8,0:0|0:0,0:0:0:0:
435,355,72127,2,0,L|320:352,1,110.249996635437,12|8,0:0|0:0,0:0:0:0:
233,290,72790,6,0,P|177:269|115:284,1,110.249996635437,6|8,0:0|0:0,0:0:0:0:
85,308,73287,1,0,0:0:0:0:
85,308,73453,2,0,L|77:187,1,110.249996635437,2|8,0:0|0:0,0:0:0:0:
33,165,73950,2,0,L|41:44,1,110.249996635437,0|0,0:0|0:0,0:0:0:0:
84,22,74447,1,8,0:0:0:0:
177,80,74779,2,0,P|223:87|286:73,1,110.249996635437,2|8,0:0|0:0,0:0:0:0:
384,26,75442,6,0,L|391:136,1,110.249996635437,6|8,0:0|0:0,0:0:0:0:
292,183,76105,2,0,L|284:72,1,110.249996635437,6|8,0:0|0:0,0:0:0:0:
252,36,76602,1,0,0:0:0:0:
252,36,76768,2,0,P|190:27|131:49,1,110.249996635437,6|8,0:0|0:0,0:0:0:0:
62,114,77431,1,2,0:0:0:0:
116,209,77762,2,0,L|112:264,1,55.1249983177186,8|0,0:0|0:0,0:0:0:0:
108,319,78094,6,0,P|160:336|223:325,1,110.249996635437,6|8,0:0|0:0,0:0:0:0:
303,264,78757,2,0,L|299:208,2,55.1249983177186,2|0|8,0:0|0:0|0:0,0:0:0:0:
339,305,79254,2,0,P|391:288|454:299,1,110.249996635437,0|0,0:0|0:0,0:0:0:0:
500,319,79751,1,8,0:0:0:0:
500,319,79917,2,0,L|491:189,1,110.249996635437,0|0,0:0|0:0,0:0:0:0:
486,154,80414,1,8,0:0:0:0:
403,80,80746,6,0,P|356:104|288:105,1,110.249996635437,4|8,0:0|0:0,0:0:0:0:
192,80,81408,2,0,L|196:16,2,55.1249983177186,2|0|8,0:0|0:0|0:0,0:0:0:0:
155,122,81906,2,0,L|163:250,1,110.249996635437,0|0,0:0|0:0,0:0:0:0:
167,292,82403,1,8,0:0:0:0:
167,292,82569,2,0,P|112:311|50:300,1,110.249996635437,0|0,0:0|0:0,0:0:0:0:
11,280,83066,2,0,L|19:152,1,110.249996635437,8|2,0:0|0:0,0:0:0:0:
7,60,83729,6,0,B|64:68|64:68|136:41,1,110.249996635437,4|0,0:0|0:0,0:0:0:0:
164,28,84226,2,0,B|213:46|213:46|270:38,1,110.249996635437,4|0,0:0|0:0,0:0:0:0:
323,24,84723,2,0,L|343:208,1,165.374994953156,4|0,0:0|0:0,0:0:0:0:
352,248,85386,1,2,0:0:0:0:
352,248,85552,2,0,P|395:262|496:196,1,165.374994953156,0|2,0:0|0:0,0:0:0:0:
490,100,86381,6,0,L|317:110,1,157.5,2|0,0:0|0:0,0:0:0:0:
228,119,87210,1,4,0:0:0:0:
256,192,87375,12,0,88701,0:0:0:0:
