osu file format v14

[General]
AudioFilename: audio.mp3
AudioLeadIn: 0
PreviewTime: 57582
Countdown: 0
SampleSet: Soft
StackLeniency: 0.7
Mode: 0
LetterboxInBreaks: 0
WidescreenStoryboard: 1

[Editor]
Bookmarks: 57732
DistanceSpacing: 1.6
BeatDivisor: 4
GridSize: 4
TimelineZoom: 1.4

[Metadata]
Title:Dover Beach
TitleUnicode:Dover Beach
Artist:Baby Queen
ArtistUnicode:Baby Queen
Creator:Trust
Version:Hard
Source:Heartstopper
Tags:the yearbook arabella latham english pop netflix ost original soundtrack episode 1 meet gay transgender lgbt lgbtq queer alice oseman fragmented
BeatmapID:3704987
BeatmapSetID:1799228

[Difficulty]
HPDrainRate:5
CircleSize:3.7
OverallDifficulty:6
ApproachRate:8
SliderMultiplier:2
SliderTickRate:1

[Events]
//Background and Video events
0,0,"dvrbch.png",0,0
Video,-3456,"dover.m4v"
//Break Periods
2,56132,56982
2,77832,83982
2,104132,104982
2,144932,152982
2,161732,163527
//Storyboard Layer 0 (Background)
//Storyboard Layer 1 (Fail)
//Storyboard Layer 2 (Pass)
//Storyboard Layer 3 (Foreground)
//Storyboard Layer 4 (Overlay)
//Storyboard Sound Samples

[TimingPoints]
10332,600,4,2,0,40,1,0
38532,-100,4,2,0,50,0,0
39132,-100,4,2,0,55,0,0
56832,-111.111111111111,4,2,0,60,0,0
58332,-86.9565217391304,4,2,0,70,0,0
84732,-86.9565217391304,4,2,0,40,0,0
87132,-100,4,2,0,60,0,0
106332,-86.9565217391304,4,2,0,60,0,0
125532,-83.3333333333333,4,2,0,70,0,1
144732,-166.666666666667,4,2,0,45,0,0
154332,-133.333333333333,4,2,0,50,0,0
164277,600,4,2,0,40,1,0
164277,-133.333333333333,4,2,0,40,0,0
165132,600,4,2,0,50,1,0
165132,-100,4,2,0,50,0,0
166332,600,4,2,0,70,1,1
166332,-83.3333333333333,4,2,0,70,0,1
185382,-83.3333333333333,4,2,0,70,0,0
186132,-83.3333333333333,4,2,0,70,0,1
202332,-80,4,2,0,75,0,1
204732,-111.111111111111,4,2,0,60,0,0
214332,-111.111111111111,4,2,0,10,0,0
214632,-111.111111111111,4,2,0,8,0,0
214932,-111.111111111111,4,2,0,6,0,0
215532,-111.111111111111,4,2,0,5,0,0

[Colours]
Combo1 : 247,251,189
Combo2 : 252,141,109
Combo3 : 237,197,230
Combo4 : 176,230,244

[HitObjects]
48,234,10332,6,0,P|97:206|113:200,1,50,2|0,1:2|0:0,0:0:0:0:
152,157,10632,2,0,P|201:185|217:191,1,50,0|0,0:0|0:0,0:0:0:0:
262,226,10932,2,0,P|267:149|236:112,1,100,2|0,0:0|0:0,0:0:0:0:
209,67,11382,1,0,0:0:0:0:
209,67,11532,5,2,0:0:0:0:
360,23,11832,2,0,P|411:24|477:39,2,100,0|0|2,0:0|0:0|0:0,0:0:0:0:
306,137,12732,6,0,P|319:180|331:198,1,50,2|0,1:2|0:0,0:0:0:0:
248,217,13032,2,0,P|235:260|223:278,1,50,0|0,0:0|0:0,0:0:0:0:
156,289,13332,2,0,P|96:265|37:294,1,100,2|0,0:0|0:0,0:0:0:0:
0,322,13782,1,0,0:0:0:0:
0,322,13932,5,2,0:0:0:0:
57,177,14232,2,0,P|46:134|26:74,2,100,0|0|2,0:0|0:0|0:0,0:0:0:0:
149,49,15132,6,0,P|205:97|213:108,1,50,2|0,1:2|0:0,0:0:0:0:
253,31,15432,2,0,P|273:101|274:115,1,50,0|0,0:0|0:0,0:0:0:0:
343,49,15732,2,0,P|369:119|363:175,1,100,2|0,0:0|0:0,0:0:0:0:
428,196,16182,1,0,0:0:0:0:
500,162,16332,5,2,0:0:0:0:
411,295,16632,2,0,P|344:311|293:338,2,100,0|0|6,0:0|0:0|0:0,0:0:0:0:
256,192,17532,12,0,19332,0:0:0:0:
240,222,19932,6,0,P|190:235|170:247,1,50,0|0,1:0|0:0,0:0:0:0:
88,189,20232,2,0,P|138:176|158:164,1,50,2|0,0:0|0:0,0:0:0:0:
179,107,20532,2,0,P|174:57|143:19,1,100,8|2,0:0|0:0,0:0:0:0:
98,91,20982,1,0,0:0:0:0:
98,91,21132,6,0,P|214:49|261:42,1,150,0|0,1:0|0:0,0:0:0:0:
307,0,21732,1,8,0:0:0:0:
274,156,22032,2,0,P|296:232|300:242,1,50
366,208,22332,6,0,P|429:189|437:189,1,50,0|0,1:0|0:0,0:0:0:0:
494,282,22632,2,0,P|469:275|447:264,1,50,2|0,0:0|0:0,0:0:0:0:
412,190,22932,1,8,0:0:0:0:
412,190,23082,2,0,P|393:97|384:62,1,100,2|0,0:0|0:0,0:0:0:0:
335,33,23532,6,0,P|229:81|198:106,1,150,0|0,1:0|0:0,0:0:0:0:
123,111,24132,2,0,P|139:48|154:29,1,50,8|2,0:0|0:0,0:0:0:0:
41,100,24432,2,0,P|57:163|72:182,1,50,0|0,0:0|0:0,0:0:0:0:
98,212,24732,5,0,1:0:0:0:
34,358,25032,2,0,P|125:323|154:322,1,100,2|8,0:0|0:0,0:0:0:0:
185,268,25482,2,0,P|276:303|305:304,1,100,2|0,0:0|0:0,0:0:0:0:
351,271,25932,6,0,P|404:324|411:334,2,50,0|0|2,1:0|0:0|0:0,0:0:0:0:
294,214,26382,1,0,0:0:0:0:
342,150,26532,1,8,0:0:0:0:
258,13,26832,2,0,P|215:27|179:48,1,50,2|0,0:0|0:0,0:0:0:0:
131,12,27132,5,0,1:0:0:0:
10,121,27432,2,0,P|48:216|50:242,1,100,2|8,0:0|0:0,0:0:0:0:
85,280,27882,2,0,P|98:232|123:189,1,100,2|0,0:0|0:0,0:0:0:0:
204,210,28332,6,0,P|283:199|314:181,1,100,0|2,1:0|0:0,0:0:0:0:
347,121,28782,1,0,0:0:0:0:
300,190,28932,2,0,P|289:261|288:280,1,50,8|0,0:0|0:0,0:0:0:0:
240,132,29232,2,0,P|236:107|231:82,1,50,2|0,0:0|0:0,0:0:0:0:
188,10,29532,5,0,1:0:0:0:
188,10,29682,1,0,0:0:0:0:
231,82,29832,2,0,P|186:93|120:62,1,100,2|8,0:0|0:0,0:0:0:0:
75,24,30282,2,0,P|21:86|9:120,1,100,2|0,0:0|0:0,0:0:0:0:
19,184,30732,6,0,P|50:234|62:249,2,50,0|0|2,1:0|0:0|0:0,0:0:0:0:
14,101,31182,1,0,0:0:0:0:
91,137,31332,1,8,0:0:0:0:
129,295,31632,2,0,P|179:267|200:261,1,50,2|0,0:0|0:0,0:0:0:0:
249,244,31932,6,0,P|299:272|320:278,1,50,0|0,1:0|0:0,0:0:0:0:
342,335,32232,2,0,P|369:243|349:211,1,100,2|8,0:0|0:0,0:0:0:0:
311,188,32682,2,0,P|310:138|337:97,1,100,2|0,0:0|0:0,0:0:0:0:
273,42,33132,5,0,1:0:0:0:
273,42,33282,2,0,P|205:61|149:68,1,100,2|0,0:0|0:0,0:0:0:0:
127,133,33732,2,0,P|150:142|175:154,2,50,8|2|0,0:0|0:0|0:0,0:0:0:0:
63,283,34332,6,0,P|44:234|37:218,1,50,0|0,1:0|0:0,0:0:0:0:
139,247,34632,2,0,P|137:324|109:356,1,100,2|8,0:0|0:0,0:0:0:0:
209,356,35082,2,0,P|273:322|322:311,1,100,2|0,0:0|0:0,0:0:0:0:
378,331,35532,5,0,1:0:0:0:
434,273,35682,1,0,0:0:0:0:
403,198,35832,2,0,P|408:167|430:121,1,50,2|0,0:0|0:0,0:0:0:0:
326,68,36132,2,0,P|333:91|337:116,2,50,8|0|2,0:0|0:0|0:0,0:0:0:0:
191,204,36732,5,0,1:0:0:0:
191,204,36882,1,0,0:0:0:0:
271,231,37032,2,0,P|268:169|220:122,1,100,2|8,0:0|0:0,0:0:0:0:
178,90,37482,2,0,P|103:108|45:134,1,100,2|0,0:0|0:0,0:0:0:0:
129,183,37932,5,0,1:0:0:0:
56,224,38082,1,0,0:0:0:0:
109,310,38232,2,0,P|131:253|133:239,1,50,2|0,0:0|0:0,0:0:0:0:
136,185,38532,1,8,1:2:0:0:
246,219,38682,2,0,P|269:295|280:346,1,100,2|0,0:0|0:0,0:0:0:0:
354,340,39132,6,0,P|417:313|433:310,1,50,0|0,1:0|0:0,0:0:0:0:
462,263,39432,2,0,P|483:275|507:285,1,50,2|0,0:0|0:0,0:0:0:0:
397,210,39732,2,0,P|396:153|423:100,1,100,8|2,0:0|0:0,0:0:0:0:
439,32,40182,1,0,0:0:0:0:
485,107,40332,6,0,P|402:110|346:44,1,150,0|0,1:0|0:0,0:0:0:0:
281,22,40932,2,0,P|260:87|255:111,1,50,8|0,0:0|0:0,0:0:0:0:
271,155,41232,1,2,0:0:0:0:
194,119,41382,1,0,0:0:0:0:
120,162,41532,6,0,P|107:215|95:236,1,50,0|0,1:0|0:0,0:0:0:0:
33,157,41832,2,0,P|24:130|22:93,1,50,2|0,0:0|0:0,0:0:0:0:
51,30,42132,2,0,P|125:4|168:3,1,100,8|2,0:0|0:0,0:0:0:0:
215,53,42582,1,0,0:0:0:0:
273,116,42732,6,0,B|309:77|293:22|293:22|324:36|338:90,1,150,0|0,1:0|0:0,0:0:0:0:
381,127,43332,1,8,0:0:0:0:
381,127,43482,2,0,P|434:103|501:113,1,100,2|0,0:0|0:0,0:0:0:0:
486,187,43932,6,0,P|476:238|473:272,1,50,0|0,1:0|0:0,0:0:0:0:
404,282,44232,2,0,P|399:257|395:233,1,50,2|0,0:0|0:0,0:0:0:0:
314,257,44532,2,0,P|246:258|210:232,1,100,8|2,0:0|0:0,0:0:0:0:
278,179,44982,1,0,0:0:0:0:
278,179,45132,6,0,P|298:134|292:85,1,100,0|2,1:0|0:0,0:0:0:0:
221,36,45582,1,0,0:0:0:0:
213,121,45732,1,8,0:0:0:0:
213,121,45882,2,0,P|155:133|110:157,1,100
53,97,46332,6,0,P|44:120|32:142,1,50,0|0,1:0|0:0,0:0:0:0:
0,218,46632,2,0,P|9:241|22:263,1,50,2|0,0:0|0:0,0:0:0:0:
96,306,46932,2,0,P|173:293|194:262,1,100,8|0,0:0|0:0,0:0:0:0:
354,331,47532,6,0,P|325:292|327:243,1,100,0|2,1:0|0:0,0:0:0:0:
354,164,47982,1,0,0:0:0:0:
354,164,48132,2,0,P|334:96|334:76,1,50,8|0,0:0|0:0,0:0:0:0:
436,53,48432,2,0,P|425:75|418:99,1,50,2|0,0:0|0:0,0:0:0:0:
336,117,48732,5,0,1:0:0:0:
336,117,48882,1,0,0:0:0:0:
259,86,49032,2,0,P|207:106|194:118,1,50,2|0,0:0|0:0,0:0:0:0:
142,146,49332,1,8,0:0:0:0:
79,203,49482,2,0,P|60:151|71:103,1,100,2|0,0:0|0:0,0:0:0:0:
117,40,49932,6,0,P|86:-2|61:-23,2,50,0|0|2,1:0|0:0|0:0,0:0:0:0:
194,74,50382,1,0,0:0:0:0:
249,10,50532,1,8,0:0:0:0:
415,33,50832,2,0,P|388:88|385:102,1,50,2|0,0:0|0:0,0:0:0:0:
450,136,51132,6,0,P|482:199|450:251,1,100,0|2,1:0|0:0,0:0:0:0:
421,286,51582,1,0,0:0:0:0:
341,265,51732,2,0,P|273:247|207:259,1,100,8|2,0:0|0:0,0:0:0:0:
209,84,52332,5,0,1:0:0:0:
288,48,52482,2,0,P|302:-7|304:-37,2,50,0|2|0,0:0|0:0|0:0,0:0:0:0:
209,84,52932,1,8,0:0:0:0:
117,0,53232,1,2,0:0:0:0:
23,94,53532,6,0,P|9:47|8:38,2,50,0|0|2,1:0|0:0|0:0,0:0:0:0:
72,160,53982,1,0,0:0:0:0:
105,85,54132,2,0,P|173:67|226:64,1,100,8|2,0:0|0:0,0:0:0:0:
333,4,54732,6,0,P|354:93|333:131,1,100,0|2,1:0|0:0,0:0:0:0:
303,251,55332,1,8,0:0:0:0:
303,251,55482,2,0,P|371:233|424:230,1,100,2|0,0:0|0:0,0:0:0:0:
463,178,55932,5,0,1:0:0:0:
51,179,57732,6,0,P|79:243|94:329,1,134.999995880127,8|0,0:0|0:0,0:0:0:0:
159,379,58332,6,0,P|187:312|160:229,1,115.000002193451,4|2,1:2|0:0,0:0:0:0:
164,181,58782,1,0,0:0:0:0:
243,139,58932,2,0,P|252:113|265:87,1,57.5000010967255,8|0,0:0|0:0,0:0:0:0:
308,204,59232,2,0,P|316:231|327:257,1,57.5000010967255,2|0,0:0|0:0,0:0:0:0:
405,312,59532,6,0,P|382:362|328:372,1,115.000002193451,0|2,1:0|0:0,0:0:0:0:
174,285,60132,1,8,0:0:0:0:
237,217,60282,2,0,P|252:148|250:91,1,115.000002193451
314,36,60732,6,0,P|261:13|194:31,1,115.000002193451,0|2,1:0|0:0,0:0:0:0:
107,179,61332,2,0,P|70:246|56:260,1,57.5000010967255,8|0,0:0|0:0,0:0:0:0:
22,301,61632,1,2,0:0:0:0:
22,301,61782,1,0,0:0:0:0:
108,338,61932,6,0,P|105:266|62:215,1,115.000002193451,0|2,1:0|0:0,0:0:0:0:
11,59,62532,1,8,0:0:0:0:
103,46,62682,2,0,P|175:73|232:58,1,115.000002193451,0|0,0:0|0:0,0:0:0:0:
303,86,63132,6,0,P|335:153|304:227,1,115.000002193451,0|2,1:0|0:0,0:0:0:0:
244,156,63582,1,0,0:0:0:0:
211,68,63732,2,0,P|231:2|234:-4,2,57.5000010967255,8|2|0,0:0|0:0|0:0,0:0:0:0:
119,76,64182,1,0,0:0:0:0:
66,151,64332,6,0,P|66:212|95:260,1,115.000002193451,0|2,1:0|0:0,0:0:0:0:
248,169,64932,2,0,P|220:179|195:192,2,57.5000010967255,8|2|0,0:0|0:0|0:0,0:0:0:0:
330,214,65382,1,0,0:0:0:0:
409,166,65532,6,0,P|421:112|374:42,1,115.000002193451,0|2,1:0|0:0,0:0:0:0:
324,1,65982,1,0,0:0:0:0:
226,1,66132,2,0,P|254:79|263:94,1,57.5000010967255,8|0,0:0|0:0,0:0:0:0:
239,147,66432,1,2,0:0:0:0:
161,100,66582,1,0,0:0:0:0:
161,100,66732,6,0,P|133:178|124:193,1,57.5000010967255,0|0,1:0|0:0,0:0:0:0:
74,229,67032,2,0,P|46:151|37:136,1,57.5000010967255,2|0,0:0|0:0,0:0:0:0:
69,67,67332,2,0,P|153:82|156:138,1,115.000002193451,8|2,0:0|0:0,0:0:0:0:
233,172,67782,1,0,0:0:0:0:
219,285,67932,6,0,P|164:252|160:175,1,115.000002193451,4|2,1:2|0:0,0:0:0:0:
329,272,68532,2,0,P|385:285|407:298,1,57.5000010967255,8|0,0:0|0:0,0:0:0:0:
424,173,68832,2,0,P|396:182|368:185,1,57.5000010967255,2|0,0:0|0:0,0:0:0:0:
287,142,69132,6,0,P|270:94|297:39,1,115.000002193451,0|2,1:0|0:0,0:0:0:0:
486,25,69732,2,0,P|496:51|508:77,1,57.5000010967255,8|0,0:0|0:0,0:0:0:0:
478,164,70032,1,2,0:0:0:0:
478,164,70182,1,0,0:0:0:0:
389,141,70332,6,0,P|378:231|384:264,1,115.000002193451,0|2,1:0|0:0,0:0:0:0:
245,384,70932,2,0,P|261:318|269:303,1,57.5000010967255,8|0,0:0|0:0,0:0:0:0:
168,277,71232,2,0,P|152:343|142:365,1,57.5000010967255,2|0,0:0|0:0,0:0:0:0:
74,375,71532,6,0,P|30:339|53:261,1,115.000002193451,0|2,1:0|0:0,0:0:0:0:
168,160,72132,2,0,P|145:89|143:75,1,57.5000010967255,8|0,0:0|0:0,0:0:0:0:
175,17,72432,1,2,0:0:0:0:
250,73,72582,1,0,0:0:0:0:
250,73,72732,6,0,P|186:110|136:100,1,115.000002193451,0|2,1:0|0:0,0:0:0:0:
64,75,73182,1,0,0:0:0:0:
9,149,73332,2,0,P|10:206|32:259,1,115.000002193451,8|2,0:0|0:0,0:0:0:0:
96,327,73782,1,0,0:0:0:0:
180,291,73932,2,0,P|234:262|292:261,1,115.000002193451,0|2,1:0|0:0,0:0:0:0:
276,85,74532,2,0,P|219:107|190:108,2,57.5000010967255,8|0|2,0:0|0:0|0:0,0:0:0:0:
239,0,74982,1,0,0:0:0:0:
329,11,75132,6,0,P|367:72|352:137,1,115.000002193451,0|2,1:0|0:0,0:0:0:0:
365,205,75582,1,0,0:0:0:0:
277,229,75732,1,8,0:0:0:0:
343,294,75882,2,0,P|415:322|447:324,2,57.5000010967255,2|0|0,0:0|0:0|0:0,0:0:0:0:
277,229,76332,6,0,P|196:229|151:269,1,115.000002193451,0|2,1:0|0:0,0:0:0:0:
102,306,76782,1,0,1:0:0:0:
48,231,76932,2,0,P|33:175|13:131,1,57.5000010967255,8|0,0:0|1:0,0:0:0:0:
117,123,77232,2,0,P|91:109|70:91,1,57.5000010967255,0|0,1:2|0:0,0:0:0:0:
15,18,77532,5,0,1:0:0:0:
256,192,84732,12,0,86532,0:0:0:0:
32,175,87132,6,0,P|111:188|123:185,1,50,0|0,1:0|0:0,0:0:0:0:
144,246,87432,2,0,P|223:233|235:236,1,50,2|0,0:0|0:0,0:0:0:0:
269,268,87732,1,8,0:0:0:0:
269,268,87882,2,0,P|265:191|222:151,1,100,2|0,0:0|0:0,0:0:0:0:
192,120,88332,2,0,P|259:155|348:151,1,150,0|0,1:0|0:0,0:0:0:0:
408,120,88932,1,8,0:0:0:0:
283,9,89532,5,0,1:0:0:0:
408,120,89832,2,0,P|412:187|391:222,1,100,2|8,0:0|0:0,0:0:0:0:
321,250,90282,2,0,P|317:183|338:148,1,100,2|0,0:0|0:0,0:0:0:0:
270,98,90732,2,0,P|195:98|129:133,1,150,0|0,1:0|0:0,0:0:0:0:
61,177,91332,2,0,P|48:122|51:104,1,50,8|0,0:0|0:0,0:0:0:0:
94,62,91632,1,2,0:0:0:0:
140,215,91932,5,0,1:0:0:0:
73,361,92232,2,0,P|158:333|205:330,1,100,2|8,0:0|0:0,0:0:0:0:
207,261,92682,2,0,P|292:289|339:292,1,100,2|0,0:0|0:0,0:0:0:0:
341,220,93132,2,0,P|352:156|416:186,1,150,0|0,1:0|0:0,0:0:0:0:
493,197,93732,1,8,0:0:0:0:
451,41,94032,1,2,0:0:0:0:
301,66,94332,6,0,P|246:49|219:32,1,50,0|0,1:0|0:0,0:0:0:0:
171,18,94632,2,0,P|158:94|116:123,1,100,2|8,0:0|0:0,0:0:0:0:
78,155,95082,2,0,P|91:231|133:260,1,100,2|0,0:0|0:0,0:0:0:0:
168,294,95532,1,0,1:0:0:0:
239,149,95832,1,0,1:0:0:0:
334,278,96132,2,0,P|270:263|255:263,2,50,8|2|8,0:0|0:0|0:3,0:0:0:0:
388,337,96582,1,8,0:3:0:0:
446,281,96732,6,0,P|458:225|461:216,1,50,0|0,1:0|0:0,0:0:0:0:
403,129,97032,2,0,P|391:185|388:194,1,50,2|0,0:0|0:0,0:0:0:0:
314,198,97332,1,8,0:0:0:0:
314,198,97482,2,0,P|250:183|185:191,1,100,2|0,0:0|0:0,0:0:0:0:
159,119,97932,6,0,P|113:167|101:173,1,50,0|0,1:0|0:0,0:0:0:0:
208,233,98232,2,0,P|222:168|229:156,1,50,2|0,0:0|0:0,0:0:0:0:
242,104,98532,1,8,0:0:0:0:
404,65,98832,1,2,0:0:0:0:
404,65,98982,1,0,0:0:0:0:
459,2,99132,6,0,P|489:67|470:118,1,100,0|2,1:0|0:0,0:0:0:0:
431,154,99582,1,0,0:0:0:0:
431,154,99732,2,0,P|458:234|468:272,1,100,8|2,0:0|0:0,0:0:0:0:
298,294,100332,5,0,1:0:0:0:
298,294,100482,2,0,P|227:276|155:279,1,100,2|0,0:0|0:0,0:0:0:0:
143,217,100932,2,0,P|218:212|222:172,1,100,8|2,0:0|0:0,0:0:0:0:
229,118,101382,1,0,0:0:0:0:
167,64,101532,5,0,1:0:0:0:
32,153,101832,2,0,P|15:220|14:240,1,50,2|0,0:0|0:0,0:0:0:0:
98,221,102132,2,0,P|117:287|127:304,1,50,8|0,0:0|0:0,0:0:0:0:
167,331,102432,1,2,0:0:0:0:
167,331,102582,1,0,0:0:0:0:
236,283,102732,6,0,P|291:280|369:314,3,100,0|0|0|0,1:0|1:0|1:0|1:0,0:0:0:0:
452,177,103932,1,0,1:0:0:0:
401,192,105732,6,0,P|456:174|478:156,2,50,8|0|2,0:0|0:0|0:0,0:0:0:0:
328,157,106182,1,0,0:0:0:0:
259,232,106332,6,0,P|201:225|130:206,1,115.000002193451,4|2,1:2|0:0,0:0:0:0:
70,265,106782,1,0,0:0:0:0:
6,199,106932,2,0,P|39:127|44:109,1,57.5000010967255,8|0,0:0|0:0,0:0:0:0:
83,41,107232,2,0,P|94:67|108:92,1,57.5000010967255,2|0,0:0|0:0,0:0:0:0:
197,68,107532,6,0,P|256:25|311:50,1,115.000002193451,0|2,1:0|0:0,0:0:0:0:
362,203,108132,1,8,0:0:0:0:
362,203,108282,2,0,P|354:134|412:91,1,115.000002193451,0|0,0:0|0:0,0:0:0:0:
461,152,108732,6,0,P|523:183|528:184,2,57.5000010967255,0|0|2,1:0|0:0|0:0,0:0:0:0:
381,102,109182,1,0,0:0:0:0:
287,115,109332,2,0,P|245:132|220:154,1,57.5000010967255,8|0,0:0|0:0,0:0:0:0:
175,212,109632,1,2,0:0:0:0:
175,212,109782,1,0,0:0:0:0:
127,130,109932,6,0,P|173:117|248:151,1,115.000002193451,0|2,1:0|0:0,0:0:0:0:
450,242,110532,2,0,P|436:216|427:189,1,57.5000010967255,8|0,0:0|0:0,0:0:0:0:
345,232,110832,2,0,P|317:223|292:209,1,57.5000010967255,2|0,0:0|0:0,0:0:0:0:
234,138,111132,6,0,P|227:69|259:18,1,115.000002193451,0|0,1:0|0:0,0:0:0:0:
317,93,111582,1,0,0:0:0:0:
233,138,111732,2,0,P|166:125|147:115,2,57.5000010967255,8|0|2,0:0|0:0|0:0,0:0:0:0:
317,93,112182,1,0,0:0:0:0:
383,159,112332,6,0,P|462:139|512:107,1,115.000002193451,0|2,1:0|0:0,0:0:0:0:
364,251,112932,2,0,P|344:265|316:297,2,57.5000010967255,8|0|2,0:0|0:0|0:0,0:0:0:0:
452,223,113382,1,0,0:0:0:0:
383,159,113532,6,0,P|349:116|349:49,1,115.000002193451,0|2,1:0|0:0,0:0:0:0:
268,1,113982,1,0,0:0:0:0:
234,90,114132,2,0,P|189:54|179:36,1,57.5000010967255,8|0,0:0|0:0,0:0:0:0:
74,18,114432,2,0,P|90:41|101:69,1,57.5000010967255,2|0,0:0|0:0,0:0:0:0:
19,147,114732,6,0,P|13:119|14:89,2,57.5000010967255,0|0|2,1:0|0:0|0:0,0:0:0:0:
58,231,115182,1,8,0:0:0:0:
182,183,115332,2,0,P|118:167|107:162,1,57.5000010967255,0|8,1:0|0:0,0:0:0:0:
206,270,115632,2,0,P|233:261|261:257,1,57.5000010967255,0|8,1:0|0:0,0:0:0:0:
383,288,115932,6,0,P|347:207|357:180,1,115.000002193451,4|2,1:2|0:0,0:0:0:0:
192,110,116532,2,0,P|158:102|128:87,1,57.5000010967255,8|0,0:0|0:0,0:0:0:0:
166,192,116832,2,0,P|181:215|202:236,1,57.5000010967255,2|0,0:0|0:0,0:0:0:0:
296,225,117132,6,0,P|311:159|242:132,1,115.000002193451,0|2,1:0|0:0,0:0:0:0:
208,76,117582,1,0,0:0:0:0:
273,13,117732,2,0,P|338:-1|359:1,1,57.5000010967255,8|0,0:0|0:0,0:0:0:0:
374,73,118032,1,2,0:0:0:0:
421,0,118182,1,0,0:0:0:0:
463,76,118332,6,0,P|449:187|460:224,1,115.000002193451,0|2,1:0|0:0,0:0:0:0:
293,287,118932,2,0,P|346:256|360:238,1,57.5000010967255,8|0,0:0|0:0,0:0:0:0:
335,161,119232,2,0,P|282:192|268:210,1,57.5000010967255,2|0,0:0|0:0,0:0:0:0:
212,242,119532,5,0,1:0:0:0:
128,211,119682,1,0,0:0:0:0:
126,118,119832,2,0,P|129:89|137:61,1,57.5000010967255,2|0,0:0|0:0,0:0:0:0:
36,101,120132,2,0,P|31:129|23:157,2,57.5000010967255,8|0|2,0:0|0:0|0:0,0:0:0:0:
56,10,120582,1,0,0:0:0:0:
136,61,120732,6,0,P|185:31|241:35,1,115.000002193451,0|2,1:0|0:0,0:0:0:0:
206,120,121182,1,0,0:0:0:0:
286,167,121332,2,0,P|353:149|422:116,1,115.000002193451,8|2,0:0|0:0,0:0:0:0:
471,76,121782,1,0,0:0:0:0:
394,130,121932,6,0,P|378:64|382:47,1,57.5000010967255,0|0,1:0|0:0,0:0:0:0:
332,204,122232,2,0,P|356:219|384:226,1,57.5000010967255,2|0,0:0|0:0,0:0:0:0:
425,311,122532,2,0,P|357:314|341:307,2,57.5000010967255,8|2|0,0:0|0:0|0:0,0:0:0:0:
477,233,122982,1,2,0:0:0:0:
384,226,123132,6,0,P|361:140|364:77,1,115.000002193451,0|2,1:0|0:0,0:0:0:0:
411,37,123582,1,0,0:0:0:0:
326,0,123732,2,0,P|263:8|255:11,1,57.5000010967255,8|0,0:0|0:0,0:0:0:0:
154,73,124032,2,0,P|182:79|210:80,1,57.5000010967255,0|0,1:0|0:0,0:0:0:0:
279,128,124332,5,0,1:0:0:0:
298,208,124482,1,0,1:2:0:0:
244,270,124632,2,0,P|186:304|172:322,1,57.5000010967255,0|0,1:0|1:0,0:0:0:0:
101,203,124932,2,0,P|126:216|153:225,2,57.5000010967255,8|0|0,0:0|1:0|1:0,0:0:0:0:
14,177,125382,1,0,1:0:0:0:
78,110,125532,6,0,P|120:155|91:211,1,119.999996337891,0|2,1:0|0:0,0:0:0:0:
38,281,125982,1,0,0:0:0:0:
114,344,126132,2,0,P|195:321|245:316,1,119.999996337891,12|2,0:0|0:0,0:0:0:0:
301,253,126582,1,0,0:0:0:0:
339,341,126732,6,0,P|262:341|211:277,1,119.999996337891,0|2,1:0|0:0,0:0:0:0:
208,220,127182,1,0,0:0:0:0:
301,253,127332,2,0,P|332:188|329:120,1,119.999996337891,12|2,0:0|0:0,0:0:0:0:
299,51,127782,1,0,0:0:0:0:
389,20,127932,6,0,P|459:-3|479:-4,2,59.9999981689454,0|0|2,1:0|0:0|0:0,0:0:0:0:
299,51,128382,1,0,0:0:0:0:
240,127,128532,2,0,P|217:197|216:217,2,59.9999981689454,8|0|2,0:0|0:0|0:0,0:0:0:0:
184,48,128982,1,0,0:0:0:0:
184,48,129132,5,0,1:0:0:0:
107,228,129432,1,2,0:0:0:0:
34,166,129582,1,0,0:0:0:0:
107,228,129732,2,0,P|128:154|112:112,1,119.999996337891,8|2,0:0|0:0,0:0:0:0:
80,31,130182,1,0,0:0:0:0:
184,48,130332,6,0,P|250:16|261:7,1,59.9999981689454,0|0,1:0|1:0,0:0:0:0:
301,97,130632,2,0,P|367:129|378:138,1,59.9999981689454,2|0,1:2|1:0,0:0:0:0:
422,189,130932,2,0,P|447:141|420:52,1,119.999996337891,12|2,0:0|0:0,0:0:0:0:
355,121,131382,1,0,0:0:0:0:
422,189,131532,6,0,P|437:286|453:336,1,119.999996337891,0|2,1:0|0:0,0:0:0:0:
370,369,131982,1,0,0:0:0:0:
296,310,132132,2,0,P|215:286|144:292,1,119.999996337891,12|2,0:0|0:0,0:0:0:0:
99,236,132582,1,0,0:0:0:0:
181,286,132732,6,0,P|159:359|152:372,2,59.9999981689454,0|0|2,1:0|0:0|0:0,0:0:0:0:
99,236,133182,1,0,0:0:0:0:
110,145,133332,2,0,P|132:72|139:59,2,59.9999981689454,8|0|2,0:0|0:0|0:0,0:0:0:0:
29,92,133782,1,0,0:0:0:0:
76,10,133932,6,0,P|176:12|217:71,1,119.999996337891,0|2,1:0|0:0,0:0:0:0:
228,145,134382,1,0,0:0:0:0:
274,61,134532,2,0,P|334:38|348:36,1,59.9999981689454,8|0,0:0|1:0,0:0:0:0:
359,121,134832,2,0,P|386:131|411:147,1,59.9999981689454,0|0,1:0|1:0,0:0:0:0:
356,226,135132,6,0,P|296:214|274:288,1,119.999996337891,0|2,1:0|0:0,0:0:0:0:
356,311,135582,1,0,0:0:0:0:
446,256,135732,2,0,P|431:167|386:134,1,119.999996337891,12|2,0:0|0:0,0:0:0:0:
353,83,136182,1,0,0:0:0:0:
265,116,136332,6,0,P|176:101|143:56,1,119.999996337891,0|2,1:0|0:0,0:0:0:0:
102,9,136782,1,0,0:0:0:0:
59,95,136932,2,0,P|78:178|101:230,1,119.999996337891,12|0,0:0|0:0,0:0:0:0:
27,307,137382,1,0,0:0:0:0:
101,366,137532,6,0,P|117:296|109:267,1,59.9999981689454,0|0,1:0|0:0,0:0:0:0:
224,265,137832,2,0,P|208:335|216:364,1,59.9999981689454,2|0,0:0|0:0,0:0:0:0:
303,384,138132,2,0,P|292:312|274:288,1,59.9999981689454,8|0,0:0|0:0,0:0:0:0:
224,265,138432,1,2,0:0:0:0:
224,265,138582,1,0,0:0:0:0:
314,232,138732,6,0,P|381:207|399:205,1,59.9999981689454,0|0,1:0|0:0,0:0:0:0:
251,110,139032,2,0,P|318:142|330:151,1,59.9999981689454,2|0,0:0|0:0,0:0:0:0:
389,108,139332,2,0,P|400:178|352:213,1,119.999996337891,8|2,0:0|0:0,0:0:0:0:
437,283,139782,5,2,0:0:0:0:
437,283,139857,1,2,0:0:0:0:
437,283,139932,2,0,P|492:264|519:264,1,59.9999981689454,0|0,1:0|1:0,0:0:0:0:
371,354,140232,2,0,P|341:347|314:334,1,59.9999981689454,2|0,1:2|1:0,0:0:0:0:
216,270,140532,2,0,P|224:321|184:388,1,119.999996337891,12|2,0:0|0:0,0:0:0:0:
130,309,140982,1,0,0:0:0:0:
216,270,141132,6,0,P|264:251|294:250,2,59.9999981689454,0|0|2,1:0|0:0|0:0,0:0:0:0:
130,309,141582,1,0,0:0:0:0:
63,244,141732,2,0,P|55:193|95:122,1,119.999996337891,12|2,0:0|0:0,0:0:0:0:
150,203,142182,1,0,0:0:0:0:
174,111,142332,6,0,P|166:71|154:42,1,59.9999981689454,0|0,1:0|0:0,0:0:0:0:
274,101,142632,2,0,P|264:129|259:166,1,59.9999981689454,2|0,0:0|0:0,0:0:0:0:
343,213,142932,2,0,P|369:203|401:198,1,59.9999981689454,8|0,0:0|0:0,0:0:0:0:
474,143,143232,1,2,1:2:0:0:
474,143,143382,1,0,0:0:0:0:
492,236,143532,6,0,P|475:307|474:316,2,59.9999981689454,0|0|0,1:0|1:2|1:2,0:0:0:0:
398,333,143982,1,0,1:0:0:0:
293,263,144132,2,0,P|314:332|318:340,2,59.9999981689454,8|8|0,0:0|0:3|1:0,0:0:0:0:
325,174,144582,1,8,0:3:0:0:
414,155,144732,5,2,0:0:0:0:
142,156,153732,6,0,L|149:199,3,29.9999990844727,0|0|2|0,0:0|0:0|0:0|0:0,0:0:0:0:
156,233,154332,5,0,1:0:0:0:
232,303,154632,1,2,0:0:0:0:
273,276,154782,1,2,0:0:0:0:
320,286,154932,1,0,1:0:0:0:
453,203,155232,2,0,P|384:194|373:190,1,75.0000028610231,2|0,0:0|1:0,0:0:0:0:
319,110,155832,5,2,0:0:0:0:
281,141,155982,1,2,0:0:0:0:
232,133,156132,2,0,P|216:95|214:84,3,37.5000014305115,0|0|2|0,1:0|0:0|0:0|0:0,0:0:0:0:
207,50,156732,5,0,1:0:0:0:
77,165,157032,1,2,0:0:0:0:
109,129,157182,1,2,0:0:0:0:
123,175,157332,2,0,P|173:206|192:211,1,75.0000028610231,0|2,1:0|0:0,0:0:0:0:
271,283,157932,5,0,1:0:0:0:
390,217,158232,2,0,P|374:182|365:171,1,37.5000014305115,2|2,0:0|0:0,0:0:0:0:
398,140,158532,2,0,P|365:119|351:115,1,37.5000014305115,0|0,1:0|0:0,0:0:0:0:
320,104,158832,1,2,0:0:0:0:
274,121,158982,1,0,0:0:0:0:
235,90,159132,5,0,1:0:0:0:
96,185,159432,2,0,P|60:169|50:166,1,37.5000014305115,2|2,0:0|0:0,0:0:0:0:
39,125,159732,2,0,P|57:121|76:118,2,37.5000014305115,0|0|2,1:0|1:0|0:0,0:0:0:0:
141,36,160332,5,0,1:0:0:0:
235,90,160632,2,0,P|222:141|220:157,1,37.5000014305115,0|2,1:0|0:0,0:0:0:0:
210,172,160932,1,0,1:0:0:0:
255,303,161232,1,0,1:0:0:0:
122,191,161532,5,0,1:0:0:0:
332,141,164277,6,0,P|343:110|352:54,2,75.0000028610231,0|0|0,1:0|1:0|1:0,0:0:0:0:
194,184,165132,6,0,L|130:168,2,50,0|8|8,1:0|0:0|0:0,0:0:0:0:
247,270,165582,1,0,1:0:0:0:
247,270,165732,2,0,L|329:251,2,50,0|8|8,1:0|0:0|0:0,0:0:0:0:
176,343,166182,1,0,1:0:0:0:
80,266,166332,6,0,P|57:184|31:131,1,119.999996337891,0|2,1:0|0:0,0:0:0:0:
70,67,166782,1,0,0:0:0:0:
151,18,166932,2,0,P|162:88|115:150,1,119.999996337891,12|2,0:0|0:0,0:0:0:0:
42,152,167382,1,0,0:0:0:0:
140,129,167532,6,0,P|220:166|280:219,1,119.999996337891,0|2,1:0|0:0,0:0:0:0:
309,117,167982,1,0,0:0:0:0:
355,200,168132,2,0,P|311:212|224:153,1,119.999996337891,12|0,0:0|0:0,0:0:0:0:
179,249,168582,1,0,0:0:0:0:
117,179,168732,6,0,P|85:242|86:279,2,59.9999981689454,0|0|2,1:0|0:0|0:0,0:0:0:0:
186,113,169182,1,0,0:0:0:0:
93,87,169332,2,0,P|31:123|12:154,2,59.9999981689454,8|0|2,0:0|0:0|0:0,0:0:0:0:
186,113,169782,1,0,0:0:0:0:
269,67,169932,6,0,P|276:6|275:-3,1,59.9999981689454,0|0,1:0|0:0,0:0:0:0:
361,94,170232,2,0,P|361:123|368:153,1,59.9999981689454,2|0,0:0|0:0,0:0:0:0:
411,228,170532,2,0,P|328:196|302:215,1,119.999996337891,8|2,0:0|0:0,0:0:0:0:
236,270,170982,1,0,0:0:0:0:
239,367,171132,6,0,P|304:338|314:326,1,59.9999981689454,0|0,1:0|1:0,0:0:0:0:
236,270,171432,2,0,P|171:299|161:311,1,59.9999981689454,2|0,0:0|1:0,0:0:0:0:
113,363,171732,2,0,P|81:276|31:218,1,119.999996337891,12|2,0:0|0:0,0:0:0:0:
4,183,172182,1,0,0:0:0:0:
90,145,172332,6,0,P|90:223|29:274,1,119.999996337891,0|2,1:0|0:0,0:0:0:0:
4,183,172782,1,0,0:0:0:0:
20,89,172932,2,0,P|96:53|166:91,1,119.999996337891,12|2,0:0|0:0,0:0:0:0:
210,107,173382,1,0,0:0:0:0:
285,55,173532,6,0,P|263:-1|259:-20,1,59.9999981689454,0|0,1:0|0:0,0:0:0:0:
210,107,173832,2,0,P|201:135|189:163,1,59.9999981689454,2|0,0:0|0:0,0:0:0:0:
294,149,174132,2,0,P|359:121|381:122,2,59.9999981689454,8|0|2,0:0|0:0|0:0,0:0:0:0:
250,234,174582,1,0,0:0:0:0:
188,163,174732,6,0,P|159:158|130:151,1,59.9999981689454,0|0,1:0|0:0,0:0:0:0:
250,234,175032,2,0,P|222:245|193:253,1,59.9999981689454,2|0,0:0|1:0,0:0:0:0:
243,342,175332,1,8,0:2:0:0:
322,294,175482,1,0,1:2:0:0:
411,328,175632,2,0,P|424:360|435:395,1,59.9999981689454,0|0,1:2|1:0,0:0:0:0:
487,273,175932,6,0,P|458:208|438:143,1,119.999996337891,0|2,1:0|0:0,0:0:0:0:
352,134,176382,1,0,0:0:0:0:
404,56,176532,2,0,P|445:149|414:203,1,119.999996337891,12|2,0:0|0:0,0:0:0:0:
374,224,176982,1,0,0:0:0:0:
352,134,177132,6,0,P|254:160|203:198,1,119.999996337891,0|2,1:0|0:0,0:0:0:0:
168,229,177582,1,0,0:0:0:0:
128,148,177732,2,0,P|217:176|274:138,1,119.999996337891,12|2,0:0|0:0,0:0:0:0:
280,82,178182,1,0,0:0:0:0:
214,16,178332,6,0,P|145:41|128:57,1,59.9999981689454,0|0,1:0|0:0,0:0:0:0:
280,82,178632,2,0,P|309:87|336:98,1,59.9999981689454,2|0,0:0|0:0,0:0:0:0:
414,160,178932,1,8,0:0:0:0:
414,160,179082,1,0,0:0:0:0:
316,153,179232,2,0,P|322:124|337:98,1,59.9999981689454,2|0,0:0|0:0,0:0:0:0:
414,160,179532,6,0,P|407:189|393:215,1,59.9999981689454,0|0,1:0|0:0,0:0:0:0:
337,291,179832,2,0,P|299:284|278:276,1,59.9999981689454,2|0,0:0|0:0,0:0:0:0:
228,199,180132,2,0,P|231:266|175:307,1,119.999996337891,8|0,0:0|0:0,0:0:0:0:
114,358,180582,5,2,0:0:0:0:
114,358,180657,1,2,0:0:0:0:
114,358,180732,2,0,P|94:302|91:278,1,59.9999981689454,0|0,1:0|1:0,0:0:0:0:
16,254,181032,2,0,P|32:196|44:175,1,59.9999981689454,2|0,0:0|1:0,0:0:0:0:
81,120,181332,2,0,P|162:98|204:99,1,119.999996337891,12|2,0:0|0:0,0:0:0:0:
261,31,181782,1,0,0:0:0:0:
223,151,181932,6,0,P|198:101|196:74,1,59.9999981689454,0|0,1:0|0:0,0:0:0:0:
261,31,182232,2,0,P|286:81|288:108,1,59.9999981689454,2|0,0:0|0:0,0:0:0:0:
357,138,182532,2,0,P|433:135|477:171,1,119.999996337891,12|2,0:0|0:0,0:0:0:0:
500,337,183132,5,0,1:0:0:0:
407,308,183282,1,2,1:2:0:0:
407,308,183357,1,0,1:0:0:0:
407,308,183432,2,0,L|387:227,1,59.9999981689454,0|0,1:0|1:0,0:0:0:0:
312,326,183732,2,0,L|297:384,1,59.9999981689454,8|0,1:2|1:0,0:0:0:0:
243,261,184032,2,0,P|218:216|214:198,1,59.9999981689454,8|0,1:2|1:0,0:0:0:0:
148,140,184332,6,0,P|132:165|111:186,2,59.9999981689454,0|0|0,1:0|1:0|1:0,0:0:0:0:
212,68,184782,1,0,1:0:0:0:
297,110,184932,2,0,P|339:97|380:91,1,59.9999981689454,8|8,1:2|0:3,0:0:0:0:
212,68,185232,2,0,P|170:55|129:49,1,59.9999981689454,10|8,0:0|0:3,0:0:0:0:
279,0,185532,6,0,P|306:84|289:123,1,119.999996337891,0|2,1:0|0:0,0:0:0:0:
229,178,185982,1,0,0:0:0:0:
137,146,186132,2,0,P|55:161|3:178,1,119.999996337891,12|2,0:0|0:0,0:0:0:0:
140,341,186732,6,0,P|152:314|156:285,2,59.9999981689454,0|0|2,1:0|0:0|0:0,0:0:0:0:
66,290,187182,1,0,0:0:0:0:
104,209,187332,2,0,P|195:202|233:232,1,119.999996337891,12|2,0:0|0:0,0:0:0:0:
291,274,187782,1,0,0:0:0:0:
360,208,187932,6,0,P|343:136|339:75,1,119.999996337891,0|2,1:0|0:0,0:0:0:0:
383,12,188382,1,0,0:0:0:0:
286,15,188532,2,0,P|218:22|145:45,1,119.999996337891,8|2,0:0|0:0,0:0:0:0:
104,105,188982,1,0,0:0:0:0:
56,23,189132,6,0,P|130:14|177:45,1,119.999996337891,0|2,1:0|0:0,0:0:0:0:
198,125,189582,1,0,0:0:0:0:
104,105,189732,2,0,P|118:204|129:243,1,119.999996337891,8|2,0:0|0:0,0:0:0:0:
44,372,190332,6,0,P|91:339|163:337,1,119.999996337891,0|2,1:0|0:0,0:0:0:0:
242,366,190782,1,0,0:0:0:0:
296,287,190932,2,0,P|278:226|266:155,1,119.999996337891,12|2,0:0|0:0,0:0:0:0:
195,108,191382,1,0,0:0:0:0:
276,58,191532,6,0,P|284:142|248:188,1,119.999996337891,0|2,1:0|0:0,0:0:0:0:
176,202,191982,1,2,0:0:0:0:
195,108,192132,2,0,P|132:116|63:146,1,119.999996337891,12|2,0:0|0:0,0:0:0:0:
14,205,192582,1,0,0:0:0:0:
1,299,192732,6,0,P|70:284|104:233,1,119.999996337891,0|2,1:0|0:0,0:0:0:0:
188,289,193182,1,0,0:0:0:0:
188,289,193332,2,0,P|228:246|287:238,1,119.999996337891,8|2,0:0|0:0,0:0:0:0:
373,264,193782,1,0,0:0:0:0:
438,198,193932,6,0,P|445:138|454:121,1,59.9999981689454,0|0,1:0|1:2,0:0:0:0:
404,35,194232,2,0,P|373:78|358:89,1,59.9999981689454,0|0,1:0|1:0,0:0:0:0:
277,114,194532,2,0,P|265:86|256:57,2,59.9999981689454,8|0|2,1:2|1:0|1:2,0:0:0:0:
336,195,194982,1,0,1:0:0:0:
239,202,195132,6,0,P|226:163|284:113,1,119.999996337891,0|2,1:0|0:0,0:0:0:0:
336,195,195582,1,0,0:0:0:0:
284,283,195732,2,0,P|203:288|149:234,1,119.999996337891,12|2,0:0|0:0,0:0:0:0:
34,133,196332,6,0,P|7:178|-14:191,2,59.9999981689454,0|0|2,1:0|0:0|0:0,0:0:0:0:
70,44,196782,1,0,0:0:0:0:
149,85,196932,2,0,P|191:67|279:50,1,119.999996337891,12|0,0:0|0:0,0:0:0:0:
329,122,197382,1,0,0:0:0:0:
242,160,197532,6,0,P|233:106|273:42,1,119.999996337891,0|2,1:0|0:0,0:0:0:0:
349,11,197982,1,0,0:0:0:0:
424,67,198132,2,0,P|471:82|508:82,1,59.9999981689454,8|0,0:0|0:0,0:0:0:0:
433,168,198432,2,0,P|403:172|375:183,1,59.9999981689454,2|0,0:0|0:0,0:0:0:0:
308,250,198732,6,0,P|262:260|196:222,1,119.999996337891,0|2,1:0|0:0,0:0:0:0:
169,136,199182,1,0,0:0:0:0:
108,210,199332,2,0,P|90:275|85:341,1,119.999996337891,8|2,0:0|0:0,0:0:0:0:
28,164,199932,6,0,P|99:118|156:132,1,119.999996337891,0|2,1:0|0:0,0:0:0:0:
204,185,200382,1,0,0:0:0:0:
271,118,200532,2,0,P|253:53|248:-13,1,119.999996337891,12|2,0:0|0:0,0:0:0:0:
448,43,201132,6,0,P|371:81|334:52,1,119.999996337891,0|2,1:0|0:0,0:0:0:0:
271,118,201582,1,2,0:0:0:0:
185,79,201732,2,0,P|128:66|85:104,1,119.999996337891,12|2,0:0|0:0,0:0:0:0:
22,182,202182,1,0,0:0:0:0:
108,215,202332,6,0,P|131:307|136:353,1,125,0|2,1:0|0:0,0:0:0:0:
221,372,202782,1,0,0:0:0:0:
289,310,202932,2,0,P|266:218|261:172,1,125,8|2,0:0|0:0,0:0:0:0:
328,121,203382,1,0,0:0:0:0:
376,202,203532,6,0,P|290:208|245:164,1,125,0|0,1:0|1:0,0:0:0:0:
231,99,203982,1,0,1:0:0:0:
295,31,204132,1,8,0:0:0:0:
328,121,204282,1,12,1:2:0:0:
261,187,204432,2,0,P|184:227|169:243,1,62.5,12|4,0:0|0:3,0:0:0:0:
119,268,204732,6,0,P|110:245|105:224,1,44.999998626709,4|0,1:2|0:0,0:0:0:0:
28,184,205032,2,0,P|36:161|41:140,1,44.999998626709,2|0,0:0|0:0,0:0:0:0:
124,114,205332,2,0,P|140:88|139:19,1,89.9999972534181,0|2,1:0|0:0,0:0:0:0:
59,56,205782,1,0,0:0:0:0:
59,56,205932,5,0,1:2:0:0:
212,126,206232,2,0,P|258:115|301:89,2,89.9999972534181,2|0|2,0:0|1:0|0:0,0:0:0:0:
82,231,207132,6,0,P|62:259|52:270,1,44.999998626709,0|0,1:0|0:0,0:0:0:0:
132,309,207432,2,0,P|121:341|115:355,1,44.999998626709,2|0,0:0|0:0,0:0:0:0:
196,252,207732,2,0,P|254:221|313:231,1,89.9999972534181,0|2,1:0|0:0,0:0:0:0:
359,238,208182,1,0,0:0:0:0:
359,238,208332,5,0,1:0:0:0:
366,106,208632,2,0,P|374:46|399:-18,2,89.9999972534181,2|0|2,0:0|1:0|0:0,0:0:0:0:
237,18,209532,6,0,P|220:80|222:98,1,44.999998626709,0|0,1:0|0:0,0:0:0:0:
162,131,209832,2,0,P|145:69|147:51,1,44.999998626709,2|0,0:0|0:0,0:0:0:0:
85,31,210132,2,0,P|66:91|83:144,1,89.9999972534181,0|2,1:0|0:0,0:0:0:0:
100,192,210582,1,0,0:0:0:0:
49,258,210732,5,0,1:0:0:0:
157,342,211032,2,0,P|217:325|267:327,2,89.9999972534181,2|0|2,0:0|1:0|0:0,0:0:0:0:
227,180,211932,6,0,P|274:214|279:221,1,44.999998626709,0|0,1:0|0:0,0:0:0:0:
346,222,212232,2,0,P|398:208|411:197,1,44.999998626709,2|0,0:0|0:0,0:0:0:0:
350,140,212532,2,0,P|333:71|345:36,1,89.9999972534181,0|2,1:0|0:0,0:0:0:0:
424,86,212982,1,0,0:0:0:0:
424,86,213132,5,0,1:0:0:0:
512,201,213432,2,0,P|467:204|424:218,2,89.9999972534181,2|0|2,0:0|1:0|0:0,0:0:0:0:
256,192,214332,12,0,215532,0:0:0:0:
