osu file format v14

[General]
AudioFilename: audio.mp3
AudioLeadIn: 0
PreviewTime: 57582
Countdown: 0
SampleSet: Soft
StackLeniency: 0.7
Mode: 0
LetterboxInBreaks: 0
WidescreenStoryboard: 1

[Editor]
DistanceSpacing: 1.2
BeatDivisor: 4
GridSize: 4
TimelineZoom: 1.4

[Metadata]
Title:Dover Beach
TitleUnicode:Dover Beach
Artist:Baby Queen
ArtistUnicode:Baby Queen
Creator:Trust
Version:Fragmented's King & Queen
Source:Heartstopper
Tags:the yearbook arabella latham english pop netflix ost original soundtrack episode 1 meet gay transgender lgbt lgbtq queer alice oseman fragmented
BeatmapID:3729469
BeatmapSetID:1799228

[Difficulty]
HPDrainRate:6
CircleSize:4
OverallDifficulty:8.5
ApproachRate:9.2
SliderMultiplier:2
SliderTickRate:1

[Events]
//Background and Video events
0,0,"dvrbch.png",0,0
Video,-3456,"dover.m4v"
//Break Periods
//Storyboard Layer 0 (Background)
//Storyboard Layer 1 (Fail)
//Storyboard Layer 2 (Pass)
//Storyboard Layer 3 (Foreground)
//Storyboard Layer 4 (Overlay)
//Storyboard Sound Samples

[TimingPoints]
10332,600,4,2,0,40,1,0
17532,-1000,4,2,0,40,0,0
19332,-133.333333333333,4,2,0,40,0,0
19932,-100,4,2,0,40,0,0
38532,-100,4,2,0,50,0,0
39132,-90.9090909090909,4,2,0,55,0,0
56832,-90.9090909090909,4,2,0,60,0,0
58257,-90.9090909090909,4,2,0,5,0,0
58332,-66.6666666666667,4,2,0,75,0,1
67332,-66.6666666666667,4,2,0,75,0,0
67932,-66.6666666666667,4,2,0,75,0,1
77457,-66.6666666666667,4,2,0,5,0,1
77532,-100,4,2,0,60,0,0
84732,-1000,4,2,0,40,0,0
86382,-1000,4,2,0,5,0,0
86532,-133.333333333333,4,2,0,40,0,0
86982,-133.333333333333,4,2,0,5,0,0
87132,-100,4,2,0,60,0,0
96732,-90.9090909090909,4,2,0,60,0,0
102957,-90.9090909090909,4,2,0,5,0,0
103032,-76.9230769230769,4,2,0,60,0,0
103257,-76.9230769230769,4,2,0,5,0,0
103332,-66.6666666666667,4,2,0,60,0,0
103557,-66.6666666666667,4,2,0,5,0,0
103632,-58.8235294117647,4,2,0,60,0,0
103857,-58.8235294117647,4,2,0,5,0,0
103932,-200,4,2,0,60,0,0
104532,-200,4,2,0,5,0,0
105732,-83.3333333333333,4,2,0,60,0,0
106332,-66.6666666666667,4,2,0,75,0,1
115332,-66.6666666666667,4,2,0,75,0,0
115932,-66.6666666666667,4,2,0,75,0,1
125532,-200,4,2,0,80,0,0
126132,-50,4,2,0,80,0,1
126732,-200,4,2,0,80,0,0
127332,-50,4,2,0,80,0,1
127932,-66.6666666666667,4,2,0,80,0,1
130332,-200,4,2,0,80,0,0
130932,-50,4,2,0,80,0,1
131532,-200,4,2,0,80,0,0
132132,-50,4,2,0,80,0,1
132732,-66.6666666666667,4,2,0,80,0,1
135132,-200,4,2,0,80,0,0
135732,-50,4,2,0,80,0,1
136332,-200,4,2,0,80,0,0
136932,-50,4,2,0,80,0,1
137532,-66.6666666666667,4,2,0,80,0,1
139932,-200,4,2,0,80,0,0
140532,-50,4,2,0,80,0,1
141132,-200,4,2,0,80,0,0
141732,-50,4,2,0,80,0,1
142332,-66.6666666666667,4,2,0,80,0,1
144732,-125,4,2,0,45,0,0
146382,-125,4,2,0,5,0,0
146532,-125,4,2,0,45,0,0
154332,-111.111111111111,4,2,0,50,0,0
160332,-76.9230769230769,4,2,0,50,0,0
160557,-76.9230769230769,4,2,0,5,0,0
160632,-66.6666666666667,4,2,0,50,0,0
160857,-66.6666666666667,4,2,0,5,0,0
160932,-58.8235294117647,4,2,0,50,0,0
161157,-58.8235294117647,4,2,0,5,0,0
161232,-52.6315789473684,4,2,0,50,0,0
161457,-52.6315789473684,4,2,0,5,0,0
161532,-200,4,2,0,50,0,0
162132,-200,4,2,0,5,0,0
164277,600,4,2,0,40,1,0
164277,-66.6666666666667,4,2,0,40,0,0
164457,-66.6666666666667,4,2,0,5,0,0
164532,-200,4,2,0,40,0,0
165132,600,4,2,0,50,1,0
165132,-200,4,2,0,50,0,0
166332,600,4,2,0,80,1,0
166332,-166.666666666667,4,2,0,80,0,0
166932,-47.6190476190476,4,2,0,80,0,1
167532,-166.666666666667,4,2,0,80,0,0
168132,-47.6190476190476,4,2,0,80,0,1
168732,-62.5,4,2,0,80,0,1
171132,-166.666666666667,4,2,0,80,0,0
171732,-47.6190476190476,4,2,0,80,0,1
172332,-166.666666666667,4,2,0,80,0,0
172932,-47.6190476190476,4,2,0,80,0,1
173532,-62.5,4,2,0,80,0,1
175932,-166.666666666667,4,2,0,80,0,0
176532,-47.6190476190476,4,2,0,80,0,1
177132,-166.666666666667,4,2,0,80,0,0
177732,-47.6190476190476,4,2,0,80,0,1
178332,-62.5,4,2,0,80,0,1
180732,-166.666666666667,4,2,0,80,0,0
181332,-47.6190476190476,4,2,0,80,0,1
181932,-166.666666666667,4,2,0,80,0,0
182532,-47.6190476190476,4,2,0,80,0,1
183132,-62.5,4,2,0,80,0,1
185382,-62.5,4,2,0,70,0,1
185532,-62.5,4,2,0,70,0,1
185982,-62.5,4,2,0,70,0,0
186132,-47.6190476190476,4,2,0,80,0,1
186732,-62.5,4,2,0,80,0,1
187182,-62.5,4,2,0,80,0,0
187332,-47.6190476190476,4,2,0,80,0,1
187932,-62.5,4,2,0,80,0,1
190782,-62.5,4,2,0,80,0,0
190932,-47.6190476190476,4,2,0,80,0,1
191532,-62.5,4,2,0,80,0,1
191982,-62.5,4,2,0,80,0,0
192132,-47.6190476190476,4,2,0,80,0,1
192732,-62.5,4,2,0,80,0,1
195582,-62.5,4,2,0,80,0,0
195732,-47.6190476190476,4,2,0,80,0,1
196182,-47.6190476190476,4,2,0,80,0,1
196332,-62.5,4,2,0,80,0,1
196782,-62.5,4,2,0,80,0,0
196932,-47.6190476190476,4,2,0,80,0,1
197532,-62.5,4,2,0,80,0,1
200382,-62.5,4,2,0,80,0,0
200532,-47.6190476190476,4,2,0,80,0,1
201132,-62.5,4,2,0,80,0,1
201582,-62.5,4,2,0,80,0,0
201732,-47.6190476190476,4,2,0,80,0,1
202332,-62.5,4,2,0,85,0,1
204732,-100,4,2,0,60,0,0
214332,-100,4,2,0,10,0,0
214632,-100,4,2,0,8,0,0
214932,-100,4,2,0,6,0,0
215532,-100,4,2,0,5,0,0

[Colours]
Combo1 : 247,251,189
Combo2 : 252,141,109
Combo3 : 237,197,230
Combo4 : 176,230,244

[HitObjects]
384,112,10332,5,2,1:2:0:0:
384,112,10482,1,0,0:0:0:0:
328,180,10632,2,0,L|264:176,1,50,0|0,0:0|0:0,0:0:0:0:
112,100,10932,2,0,P|168:64|216:84,1,100,2|0,0:0|0:0,0:0:0:0:
180,152,11382,1,0,0:0:0:0:
180,152,11532,2,0,L|168:240,1,50,2|0,0:0|0:0,0:0:0:0:
244,320,11832,1,0,0:0:0:0:
256,336,12132,1,0,0:0:0:0:
268,352,12432,1,2,0:0:0:0:
20,164,12732,5,2,1:2:0:0:
20,164,12882,1,0,0:0:0:0:
64,240,13032,2,0,L|132:244,1,50,0|0,0:0|0:0,0:0:0:0:
272,112,13332,2,0,P|224:96|168:116,1,100,2|0,0:0|0:0,0:0:0:0:
232,232,13782,1,0,0:0:0:0:
232,232,13932,2,0,P|232:196|224:172,1,50,2|0,0:0|0:0,0:0:0:0:
112,56,14232,1,0,0:0:0:0:
80,72,14532,1,0,0:0:0:0:
64,104,14832,1,2,0:0:0:0:
364,112,15132,5,2,1:2:0:0:
364,112,15282,1,0,0:0:0:0:
420,184,15432,2,0,L|416:240,1,50,0|0,0:0|0:0,0:0:0:0:
280,124,15732,2,0,P|280:92|328:36,1,100,2|0,0:0|0:0,0:0:0:0:
336,196,16182,1,0,0:0:0:0:
336,196,16332,2,0,P|304:216|272:220,1,50,2|0,0:0|0:0,0:0:0:0:
132,192,16632,1,0,0:0:0:0:
88,188,16932,1,0,0:0:0:0:
48,184,17232,1,6,0:0:0:0:
260,28,17532,6,0,L|264:84,1,55,0|0,0:0|0:0,0:0:0:0:
228,160,19332,6,0,B|204:184|172:164|180:160|148:144|108:176,1,112.500004291535,0|0,0:0|0:0,0:0:0:0:
152,256,19932,6,0,L|160:332,1,50,0|0,1:0|0:0,0:0:0:0:
224,360,20232,1,2,0:0:0:0:
332,132,20532,2,0,P|324:184|320:248,1,100,8|2,0:0|0:0,0:0:0:0:
388,296,20982,1,0,0:0:0:0:
444,132,21132,2,0,P|452:184|456:248,1,100,0|0,1:0|0:0,0:0:0:0:
200,284,21732,2,0,P|148:272|84:264,1,100,8|0,0:0|0:0,0:0:0:0:
16,52,22332,6,0,P|48:44|88:32,1,50,0|0,1:0|0:0,0:0:0:0:
144,68,22632,1,2,0:0:0:0:
372,32,22932,2,0,P|392:80|376:144,1,100,8|2,0:0|0:0,0:0:0:0:
308,176,23382,1,0,0:0:0:0:
220,144,23532,2,0,P|213:193|233:238,1,100,0|0,1:0|0:0,0:0:0:0:
452,336,24132,2,0,P|458:286|438:241,1,100,8|0,0:0|0:0,0:0:0:0:
248,340,24732,6,0,P|208:348|172:344,1,50,0|0,1:0|0:0,0:0:0:0:
120,308,25032,1,2,0:0:0:0:
264,168,25332,2,0,L|384:160,1,100,8|2,0:0|0:0,0:0:0:0:
416,80,25782,1,0,0:0:0:0:
268,72,25932,2,0,L|148:64,1,100,0|0,1:0|0:0,0:0:0:0:
369,255,26532,2,0,P|381:207|349:147,1,100,8|2,0:0|0:0,0:0:0:0:
268,284,26982,1,0,0:0:0:0:
268,284,27132,6,0,L|280:368,1,50,0|0,1:0|0:0,0:0:0:0:
184,216,27432,2,0,L|172:132,1,50,2|0,0:0|0:0,0:0:0:0:
128,312,27732,1,8,0:0:0:0:
184,144,28032,1,0,0:0:0:0:
8,180,28332,2,0,P|-4:240|-12:304,1,100,0|2,1:0|0:0,0:0:0:0:
72,60,28932,1,8,0:0:0:0:
192,232,29232,1,2,0:0:0:0:
412,72,29532,6,0,P|372:68|336:64,1,50,0|0,1:0|0:0,0:0:0:0:
288,112,29832,1,2,0:0:0:0:
416,300,30132,1,8,0:0:0:0:
416,300,30282,2,0,B|488:288|488:288|500:264,1,100,2|0,0:0|0:0,0:0:0:0:
364,212,30732,2,0,B|316:196|272:244|296:260|256:312|180:284,1,200,0|8,1:0|0:0,0:0:0:0:
160,96,31632,1,2,0:0:0:0:
16,208,31932,6,0,P|12:240|8:276,1,50,0|0,1:0|0:0,0:0:0:0:
68,324,32232,1,2,0:0:0:0:
172,184,32532,1,8,0:0:0:0:
172,184,32682,2,0,P|168:124|160:64,1,100,2|0,0:0|0:0,0:0:0:0:
108,232,33132,2,0,P|152:268|216:256,1,100,0|2,1:0|0:0,0:0:0:0:
348,128,33732,1,8,0:0:0:0:
348,128,33882,2,0,P|396:130|433:163,1,100,2|0,0:0|0:0,0:0:0:0:
464,252,34332,5,0,1:0:0:0:
280,352,34632,2,0,P|312:348|344:344,1,50,2|0,0:0|0:0,0:0:0:0:
296,264,34932,2,0,P|248:264|184:260,1,100,8|0,0:0|0:0,0:0:0:0:
324,68,35532,2,0,B|336:132|336:132|372:172|372:172|388:256,1,200,0|8,1:0|0:0,0:0:0:0:
264,344,36432,1,2,0:0:0:0:
160,176,36732,6,0,P|120:184|100:192,1,50,0|0,1:0|0:0,0:0:0:0:
52,252,37032,1,2,0:0:0:0:
240,224,37332,1,8,0:0:0:0:
240,224,37482,2,0,P|252:168|220:104,1,100,2|0,0:0|0:0,0:0:0:0:
168,16,37932,2,0,B|180:48|160:76|160:76|208:8|312:48,1,200,0|8,1:0|0:0,0:0:0:0:
452,336,39132,6,0,P|430:343|372:344,1,55.0000016784668,0|0,1:0|0:0,0:0:0:0:
312,304,39432,1,2,0:0:0:0:
432,132,39732,2,0,L|420:256,1,110.000003356934,8|2,0:0|0:0,0:0:0:0:
348,152,40182,1,0,0:0:0:0:
348,152,40332,2,0,L|340:220,1,55.0000016784668,0|2,1:0|0:0,0:0:0:0:
276,296,40632,2,0,L|284:364,1,55.0000016784668
192,232,40932,2,0,P|200:170|212:108,1,110.000003356934,8|2,0:0|0:0,0:0:0:0:
8,24,41532,6,0,P|0:64|8:104,1,55.0000016784668,0|0,1:0|0:0,0:0:0:0:
32,164,41832,1,2,0:0:0:0:
192,48,42132,2,0,P|236:36|300:72,1,110.000003356934,8|2,0:0|0:0,0:0:0:0:
344,144,42582,1,0,0:0:0:0:
268,204,42732,2,0,P|236:208|196:212,1,55.0000016784668,0|0,1:0|0:0,0:0:0:0:
372,268,43032,2,0,P|404:272|444:276,1,55.0000016784668,2|0,0:0|0:0,0:0:0:0:
252,332,43332,2,0,P|156:320|116:300,1,110.000003356934,8|2,0:0|0:0,0:0:0:0:
232,128,43932,6,0,P|284:120|312:108,1,55.0000016784668,0|0,1:0|0:0,0:0:0:0:
356,52,44232,1,2,0:0:0:0:
120,72,44532,2,0,P|136:136|144:196,1,110.000003356934,8|2,0:0|0:0,0:0:0:0:
104,272,44982,1,0,0:0:0:0:
104,272,45132,2,0,P|156:276|192:280,1,55.0000016784668,0|0,1:0|0:0,0:0:0:0:
256,216,45432,2,0,P|283:213|310:211,1,55.0000016784668,2|0,0:0|0:0,0:0:0:0:
396,312,45732,2,0,P|404:257|418:204,1,110.000003356934,8|2,0:0|0:0,0:0:0:0:
504,16,46332,6,0,P|464:24|432:28,1,55.0000016784668,0|0,1:0|0:0,0:0:0:0:
356,52,46632,1,2,0:0:0:0:
504,184,46932,2,0,P|432:172|352:172,1,110.000003356934,8|2,0:0|0:0,0:0:0:0:
316,216,47382,1,0,0:0:0:0:
264,136,47532,2,0,P|260:88|268:48,1,55.0000016784668,0|0,1:0|0:0,0:0:0:0:
352,32,47832,2,0,P|356:80|348:120,1,55.0000016784668,2|0,0:0|0:0,0:0:0:0:
316,216,48132,2,0,P|268:212|160:204,1,110.000003356934,8|2,0:0|0:0,0:0:0:0:
120,32,48732,6,0,P|124:64|128:104,1,55.0000016784668,0|0,1:0|0:0,0:0:0:0:
76,164,49032,1,2,0:0:0:0:
256,72,49332,2,0,P|268:160|276:224,1,110.000003356934,8|2,0:0|0:0,0:0:0:0:
224,272,49782,1,0,0:0:0:0:
224,272,49932,2,0,P|304:216|320:328,1,220.000006713867,0|8,1:0|0:0,0:0:0:0:
156,360,50832,1,2,0:0:0:0:
80,184,51132,6,0,P|76:144|72:96,1,55.0000016784668,0|0,1:0|0:0,0:0:0:0:
0,80,51432,1,2,0:0:0:0:
200,32,51732,2,0,P|192:76|184:152,1,110.000003356934,8|2,0:0|0:0,0:0:0:0:
392,140,52332,1,0,1:0:0:0:
392,140,52482,2,0,P|386:85|376:31,1,110.000003356934,0|0,0:0|0:0,0:0:0:0:
288,72,52932,1,8,0:0:0:0:
480,172,53232,1,2,0:0:0:0:
320,288,53532,6,0,P|324:240|328:216,1,55.0000016784668,0|0,1:0|0:0,0:0:0:0:
376,152,53832,1,2,0:0:0:0:
512,300,54132,2,0,P|456:308|392:336,1,110.000003356934,8|2,0:0|0:0,0:0:0:0:
376,144,54732,2,0,P|432:136|496:108,1,110.000003356934,0|2,1:0|0:0,0:0:0:0:
252,36,55332,1,8,0:0:0:0:
252,36,55482,2,0,P|244:92|232:164,1,110.000003356934,2|0,0:0|0:0,0:0:0:0:
272,248,55932,6,0,B|288:264|288:264|172:248,1,110.000003356934,0|2,1:0|0:0,0:0:0:0:
104,280,56382,1,0,0:0:0:0:
103,282,57732,6,0,P|104:356|56:300,1,192.500005874634,8|0,0:0|0:0,0:0:0:0:
72,256,58332,6,0,P|76:176|84:72,1,150.000005722046,4|2,1:2|0:0,0:0:0:0:
176,20,58782,1,0,0:0:0:0:
252,172,58932,2,0,L|272:272,1,75.0000028610231,8|0,0:0|0:0,0:0:0:0:
384,96,59232,2,0,L|396:16,1,75.0000028610231,2|0,0:0|0:0,0:0:0:0:
456,260,59532,2,0,P|400:272|368:256,1,75.0000028610231,0|0,1:0|0:0,0:0:0:0:
320,140,59832,1,2,0:0:0:0:
416,192,59982,1,0,0:0:0:0:
274,261,60132,2,0,L|174:257,1,75.0000028610231,8|0,0:0|0:0,0:0:0:0:
120,136,60432,1,2,0:0:0:0:
120,136,60582,1,0,0:0:0:0:
0,324,60732,6,0,B|40:348|40:348|148:336,1,150.000005722046,0|2,1:0|0:0,0:0:0:0:
208,240,61182,1,0,0:0:0:0:
56,184,61332,2,0,P|52:240|52:276,1,75.0000028610231,8|0,0:0|0:0,0:0:0:0:
176,128,61632,2,0,P|174:90|171:53,1,75.0000028610231,2|0,0:0|0:0,0:0:0:0:
292,208,61932,1,0,1:0:0:0:
292,208,62082,1,0,0:0:0:0:
344,48,62232,1,2,0:0:0:0:
184,72,62382,1,0,0:0:0:0:
384,172,62532,2,0,P|444:192|512:144,1,150.000005722046,8|2,0:0|0:0,0:0:0:0:
432,80,62982,1,0,0:0:0:0:
288,204,63132,6,0,B|260:216|224:200|224:200|168:216|160:276,1,150.000005722046,0|2,1:0|0:0,0:0:0:0:
244,328,63582,1,0,0:0:0:0:
388,246,63732,2,0,P|384:178|384:138,1,75.0000028610231,8|2,0:0|0:0,0:0:0:0:
272,44,64032,2,0,P|270:81|267:118,1,75.0000028610231,0|0,0:0|0:0,0:0:0:0:
92,196,64332,2,0,P|152:180|228:256,1,150.000005722046,0|2,1:0|0:0,0:0:0:0:
136,296,64782,1,0,0:0:0:0:
16,156,64932,1,8,0:0:0:0:
16,156,65082,2,0,L|20:64,1,75.0000028610231,2|0,0:0|0:0,0:0:0:0:
120,16,65382,1,0,0:0:0:0:
232,204,65532,6,0,P|328:192|420:180,1,150.000005722046,0|2,1:0|0:0,0:0:0:0:
476,208,65982,1,0,0:0:0:0:
372,360,66132,2,0,L|356:256,1,75.0000028610231,8|0,0:0|0:0,0:0:0:0:
396,148,66432,2,0,L|384:73,1,75.0000028610231,2|0,0:0|0:0,0:0:0:0:
200,24,66732,2,0,P|192:100|184:192,1,150.000005722046,0|2,1:0|0:0,0:0:0:0:
280,336,67182,1,0,0:0:0:0:
276,120,67332,2,0,P|272:168|268:224,1,75.0000028610231,8|0,0:0|0:0,0:0:0:0:
152,328,67632,2,0,P|148:280|144:224,1,75.0000028610231,2|0,0:0|0:0,0:0:0:0:
0,60,67932,6,0,P|64:28|144:64,1,150.000005722046,4|2,1:2|0:0,0:0:0:0:
204,132,68382,1,0,0:0:0:0:
60,208,68532,2,0,P|56:160|80:120,1,75.0000028610231,8|0,0:0|0:0,0:0:0:0:
216,224,68832,2,0,P|220:272|196:312,1,75.0000028610231,2|0,0:0|0:0,0:0:0:0:
224,80,69132,2,0,P|280:76|312:76,1,75.0000028610231,0|0,1:0|0:0,0:0:0:0:
416,148,69432,1,2,0:0:0:0:
328,208,69582,1,0,0:0:0:0:
464,60,69732,2,0,P|460:128|456:212,1,150.000005722046,8|2,0:0|0:0,0:0:0:0:
484,320,70182,1,0,0:0:0:0:
316,284,70332,6,0,B|272:264|272:264|160:288,1,150.000005722046,0|2,1:0|0:0,0:0:0:0:
96,360,70782,1,0,0:0:0:0:
0,216,70932,2,0,P|56:212|100:208,1,75.0000028610231,8|0,0:0|0:0,0:0:0:0:
232,112,71232,2,0,P|176:108|132:104,1,75.0000028610231,2|0,0:0|0:0,0:0:0:0:
44,20,71532,1,0,1:0:0:0:
44,20,71682,1,0,0:0:0:0:
80,188,71832,1,2,0:0:0:0:
156,16,71982,1,0,0:0:0:0:
192,200,72132,2,0,B|212:212|212:244|212:244|160:288|200:368,1,150.000005722046,8|2,0:0|0:0,0:0:0:0:
296,312,72582,1,0,0:0:0:0:
240,104,72732,6,0,P|176:88|96:148,1,150.000005722046,0|2,1:0|0:0,0:0:0:0:
192,200,73182,1,0,0:0:0:0:
336,120,73332,2,0,P|332:68|324:12,1,75.0000028610231,8|0,0:0|0:0,0:0:0:0:
284,232,73632,2,0,P|288:284|296:340,1,75.0000028610231,2|0,0:0|0:0,0:0:0:0:
508,172,73932,2,0,B|472:156|440:180|460:188|412:224|368:208,1,150.000005722046,0|2,1:0|0:0,0:0:0:0:
324,124,74382,1,0,0:0:0:0:
204,240,74532,2,0,P|240:248|288:236,1,75.0000028610231,8|2,0:0|0:0,0:0:0:0:
240,148,74832,1,0,0:0:0:0:
240,148,74982,1,2,0:0:0:0:
56,224,75132,6,0,B|24:260|24:260|48:372,1,150.000005722046,0|2,1:0|0:0,0:0:0:0:
136,312,75582,1,0,0:0:0:0:
96,140,75732,2,0,P|56:128|4:148,1,75.0000028610231,8|2,0:0|0:0,0:0:0:0:
208,248,76032,2,0,P|244:254|279:242,1,75.0000028610231,0|0,0:0|0:0,0:0:0:0:
236,20,76332,2,0,P|224:104|244:184,1,150.000005722046,0|2,1:0|0:0,0:0:0:0:
392,204,76782,1,0,1:0:0:0:
352,96,76932,1,8,0:0:0:0:
288,264,77082,1,0,1:0:0:0:
460,256,77232,2,0,P|476:208|436:140,1,112.500004291535,0|0,1:2|0:0,0:0:0:0:
432,132,77532,5,0,1:0:0:0:
432,132,77682,1,0,0:0:0:0:
460,40,77832,2,0,L|509:36,1,50
352,96,78132,2,0,P|300:100|252:64,1,100,2|0,0:0|0:0,0:0:0:0:
168,120,78582,1,0,0:0:0:0:
168,120,78732,2,0,P|156:149|172:204,1,50,2|0,0:0|0:0,0:0:0:0:
304,248,79032,1,0,0:0:0:0:
328,240,79332,1,0,0:0:0:0:
356,232,79632,1,2,0:0:0:0:
320,20,79932,5,0,1:0:0:0:
320,20,80082,1,0,0:0:0:0:
260,96,80232,2,0,L|256:148,1,50
396,236,80532,2,0,P|412:188|392:132,1,100,2|0,0:0|0:0,0:0:0:0:
308,260,80982,1,0,0:0:0:0:
308,260,81132,2,0,L|304:320,1,50,2|0,0:0|0:0,0:0:0:0:
456,352,81432,1,0,0:0:0:0:
472,316,81732,1,0,0:0:0:0:
468,272,82032,1,2,0:0:0:0:
364,112,82332,5,0,1:0:0:0:
364,112,82482,1,0,0:0:0:0:
304,184,82632,2,0,P|280:188|252:184,1,50,0|0,0:0|0:0,0:0:0:0:
240,32,82932,2,0,P|288:20|356:52,1,100,2|0,0:0|0:0,0:0:0:0:
204,116,83382,1,0,0:0:0:0:
204,116,83532,2,0,P|176:120|136:112,1,50,2|0,0:0|0:0,0:0:0:0:
20,36,83832,1,0,0:0:0:0:
12,80,84132,1,0,0:0:0:0:
4,124,84432,1,2,0:0:0:0:
200,300,84732,6,0,L|196:244,1,55,0|0,0:0|0:0,0:0:0:0:
168,160,86532,6,0,B|192:136|224:156|216:160|248:176|288:144,1,112.500004291535,0|0,0:0|0:0,0:0:0:0:
344,88,87132,6,0,L|332:24,1,50,0|0,1:0|0:0,0:0:0:0:
248,8,87432,1,2,0:0:0:0:
372,184,87732,2,0,P|408:168|440:96,1,100,8|2,0:0|0:0,0:0:0:0:
344,88,88182,1,0,0:0:0:0:
274,153,88332,2,0,P|278:209|286:269,1,100,0|0,1:0|0:0,0:0:0:0:
80,116,88932,2,0,P|84:60|92:0,1,100,8|0,0:0|0:0,0:0:0:0:
192,272,89532,6,0,P|168:268|128:260,1,50,0|0,1:0|0:0,0:0:0:0:
56,288,89832,1,2,0:0:0:0:
168,72,90132,2,0,P|216:60|288:88,1,100,8|2,0:0|0:0,0:0:0:0:
324,144,90582,1,0,0:0:0:0:
388,216,90732,2,0,P|436:227|484:215,1,100,0|0,1:0|0:0,0:0:0:0:
244,44,91332,2,0,P|248:120|252:176,1,100,8|2,0:0|0:0,0:0:0:0:
132,320,91932,6,0,P|92:328|56:324,1,50,0|0,1:0|0:0,0:0:0:0:
20,264,92232,1,2,0:0:0:0:
236,224,92532,2,0,P|290:232|364:256,1,100,8|2,0:0|0:0,0:0:0:0:
428,284,92982,1,0,0:0:0:0:
408,184,93132,2,0,P|388:132|371:57,1,100,0|0,1:0|0:0,0:0:0:0:
228,244,93732,2,0,P|215:292|197:338,1,100,8|2,0:0|0:0,0:0:0:0:
56,164,94332,5,0,1:0:0:0:
56,164,94482,2,0,P|120:172|160:132,1,100,2|0,0:0|0:0,0:0:0:0:
176,56,94932,1,8,0:0:0:0:
228,244,95232,1,0,0:0:0:0:
312,40,95532,2,0,L|384:48,1,50,0|0,1:0|0:0,0:0:0:0:
456,124,95832,2,0,L|384:132,1,50,0|0,1:0|0:0,0:0:0:0:
324,192,96132,1,8,0:0:0:0:
352,204,96282,1,2,0:0:0:0:
416,276,96432,1,8,0:3:0:0:
388,288,96582,1,8,0:3:0:0:
312,348,96732,6,0,P|272:344|236:340,1,55.0000016784668,0|0,1:0|0:0,0:0:0:0:
208,252,97032,2,0,P|248:248|284:244,1,55.0000016784668,2|0,0:0|0:0,0:0:0:0:
160,336,97332,1,8,0:0:0:0:
224,104,97632,2,0,P|264:100|300:96,1,55.0000016784668,0|0,0:0|0:0,0:0:0:0:
144,164,97932,2,0,P|136:64|192:16,1,165.000005035401,0|0,1:0|0:0,0:0:0:0:
224,104,98532,1,8,0:0:0:0:
168,296,98832,1,2,0:0:0:0:
16,168,99132,6,0,P|20:136|24:92,1,55.0000016784668,0|0,1:0|0:0,0:0:0:0:
84,40,99432,1,2,0:0:0:0:
228,220,99732,2,0,P|280:228|344:188,1,110.000003356934,8|2,0:0|0:0,0:0:0:0:
168,44,100332,1,0,1:0:0:0:
168,44,100482,2,0,P|176:76|184:120,1,55.0000016784668,2|0,0:0|0:0,0:0:0:0:
116,176,100782,1,0,0:0:0:0:
116,176,100932,2,0,P|108:232|104:304,1,110.000003356934,8|2,0:0|0:0,0:0:0:0:
180,97,101532,5,0,1:0:0:0:
340,240,101832,2,0,P|344:208|348:176,1,55.0000016784668,2|0,0:0|0:0,0:0:0:0:
384,320,102132,2,0,P|352:332|272:296,1,110.000003356934,8|2,0:0|0:0,0:0:0:0:
175,93,102732,6,0,L|264:84,1,82.5000025177003,0|0,1:0|0:0,0:0:0:0:
276,84,103032,6,0,L|232:184,1,97.4999955368044,0|0,1:0|0:0,0:0:0:0:
224,204,103332,6,0,L|364:188,1,112.500004291535,0|0,1:0|0:0,0:0:0:0:
380,188,103632,6,0,L|324:324,1,127.50000243187,0|0,1:0|0:0,0:0:0:0:
312,360,103932,6,0,L|416:348,1,100,0|0,1:0|0:0,0:0:0:0:
456,72,105732,6,0,P|440:32|440:64,1,119.999996337891,8|2,0:0|0:0,0:0:0:0:
400,144,106182,1,0,0:0:0:0:
416,160,106332,6,0,B|448:204|448:204|425:309,1,150.000005722046,4|2,1:2|0:0,0:0:0:0:
344,356,106782,1,0,0:0:0:0:
168,252,106932,2,0,P|216:240|264:236,1,75.0000028610231,8|0,0:0|0:0,0:0:0:0:
324,120,107232,2,0,P|286:114|250:104,1,75.0000028610231,2|0,0:0|0:0,0:0:0:0:
80,228,107532,2,0,P|72:272|88:304,1,75.0000028610231,0|0,1:0|0:0,0:0:0:0:
216,332,107832,1,2,0:0:0:0:
184,192,107982,1,0,0:0:0:0:
228,348,108132,2,0,P|276:340|324:328,1,75.0000028610231,8|0,0:0|0:0,0:0:0:0:
380,200,108432,1,2,0:0:0:0:
380,200,108582,1,0,0:0:0:0:
488,364,108732,6,0,P|472:292|468:180,1,150.000005722046,0|2,1:0|0:0,0:0:0:0:
496,108,109182,1,0,0:0:0:0:
376,276,109332,2,0,P|328:264|292:260,1,75.0000028610231,8|0,0:0|0:0,0:0:0:0:
228,148,109632,2,0,P|190:153|154:163,1,75.0000028610231,2|0,0:0|0:0,0:0:0:0:
144,296,109932,1,0,1:0:0:0:
144,296,110082,1,0,0:0:0:0:
308,240,110232,1,2,0:0:0:0:
154,163,110382,1,0,0:0:0:0:
332,96,110532,2,0,P|404:108|488:120,1,150.000005722046,8|2,0:0|0:0,0:0:0:0:
424,28,110982,1,0,0:0:0:0:
256,132,111132,6,0,B|252:172|224:200|224:200|228:240|276:272,1,150.000005722046,0|0,1:0|0:0,0:0:0:0:
336,328,111582,1,0,0:0:0:0:
508,232,111732,2,0,P|468:236|416:244,1,75.0000028610231,8|0,0:0|0:0,0:0:0:0:
256,132,112032,2,0,P|293:137|330:140,1,75.0000028610231,2|0,0:0|0:0,0:0:0:0:
488,12,112332,2,0,B|460:4|452:52|452:52|436:168,1,150.000005722046,0|2,1:0|0:0,0:0:0:0:
433,240,112782,1,0,0:0:0:0:
256,132,112932,1,8,0:0:0:0:
256,132,113082,2,0,P|260:172|268:232,1,75.0000028610231,0|2,0:0|0:0,0:0:0:0:
340,288,113382,1,0,0:0:0:0:
328,72,113532,6,0,P|284:40|180:72,1,150.000005722046,0|2,1:0|0:0,0:0:0:0:
136,144,113982,1,0,0:0:0:0:
288,216,114132,2,0,P|348:208|388:204,1,75.0000028610231,8|0,0:0|0:0,0:0:0:0:
212,312,114432,2,0,P|152:304|112:300,1,75.0000028610231,2|0,0:0|0:0,0:0:0:0:
24,132,114732,2,0,P|96:156|168:104,1,150.000005722046,0|2,1:0|0:0,0:0:0:0:
84,44,115182,1,8,0:0:0:0:
244,128,115332,1,0,1:0:0:0:
244,128,115482,1,8,0:0:0:0:
112,232,115632,1,0,1:0:0:0:
112,232,115782,1,8,0:0:0:0:
352,300,115932,6,0,B|368:308|380:328|380:328|408:264|368:192,1,150.000005722046,4|2,1:2|0:0,0:0:0:0:
328,128,116382,1,0,0:0:0:0:
204,256,116532,2,0,P|268:248|316:232,1,75.0000028610231,8|0,0:0|0:0,0:0:0:0:
484,148,116832,2,0,P|420:140|372:124,1,75.0000028610231,2|0,0:0|0:0,0:0:0:0:
228,24,117132,2,0,P|240:64|252:112,1,75.0000028610231,0|0,1:0|0:0,0:0:0:0:
204,256,117432,1,2,0:0:0:0:
136,132,117582,1,0,0:0:0:0:
308,192,117732,2,0,P|296:260|284:340,1,150.000005722046,8|2,0:0|0:0,0:0:0:0:
180,364,118182,1,0,0:0:0:0:
56,232,118332,6,0,B|32:184|32:184|88:44,1,150.000005722046,0|2,1:0|0:0,0:0:0:0:
152,32,118782,1,0,0:0:0:0:
272,168,118932,2,0,P|324:176|376:168,1,75.0000028610231,8|0,0:0|0:0,0:0:0:0:
424,52,119232,2,0,P|372:44|320:52,1,75.0000028610231,2|0,0:0|0:0,0:0:0:0:
216,100,119532,1,0,1:0:0:0:
216,100,119682,1,0,0:0:0:0:
372,208,119832,1,2,0:0:0:0:
328,24,119982,1,0,0:0:0:0:
252,184,120132,2,0,P|272:260|288:344,1,150.000005722046,8|2,0:0|0:0,0:0:0:0:
388,360,120582,1,0,0:0:0:0:
484,216,120732,6,0,B|464:208|448:212|448:212|488:172|496:96,1,150.000005722046,0|2,1:0|0:0,0:0:0:0:
464,16,121182,1,0,0:0:0:0:
320,128,121332,2,0,P|336:184|336:224,1,75.0000028610231,8|0,0:0|0:0,0:0:0:0:
452,316,121632,2,0,P|395:301|360:281,1,75.0000028610231,2|0,0:0|0:0,0:0:0:0:
152,336,121932,2,0,B|180:300|216:304|220:320|253:320|284:286,1,150.000005722046,0|2,1:0|0:0,0:0:0:0:
337,200,122382,1,0,0:0:0:0:
148,128,122532,2,0,P|164:156|176:216,1,75.0000028610231,8|2,0:0|0:0,0:0:0:0:
68,208,122832,1,0,0:0:0:0:
68,208,122982,1,2,0:0:0:0:
216,40,123132,6,0,B|264:24|264:24|384:48,1,150.000005722046,0|2,1:0|0:0,0:0:0:0:
424,128,123582,1,0,0:0:0:0:
288,240,123732,2,0,P|284:284|284:328,1,75.0000028610231,8|0,0:0|0:0,0:0:0:0:
428,202,124032,2,0,P|424:158|424:114,1,75.0000028610231,0|0,1:0|0:0,0:0:0:0:
216,40,124332,5,0,1:0:0:0:
216,40,124482,1,0,1:2:0:0:
316,128,124632,1,0,1:0:0:0:
316,128,124782,1,0,1:0:0:0:
192,264,124932,5,8,0:0:0:0:
342,127,125082,1,0,1:0:0:0:
140,148,125232,1,0,1:0:0:0:
316,252,125382,1,0,1:0:0:0:
240,56,125532,6,0,L|232:96,1,25,0|0,1:0|0:0,0:0:0:0:
140,148,125832,2,0,L|148:188,1,25,2|0,0:0|0:0,0:0:0:0:
92,340,126132,6,0,B|236:324|236:324|244:328|244:328|396:308,1,300,12|0,0:0|0:0,0:0:0:0:
360,124,126732,6,0,P|352:148|360:160,1,25,0|0,1:0|0:0,0:0:0:0:
416,228,127032,2,0,P|424:204|416:192,1,25,2|0,0:0|0:0,0:0:0:0:
240,204,127332,6,0,P|164:260|216:148,1,300,12|0,0:0|0:0,0:0:0:0:
344,228,127932,6,0,P|348:268|356:324,1,75.0000028610231,0|0,1:0|0:0,0:0:0:0:
440,364,128232,1,2,0:0:0:0:
440,364,128382,1,0,0:0:0:0:
496,164,128532,2,0,P|491:201|487:238,1,75.0000028610231,8|0,0:0|0:0,0:0:0:0:
360,48,128832,2,0,P|380:16|444:16,1,75.0000028610231,2|0,0:0|0:0,0:0:0:0:
400,132,129132,2,0,P|417:165|385:220,1,75.0000028610231,0|0,1:0|0:0,0:0:0:0:
304,128,129432,2,0,P|266:126|234:71,1,75.0000028610231,2|0,0:0|0:0,0:0:0:0:
316,228,129732,2,0,P|256:256|152:244,1,150.000005722046,8|2,0:0|0:0,0:0:0:0:
104,180,130182,1,0,0:0:0:0:
224,28,130332,6,0,L|264:32,1,25,0|0,1:0|1:0,0:0:0:0:
316,104,130632,2,0,L|340:101,1,25,2|0,1:2|1:0,0:0:0:0:
484,252,130932,6,0,B|456:164|340:236|408:292|404:264|460:340|348:400|320:304,1,300,12|0,0:0|0:0,0:0:0:0:
204,136,131532,6,0,P|220:140|236:152,1,25,0|0,1:0|0:0,0:0:0:0:
128,76,131832,2,0,P|123:60|125:40,1,25,2|0,0:0|0:0,0:0:0:0:
156,304,132132,6,0,B|84:364|28:288|28:288|128:244|104:156,1,300,12|0,0:0|0:0,0:0:0:0:
16,24,132732,6,0,P|20:80|28:128,1,75.0000028610231,0|0,1:0|0:0,0:0:0:0:
107,175,133032,1,2,0:0:0:0:
107,175,133182,1,0,0:0:0:0:
192,24,133332,2,0,P|188:80|180:128,1,75.0000028610231,8|0,0:0|0:0,0:0:0:0:
156,304,133632,2,0,B|168:288|168:288|240:268,1,75.0000028610231,2|0,0:0|0:0,0:0:0:0:
384,352,133932,2,0,B|364:349|364:349|310:297,1,75.0000028610231,0|0,1:0|0:0,0:0:0:0:
312,136,134232,2,0,B|319:154|319:154|301:226,1,75.0000028610231,2|0,0:0|0:0,0:0:0:0:
164,116,134532,5,8,0:0:0:0:
232,288,134682,1,0,1:0:0:0:
252,68,134832,5,0,1:0:0:0:
220,273,134982,1,0,1:0:0:0:
412,176,135132,6,0,P|392:176|380:192,1,25,0|0,1:0|0:0,0:0:0:0:
400,280,135432,2,0,P|420:280|432:264,1,25,2|0,0:0|0:0,0:0:0:0:
388,72,135732,6,0,B|328:32|240:116|320:152|240:244|156:184,1,300,12|0,0:0|0:0,0:0:0:0:
104,72,136332,6,0,L|144:64,1,25,0|0,1:0|0:0,0:0:0:0:
40,156,136632,2,0,L|0:148,1,25,2|0,0:0|0:0,0:0:0:0:
164,272,136932,6,0,B|240:292|304:256|332:204|332:204|348:228|336:260|320:252|312:284|344:324,1,300,12|0,0:0|0:0,0:0:0:0:
432,192,137532,6,0,P|412:144|384:100,1,75.0000028610231,0|0,1:0|0:0,0:0:0:0:
304,112,137832,1,2,0:0:0:0:
304,112,137982,1,0,0:0:0:0:
400,272,138132,2,0,P|451:278|503:276,1,75.0000028610231,8|0,0:0|0:0,0:0:0:0:
348,204,138432,2,0,P|316:245|292:291,1,75.0000028610231,2|0,0:0|0:0,0:0:0:0:
80,264,138732,2,0,P|123:292|162:327,1,75.0000028610231,0|0,1:0|0:0,0:0:0:0:
284,104,139032,2,0,P|260:150|244:199,1,75.0000028610231,2|0,0:0|0:0,0:0:0:0:
88,128,139332,2,0,P|120:152|196:244,1,150.000005722046,8|2,0:0|0:0,0:0:0:0:
232,324,139782,1,2,0:0:0:0:
364,220,139932,6,0,L|356:176,1,25,0|0,1:0|1:0,0:0:0:0:
420,116,140232,2,0,L|428:72,1,25,2|0,1:2|1:0,0:0:0:0:
220,92,140532,6,0,B|163:142|207:221|294:196|327:110|304:16,1,300,12|0,0:0|0:0,0:0:0:0:
120,80,141132,6,0,P|112:96|108:108,1,25,0|0,1:0|0:0,0:0:0:0:
124,200,141432,2,0,P|132:216|144:228,1,25,2|0,0:0|0:0,0:0:0:0:
344,228,141732,6,0,B|388:164|400:88|400:88|420:164|504:232,1,300,12|0,0:0|0:0,0:0:0:0:
428,308,142332,5,0,1:0:0:0:
428,308,142482,1,0,0:0:0:0:
252,264,142632,1,2,0:0:0:0:
329,154,142782,2,0,P|337:186|345:242,1,75.0000028610231,0|8,0:0|0:0,0:0:0:0:
324,328,143082,1,0,0:0:0:0:
256,256,143232,1,2,1:2:0:0:
356,232,143382,1,0,0:0:0:0:
148,300,143532,5,0,1:0:0:0:
144,152,143682,1,0,1:2:0:0:
252,264,143832,1,0,1:2:0:0:
256,116,143982,2,0,P|261:78|270:42,1,75.0000028610231,0|8,1:0|0:0,0:0:0:0:
368,16,144282,1,8,0:3:0:0:
352,164,144432,1,0,1:0:0:0:
372,8,144582,1,8,0:3:0:0:
352,176,144732,6,0,P|400:184|448:192,1,80,2|0,0:0|0:0,0:0:0:0:
324,332,145332,2,0,P|372:340|420:348,1,80,2|0,0:0|0:0,0:0:0:0:
312,248,145932,2,0,P|385:262|463:276,1,120,2|0,0:0|0:0,0:0:0:0:
488,200,146532,1,2,0:0:0:0:
472,188,146682,1,0,0:0:0:0:
416,108,146832,1,0,0:0:0:0:
396,112,146982,1,0,0:0:0:0:
276,180,147132,6,0,P|236:220|240:268,2,80,2|0|2,0:0|0:0|0:0,0:0:0:0:
276,180,148332,2,0,P|261:125|217:104,1,80,2|0,0:0|0:0,0:0:0:0:
80,200,148932,1,2,0:0:0:0:
104,208,149082,1,0,0:0:0:0:
148,112,149232,1,0,0:0:0:0:
172,104,149382,1,0,0:0:0:0:
276,180,149532,6,0,P|264:236|260:284,1,80,2|0,0:0|0:0,0:0:0:0:
328,92,150132,2,0,P|292:76|244:88,1,80,2|0,0:0|0:0,0:0:0:0:
372,184,150732,2,0,P|408:200|456:188,1,80,2|0,0:0|0:0,0:0:0:0:
512,12,151332,1,2,0:0:0:0:
500,36,151482,1,0,0:0:0:0:
428,100,151632,1,0,0:0:0:0:
416,124,151782,1,0,0:0:0:0:
504,240,151932,6,0,P|508:312|508:340,1,80,2|0,0:0|0:0,0:0:0:0:
416,360,152532,1,2,0:0:0:0:
416,360,152832,1,0,0:0:0:0:
304,232,153132,1,2,0:0:0:0:
292,208,153282,2,0,P|308:165|312:96,1,80,0|0,0:0|0:0,0:0:0:0:
324,32,153732,1,0,0:0:0:0:
304,16,153882,1,0,0:0:0:0:
224,64,154032,1,2,0:0:0:0:
204,48,154182,1,0,0:0:0:0:
96,184,154332,6,0,P|148:176|192:200,1,89.9999972534181,0|2,1:0|0:0,0:0:0:0:
260,252,154782,1,2,0:0:0:0:
260,252,154932,2,0,L|252:360,1,89.9999972534181,0|2,1:0|0:0,0:0:0:0:
108,276,155532,2,0,P|64:264|8:284,1,89.9999972534181,0|2,1:0|0:0,0:0:0:0:
68,176,155982,1,2,0:0:0:0:
68,176,156132,2,0,P|72:112|76:60,1,89.9999972534181,0|2,1:0|0:0,0:0:0:0:
240,24,156732,6,0,L|248:88,1,44.999998626709,0|0,1:0|0:0,0:0:0:0:
184,148,157032,1,2,0:0:0:0:
180,164,157182,1,2,0:0:0:0:
256,224,157332,2,0,L|268:320,1,89.9999972534181,0|2,1:0|0:0,0:0:0:0:
312,140,157932,2,0,P|260:124|224:132,1,89.9999972534181,0|2,1:0|0:0,0:0:0:0:
152,192,158382,1,2,0:0:0:0:
96,112,158532,1,0,1:0:0:0:
92,92,158682,1,0,0:0:0:0:
20,164,158832,1,2,0:0:0:0:
16,184,158982,1,0,0:0:0:0:
104,284,159132,6,0,P|156:272|204:264,1,89.9999972534181,0|2,1:0|0:0,0:0:0:0:
284,308,159582,1,2,0:0:0:0:
284,308,159732,2,0,L|344:316,1,44.999998626709,0|0,1:0|1:0,0:0:0:0:
420,232,160032,1,2,0:0:0:0:
420,232,160332,6,0,P|428:176|396:128,1,97.4999955368044,0|0,1:0|0:0,0:0:0:0:
400,132,160632,6,0,L|272:144,1,112.500004291535,0|0,1:0|0:0,0:0:0:0:
256,144,160932,6,0,P|236:88|272:28,1,127.50000243187,0|0,1:0|0:0,0:0:0:0:
304,16,161232,6,0,L|140:32,1,142.49999619484,0|0,1:0|0:0,0:0:0:0:
108,40,161532,6,0,P|128:80|92:128,1,100,0|0,1:0|0:0,0:0:0:0:
141,115,164277,6,0,B|188:112|188:112|196:120|196:120|272:116,1,112.500004291535,0|0,1:0|0:0,0:0:0:0:
260,128,164577,6,0,L|256:160,1,25,0|0,1:0|0:0,0:0:0:0:
308,240,164877,2,0,L|304:272,1,25,0|0,1:0|0:0,0:0:0:0:
196,332,165132,5,0,1:0:0:0:
196,332,165282,1,8,0:0:0:0:
308,240,165432,1,8,0:0:0:0:
308,240,165582,1,0,1:0:0:0:
136,184,165732,5,0,1:0:0:0:
336,104,165882,1,8,0:0:0:0:
116,72,166032,1,8,0:0:0:0:
278,202,166182,1,0,1:0:0:0:
244,16,166332,6,0,P|240:36|248:52,1,29.9999990844727,0|0,1:0|0:0,0:0:0:0:
336,104,166632,2,0,P|339:118|334:132,1,29.9999990844727,2|0,0:0|0:0,0:0:0:0:
168,252,166932,6,0,B|144:240|112:244|112:244|160:160|268:176|296:280|256:340,1,314.999990386963,12|0,0:0|0:0,0:0:0:0:
120,344,167532,6,0,L|68:352,1,29.9999990844727,0|0,1:0|0:0,0:0:0:0:
32,264,167832,2,0,L|2:259,1,29.9999990844727,2|0,0:0|0:0,0:0:0:0:
184,92,168132,6,0,B|160:108|148:136|148:136|212:88|320:96|320:96|332:64|388:28,1,314.999990386963,12|0,0:0|0:0,0:0:0:0:
412,220,168732,6,0,P|372:216|324:184,1,80,0|0,1:0|0:0,0:0:0:0:
408,120,169032,1,2,0:0:0:0:
408,120,169182,1,0,0:0:0:0:
496,260,169332,2,0,P|512:296|508:354,1,80,8|0,0:0|0:0,0:0:0:0:
319,273,169632,2,0,P|320:233|336:197,1,80,2|0,0:0|0:0,0:0:0:0:
156,260,169932,2,0,P|189:280|212:313,1,80,0|0,1:0|0:0,0:0:0:0:
260,124,170232,2,0,P|224:142|185:146,1,80,2|0,0:0|0:0,0:0:0:0:
8,20,170532,2,0,P|72:20|80:124,1,160,8|2,0:0|0:0,0:0:0:0:
36,188,170982,1,0,0:0:0:0:
203,284,171132,6,0,P|211:308|211:336,1,29.9999990844727,0|0,1:0|1:0,0:0:0:0:
108,264,171432,2,0,P|111:249|116:235,1,29.9999990844727,2|0,0:0|1:0,0:0:0:0:
320,132,171732,6,0,P|248:72|288:192,1,314.999990386963,12|0,0:0|0:0,0:0:0:0:
448,124,172332,6,0,P|448:100|436:76,1,29.9999990844727,0|0,1:0|0:0,0:0:0:0:
396,208,172632,2,0,P|416:220|443:221,1,29.9999990844727,2|0,0:0|0:0,0:0:0:0:
244,72,172932,6,0,B|176:36|116:92|116:92|124:180|132:276,1,314.999990386963,12|0,0:0|0:0,0:0:0:0:
248,356,173532,6,0,P|252:316|256:256,1,80,0|0,1:0|0:0,0:0:0:0:
264,168,173832,1,2,0:0:0:0:
264,168,173982,1,0,0:0:0:0:
131,266,174132,2,0,P|127:226|123:166,1,80,8|0,0:0|0:0,0:0:0:0:
288,8,174432,2,0,P|284:48|280:108,1,80,2|0,0:0|0:0,0:0:0:0:
333,217,174732,2,0,P|300:193|250:160,1,80,0|0,1:0|0:0,0:0:0:0:
128,152,175032,2,0,P|164:135|218:108,1,80,2|0,0:0|1:0,0:0:0:0:
392,144,175332,5,8,0:2:0:0:
224,244,175482,1,0,1:2:0:0:
420,296,175632,5,0,1:2:0:0:
240,240,175782,1,0,1:0:0:0:
300,368,175932,6,0,L|352:360,1,29.9999990844727,0|0,1:0|0:0,0:0:0:0:
212,320,176232,2,0,L|160:312,1,29.9999990844727,2|0,0:0|0:0,0:0:0:0:
48,128,176532,6,0,B|24:224|24:224|28:232|28:232|-4:340|-4:340|32:380|100:364,1,314.999990386963,12|0,0:0|0:0,0:0:0:0:
176,228,177132,6,0,P|172:196|172:176,1,29.9999990844727,0|0,1:0|0:0,0:0:0:0:
248,120,177432,2,0,P|252:88|252:68,1,29.9999990844727,2|0,0:0|0:0,0:0:0:0:
396,276,177732,6,0,B|464:268|504:312|504:312|472:200|360:160,1,314.999990386963,12|0,0:0|0:0,0:0:0:0:
296,308,178332,6,0,P|320:348|356:372,1,80,0|0,1:0|0:0,0:0:0:0:
396,276,178632,1,2,0:0:0:0:
396,276,178782,1,0,0:0:0:0:
212,252,178932,2,0,P|164:268|116:308,1,80,8|0,0:0|0:0,0:0:0:0:
216,80,179232,2,0,P|232:128|272:176,1,80,2|0,0:0|0:0,0:0:0:0:
420,156,179532,2,0,P|372:172|324:212,1,80,0|0,1:0|0:0,0:0:0:0:
352,368,179832,2,0,P|336:320|296:272,1,80,2|0,0:0|0:0,0:0:0:0:
79,235,180132,2,0,P|120:275|212:251,1,160,8|0,0:0|0:0,0:0:0:0:
152,164,180582,1,2,0:0:0:0:
0,184,180732,6,0,P|-12:208|-16:232,1,29.9999990844727,0|0,1:0|1:0,0:0:0:0:
20,300,181032,2,0,P|21:326|30:349,1,29.9999990844727,2|0,0:0|1:0,0:0:0:0:
211,251,181332,6,0,B|212:208|243:183|243:183|159:179|83:239|83:239|63:203|95:131,1,314.999990386963,12|0,0:0|0:0,0:0:0:0:
144,16,181932,6,0,P|160:48|164:68,1,29.9999990844727,0|0,1:0|0:0,0:0:0:0:
248,72,182232,2,0,P|245:107|239:127,1,29.9999990844727,2|0,0:0|0:0,0:0:0:0:
404,280,182532,6,0,B|336:288|292:248|292:248|296:376|168:388,1,314.999990386963,12|0,0:0|0:0,0:0:0:0:
100,180,183132,5,0,1:0:0:0:
100,180,183282,1,2,1:2:0:0:
200,292,183432,1,0,1:0:0:0:
200,292,183582,1,0,1:0:0:0:
176,120,183732,5,8,1:2:0:0:
116,296,183882,1,0,1:0:0:0:
0,148,184032,5,8,1:2:0:0:
120,280,184182,1,0,1:0:0:0:
84,72,184332,5,0,1:0:0:0:
176,120,184482,1,0,1:0:0:0:
244,44,184632,5,0,1:0:0:0:
280,56,184782,1,0,1:0:0:0:
368,32,184932,5,8,1:2:0:0:
376,40,185082,1,8,0:3:0:0:
456,40,185232,5,10,0:0:0:0:
456,40,185382,1,8,0:3:0:0:
496,108,185532,6,0,P|456:128|420:168,1,80,0|0,1:0|0:0,0:0:0:0:
376,304,185832,2,0,P|346:276|310:259,1,80,2|0,0:0|0:0,0:0:0:0:
68,188,186132,6,0,B|108:196|124:232|124:232|132:152|172:104,1,209.999993591309,12|2,0:0|0:0,0:0:0:0:
252,24,186582,1,0,0:0:0:0:
430,152,186732,6,0,P|366:136|318:152,1,80,0|0,1:0|0:0,0:0:0:0:
311,259,187032,2,0,P|273:273|234:273,1,80,2|0,0:0|0:0,0:0:0:0:
86,102,187332,6,0,B|98:150|149:206|149:206|109:167|37:198,1,209.999993591309,12|2,0:0|0:0,0:0:0:0:
84,304,187782,1,0,0:0:0:0:
244,232,187932,6,0,P|240:168|200:128,1,80,0|0,1:0|0:0,0:0:0:0:
156,24,188232,1,2,0:0:0:0:
148,204,188382,1,0,0:0:0:0:
288,72,188532,2,0,P|352:68|392:28,1,80,8|0,0:0|0:0,0:0:0:0:
488,240,188832,2,0,P|424:236|384:196,1,80,2|0,0:0|0:0,0:0:0:0:
480,40,189132,6,0,P|472:76|464:140,1,80,0|0,1:0|0:0,0:0:0:0:
392,232,189432,1,2,0:0:0:0:
392,232,189582,1,0,0:0:0:0:
288,88,189732,2,0,P|282:48|273:9,1,80,8|0,0:0|0:0,0:0:0:0:
188,140,190032,1,2,0:0:0:0:
304,224,190182,1,0,0:0:0:0:
120,312,190332,6,0,P|88:304|20:296,1,80,0|0,1:0|0:0,0:0:0:0:
256,224,190632,2,0,P|288:216|356:208,1,80,2|0,0:0|0:0,0:0:0:0:
64,144,190932,6,0,B|28:132|28:132|156:80|156:80|144:120,1,209.999993591309,12|2,0:0|0:0,0:0:0:0:
140,216,191382,1,0,0:0:0:0:
288,88,191532,6,0,P|296:40|272:-4,1,80,0|0,1:0|0:0,0:0:0:0:
168,212,191832,2,0,P|160:260|184:304,1,80,2|2,0:0|0:0,0:0:0:0:
376,264,192132,6,0,B|380:224|416:212|416:212|344:192|268:248,1,209.999993591309,12|2,0:0|0:0,0:0:0:0:
304,352,192582,1,0,0:0:0:0:
480,272,192732,6,0,P|504:232|496:176,1,80,0|0,1:0|0:0,0:0:0:0:
472,56,193032,1,2,0:0:0:0:
416,212,193182,1,0,0:0:0:0:
480,32,193332,2,0,P|416:36|368:40,1,80,8|0,0:0|0:0,0:0:0:0:
220,152,193632,2,0,P|284:156|332:160,1,80,2|0,0:0|0:0,0:0:0:0:
408,324,193932,5,0,1:0:0:0:
408,324,194082,1,0,1:2:0:0:
308,132,194232,5,0,1:0:0:0:
308,132,194382,1,0,1:0:0:0:
164,312,194532,5,8,1:2:0:0:
368,240,194682,1,0,1:0:0:0:
228,160,194832,5,2,1:2:0:0:
324,360,194982,1,0,1:0:0:0:
124,312,195132,6,0,L|32:300,1,80,0|0,1:0|0:0,0:0:0:0:
216,180,195432,2,0,L|308:168,1,80,2|0,0:0|0:0,0:0:0:0:
420,336,195732,6,0,B|384:276|412:232|432:248|464:200|428:104,1,209.999993591309,12|2,0:0|0:0,0:0:0:0:
368,36,196182,1,0,0:0:0:0:
292,192,196332,6,0,P|284:248|276:316,1,80,0|0,1:0|0:0,0:0:0:0:
104,120,196632,2,0,P|112:176|120:244,1,80,2|0,0:0|0:0,0:0:0:0:
352,32,196932,6,0,B|280:36|212:84|212:84|256:84|292:116,1,209.999993591309,12|0,0:0|0:0,0:0:0:0:
380,148,197382,1,0,0:0:0:0:
268,284,197532,6,0,P|224:300|176:284,1,80,0|0,1:0|0:0,0:0:0:0:
272,184,197832,1,2,0:0:0:0:
336,352,197982,1,0,0:0:0:0:
164,312,198132,2,0,P|116:296|72:312,1,80,8|0,0:0|0:0,0:0:0:0:
280,172,198432,2,0,P|324:156|372:172,1,80,2|0,0:0|0:0,0:0:0:0:
452,336,198732,6,0,P|444:288|440:236,1,80,0|0,1:0|0:0,0:0:0:0:
468,92,199032,1,2,0:0:0:0:
468,92,199182,1,0,0:0:0:0:
324,244,199332,2,0,P|280:260|232:244,1,80,8|0,0:0|0:0,0:0:0:0:
136,88,199632,2,0,P|142:130|152:192,1,80,2|0,0:0|0:0,0:0:0:0:
0,284,199932,6,0,P|44:268|92:284,1,80,0|0,1:0|0:0,0:0:0:0:
200,340,200232,2,0,P|244:356|292:340,1,80,2|0,0:0|0:0,0:0:0:0:
321,141,200532,6,0,B|291:99|291:99|267:181|247:257,1,209.999993591309,12|2,0:0|0:0,0:0:0:0:
296,360,200982,1,0,0:0:0:0:
164,256,201132,6,0,P|156:220|156:164,1,80,0|0,1:0|0:0,0:0:0:0:
360,224,201432,2,0,P|368:260|368:316,1,80,2|2,0:0|0:0,0:0:0:0:
272,64,201732,6,0,P|396:24|456:92,1,209.999993591309,12|2,0:0|0:0,0:0:0:0:
500,184,202182,1,0,0:0:0:0:
356,124,202332,6,0,P|344:180|336:220,1,80,0|0,1:0|0:0,0:0:0:0:
352,328,202632,1,2,0:0:0:0:
256,148,202782,2,0,P|244:204|236:244,1,80,0|8,0:0|0:0,0:0:0:0:
432,356,203082,1,0,0:0:0:0:
432,356,203232,2,0,P|436:308|411:267,1,80,2|0,0:0|0:0,0:0:0:0:
240,224,203532,5,0,1:0:0:0:
240,224,203682,1,2,0:0:0:0:
360,60,203832,5,0,1:0:0:0:
360,60,203982,1,0,1:0:0:0:
496,188,204132,5,8,0:0:0:0:
396,276,204282,1,12,1:2:0:0:
320,144,204432,5,12,0:0:0:0:
292,132,204582,1,4,0:3:0:0:
239,226,204732,5,4,1:2:0:0:
239,226,204882,1,0,0:0:0:0:
192,308,205032,2,0,L|212:356,1,50,2|0,0:0|0:0,0:0:0:0:
136,224,205332,2,0,P|93:199|44:203,1,100,0|2,1:0|0:0,0:0:0:0:
68,344,205782,1,0,0:0:0:0:
68,344,205932,2,0,P|76:316|68:280,1,50,0|0,1:2|0:0,0:0:0:0:
8,164,206232,1,2,0:0:0:0:
0,112,206532,1,0,1:0:0:0:
16,64,206832,1,2,0:0:0:0:
280,152,207132,5,0,1:0:0:0:
280,152,207282,1,0,0:0:0:0:
232,72,207432,2,0,L|176:76,1,50,2|0,0:0|0:0,0:0:0:0:
96,240,207732,2,0,P|156:200|192:204,1,100,0|2,1:0|0:0,0:0:0:0:
272,240,208182,1,0,0:0:0:0:
272,240,208332,2,0,L|268:300,1,50,0|0,1:0|0:0,0:0:0:0:
444,320,208632,1,2,0:0:0:0:
432,280,208932,1,0,1:0:0:0:
404,252,209232,1,2,0:0:0:0:
504,24,209532,5,0,1:0:0:0:
504,24,209682,1,0,0:0:0:0:
416,52,209832,2,0,L|424:116,1,50,2|0,0:0|0:0,0:0:0:0:
512,252,210132,2,0,P|460:248|396:244,1,100,0|2,1:0|0:0,0:0:0:0:
440,344,210582,1,0,0:0:0:0:
440,344,210732,2,0,L|372:352,1,50,0|0,1:0|0:0,0:0:0:0:
304,192,211032,1,2,0:0:0:0:
308,156,211332,1,0,1:0:0:0:
312,120,211632,1,2,0:0:0:0:
160,272,211932,5,0,1:0:0:0:
160,272,212082,1,0,0:0:0:0:
224,344,212232,2,0,P|256:348|300:348,1,50,2|0,0:0|0:0,0:0:0:0:
200,204,212532,2,0,P|140:224|88:196,1,100,0|2,1:0|0:0,0:0:0:0:
144,76,212982,1,0,0:0:0:0:
144,76,213132,2,0,L|148:152,1,50,0|0,1:0|0:0,0:0:0:0:
312,192,213432,1,2,0:0:0:0:
308,212,213732,1,0,1:0:0:0:
304,232,214032,1,2,0:0:0:0:
256,192,214332,12,0,215532,0:0:0:0:
