osu file format v14

[General]
AudioFilename: audio.mp3
AudioLeadIn: 0
PreviewTime: 75076
Countdown: 1
SampleSet: Normal
StackLeniency: 0.7
Mode: 3
LetterboxInBreaks: 0
SpecialStyle: 0
WidescreenStoryboard: 1

[Editor]
DistanceSpacing: 0.7
BeatDivisor: 8
GridSize: 4
TimelineZoom: 1

[Metadata]
Title:Toilet Training
TitleUnicode:我会自己上厕所
Artist:Baby Bus
ArtistUnicode:宝宝巴士
Creator:8230
Version:Bathroom
Source:宝宝巴士儿歌
Tags:keysound
BeatmapID:2060900
BeatmapSetID:984994

[Difficulty]
HPDrainRate:9
CircleSize:4
OverallDifficulty:9
ApproachRate:5
SliderMultiplier:1.4
SliderTickRate:1

[Events]
//Background and Video events
0,0,"timg.jpg",0,0
Video,-2325,"0.mp4"
//Break Periods
//Storyboard Layer 0 (Background)
//Storyboard Layer 1 (Fail)
//Storyboard Layer 2 (Pass)
//Storyboard Layer 3 (Foreground)
//Storyboard Sound Samples
Sample,22421,0,"X 6F.wav",70
Sample,22421,0,"bass.wav",70
Sample,22699,0,"bass.wav",70
Sample,22699,0,"X 6E.wav",70
Sample,22837,0,"bass.wav",70
Sample,22976,0,"bass.wav",70
Sample,22976,0,"X 6D.wav",70
Sample,23254,0,"X 6C.wav",70
Sample,23254,0,"bass.wav",70
Sample,23532,0,"bass.wav",70
Sample,23532,0,"X 5A+.wav",70
Sample,23810,0,"X 5A.wav",70
Sample,23810,0,"bass.wav",70
Sample,24087,0,"bass.wav",70
Sample,24087,0,"X 5G.wav",70
Sample,24226,0,"bass.wav",70
Sample,24365,0,"X 5F.wav",70
Sample,24643,0,"bass.wav",70
Sample,24643,0,"X 5E.wav",70
Sample,24782,0,"bass.wav",70
Sample,24921,0,"bass.wav",70
Sample,25199,0,"bass.wav",70
Sample,25476,0,"bass.wav",70
Sample,25754,0,"bass.wav",70
Sample,25893,0,"bass.wav",70
Sample,26032,0,"bass.wav",70
Sample,26171,0,"bass.wav",70
Sample,26310,0,"bass.wav",70
Sample,26587,0,"bass.wav",70
Sample,26865,0,"bass.wav",70
Sample,26865,0,"X 6F.wav",70
Sample,27143,0,"X 6E.wav",70
Sample,27143,0,"bass.wav",70
Sample,27282,0,"bass.wav",70
Sample,27421,0,"bass.wav",70
Sample,27421,0,"X 6D.wav",70
Sample,27699,0,"X 6C.wav",70
Sample,27699,0,"bass.wav",70
Sample,27976,0,"bass.wav",70
Sample,27976,0,"X 5A+.wav",70
Sample,28254,0,"X 5A.wav",70
Sample,28254,0,"bass.wav",70
Sample,28532,0,"bass.wav",70
Sample,28532,0,"X 5G.wav",70
Sample,28810,0,"X 5F.wav",70
Sample,28810,0,"bass.wav",70
Sample,29087,0,"bass.wav",70
Sample,29087,0,"X 5E.wav",70
Sample,29226,0,"bass.wav",70
Sample,29365,0,"bass.wav",70
Sample,29643,0,"bass.wav",70
Sample,29921,0,"bass.wav",70
Sample,30199,0,"bass.wav",70
Sample,30337,0,"bass.wav",70
Sample,30476,0,"bass.wav",70
Sample,30615,0,"bass.wav",70
Sample,30754,0,"bass.wav",70
Sample,31032,0,"bass.wav",70
Sample,31310,0,"X 6F.wav",70
Sample,31310,0,"bass.wav",70
Sample,31587,0,"bass.wav",70
Sample,31587,0,"X 6E.wav",70
Sample,31726,0,"bass.wav",70
Sample,31865,0,"X 6D.wav",70
Sample,31865,0,"bass.wav",70
Sample,32143,0,"bass.wav",70
Sample,32143,0,"X 6C.wav",70
Sample,32421,0,"X 5A+.wav",70
Sample,32421,0,"bass.wav",70
Sample,32699,0,"bass.wav",70
Sample,32699,0,"X 5A.wav",70
Sample,32976,0,"X 5G.wav",70
Sample,32976,0,"bass.wav",70
Sample,33254,0,"bass.wav",70
Sample,33254,0,"X 5F.wav",70
Sample,33532,0,"X 5E.wav",70
Sample,33532,0,"bass.wav",70
Sample,33671,0,"bass.wav",70
Sample,33810,0,"bass.wav",70
Sample,34087,0,"bass.wav",70
Sample,34365,0,"bass.wav",70
Sample,34643,0,"bass.wav",70
Sample,34782,0,"bass.wav",70
Sample,34921,0,"bass.wav",70
Sample,35060,0,"bass.wav",70
Sample,35199,0,"bass.wav",70
Sample,35476,0,"bass.wav",70
Sample,35754,0,"X 6C.wav",70
Sample,35754,0,"bass.wav",70
Sample,36032,0,"bass.wav",70
Sample,36032,0,"X 5A+.wav",70
Sample,36171,0,"bass.wav",70
Sample,36310,0,"bass.wav",70
Sample,36310,0,"X 5A.wav",70
Sample,36587,0,"X 5G.wav",70
Sample,36587,0,"bass.wav",70
Sample,36865,0,"bass.wav",70
Sample,36865,0,"X 5F.wav",70
Sample,37143,0,"X 5E.wav",70
Sample,37143,0,"bass.wav",70
Sample,37421,0,"bass.wav",70
Sample,37421,0,"X 5D.wav",70
Sample,37699,0,"X 5C.wav",70
Sample,37699,0,"bass.wav",70
Sample,37976,0,"X 5F.wav",70
Sample,37976,0,"bass.wav",70
Sample,40199,0,"fuck.wav",70
Sample,40199,0,"Z 5C.wav",30
Sample,40476,0,"Z 4F.wav",30
Sample,40754,0,"Z 5C.wav",30
Sample,41032,0,"Z 4F.wav",30
Sample,41310,0,"Z 5C.wav",30
Sample,41587,0,"Z 4F.wav",30
Sample,41865,0,"Z 5C.wav",30
Sample,42143,0,"Z 4F.wav",30
Sample,42421,0,"fuck.wav",70
Sample,42421,0,"Z 5D.wav",30
Sample,42699,0,"Z 4C.wav",30
Sample,42976,0,"Z 5D.wav",30
Sample,43254,0,"Z 4C.wav",30
Sample,43532,0,"Z 5D.wav",30
Sample,43810,0,"Z 4C.wav",30
Sample,44087,0,"Z 5D.wav",30
Sample,44365,0,"Z 4C.wav",30
Sample,44643,0,"Z 4A+.wav",30
Sample,44643,0,"fuck.wav",70
Sample,44643,0,"fuckass.wav",70
Sample,44921,0,"Z 3A+.wav",30
Sample,45199,0,"Z 4A+.wav",30
Sample,45476,0,"Z 3A+.wav",30
Sample,45754,0,"Z 4A+.wav",30
Sample,46032,0,"Z 3A+.wav",30
Sample,46310,0,"Z 4A+.wav",30
Sample,46587,0,"Z 3A+.wav",30
Sample,46865,0,"fuck.wav",70
Sample,46865,0,"Z 5C.wav",30
Sample,47143,0,"Z 4C.wav",30
Sample,47421,0,"Z 5C.wav",30
Sample,47699,0,"Z 4C.wav",30
Sample,47976,0,"Z 5C.wav",30
Sample,48254,0,"Z 4C.wav",30
Sample,48532,0,"Z 5C.wav",30
Sample,48810,0,"Z 4C.wav",30
Sample,49087,0,"fuck.wav",70
Sample,49087,0,"Z 5C.wav",30
Sample,49365,0,"Z 4F.wav",30
Sample,49643,0,"Z 5C.wav",30
Sample,49921,0,"Z 4F.wav",30
Sample,50199,0,"Z 5C.wav",30
Sample,50476,0,"Z 4F.wav",30
Sample,50754,0,"Z 5C.wav",30
Sample,51032,0,"Z 4F.wav",30
Sample,51310,0,"fuck.wav",70
Sample,51310,0,"Z 5E.wav",30
Sample,51587,0,"Z 4C.wav",30
Sample,51865,0,"Z 5E.wav",30
Sample,52143,0,"Z 4C.wav",30
Sample,52421,0,"Z 5E.wav",30
Sample,52699,0,"Z 4C.wav",30
Sample,52976,0,"Z 5E.wav",30
Sample,53254,0,"Z 4C.wav",30
Sample,53532,0,"fuck.wav",70
Sample,53532,0,"W 3A+.wav",70
Sample,53532,0,"fuckass.wav",70
Sample,53532,0,"Z 5F.wav",30
Sample,53810,0,"Z 4F.wav",30
Sample,53810,0,"W 4F.wav",70
Sample,54087,0,"W 3A+.wav",70
Sample,54087,0,"Z 5F.wav",30
Sample,54365,0,"Z 3A+.wav",30
Sample,54365,0,"W 4F.wav",70
Sample,54643,0,"W 3A+.wav",70
Sample,54643,0,"Z 5G.wav",30
Sample,54921,0,"Z 3A+.wav",30
Sample,54921,0,"W 4F.wav",70
Sample,55199,0,"W 3A+.wav",70
Sample,55199,0,"Z 5G.wav",30
Sample,55476,0,"Z 3A+.wav",30
Sample,55476,0,"W 4F.wav",70
Sample,55754,0,"Z 5G.wav",30
Sample,55754,0,"fuck.wav",70
Sample,55754,0,"W 4C.wav",70
Sample,56032,0,"Z 3A+.wav",30
Sample,56032,0,"W 4F.wav",70
Sample,56310,0,"W 4C.wav",70
Sample,56310,0,"Z 5A.wav",30
Sample,56587,0,"Z 3A+.wav",30
Sample,56587,0,"W 4F.wav",70
Sample,56865,0,"W 4C.wav",70
Sample,56865,0,"Z 5F.wav",30
Sample,57143,0,"Z 3A+.wav",30
Sample,57143,0,"W 4F.wav",70
Sample,57421,0,"W 4C.wav",70
Sample,57421,0,"Z 5F.wav",30
Sample,57699,0,"Z 3A+.wav",30
Sample,57699,0,"W 4F.wav",70
Sample,57976,0,"W 4C.wav",70
Sample,57976,0,"bass2.wav",70
Sample,58254,0,"bass2.wav",70
Sample,58254,0,"W 4F.wav",70
Sample,58532,0,"W 4C.wav",70
Sample,58810,0,"bass2.wav",70
Sample,58810,0,"W 4F.wav",70
Sample,59087,0,"W 4C.wav",70
Sample,59087,0,"bass2.wav",70
Sample,59365,0,"bass2.wav",70
Sample,59365,0,"W 4F.wav",70
Sample,59643,0,"W 4C.wav",70
Sample,59921,0,"bass2.wav",70
Sample,59921,0,"W 4F.wav",70
Sample,60199,0,"W 4C.wav",70
Sample,60199,0,"bass2.wav",70
Sample,60476,0,"bass2.wav",70
Sample,60476,0,"W 4E.wav",70
Sample,60754,0,"W 4C.wav",70
Sample,61032,0,"bass2.wav",70
Sample,61032,0,"W 4E.wav",70
Sample,61310,0,"W 4C.wav",70
Sample,61310,0,"bass2.wav",70
Sample,61587,0,"bass2.wav",70
Sample,61587,0,"W 4E.wav",70
Sample,61865,0,"W 4C.wav",70
Sample,62143,0,"bass2.wav",70
Sample,62143,0,"W 4E.wav",70
Sample,62421,0,"W 3A+.wav",70
Sample,62421,0,"bass2.wav",70
Sample,62699,0,"bass2.wav",70
Sample,62699,0,"W 4D+.wav",70
Sample,62976,0,"W 3A+.wav",70
Sample,63254,0,"bass2.wav",70
Sample,63254,0,"W 4D+.wav",70
Sample,63532,0,"bass2.wav",70
Sample,63532,0,"W 3A+.wav",70
Sample,63810,0,"W 4D+.wav",70
Sample,63810,0,"bass2.wav",70
Sample,64087,0,"W 3A+.wav",70
Sample,64365,0,"bass2.wav",70
Sample,64365,0,"W 4D+.wav",70
Sample,64643,0,"bass2.wav",70
Sample,64643,0,"W 3A+.wav",70
Sample,64921,0,"bass2.wav",70
Sample,64921,0,"W 4E.wav",70
Sample,65199,0,"W 3A+.wav",70
Sample,65476,0,"W 4E.wav",70
Sample,65476,0,"bass2.wav",70
Sample,65754,0,"W 3A+.wav",70
Sample,65754,0,"bass2.wav",70
Sample,66032,0,"bass2.wav",70
Sample,66032,0,"W 4F.wav",70
Sample,66310,0,"W 3A+.wav",70
Sample,66587,0,"W 4F.wav",70
Sample,66587,0,"bass2.wav",70
Sample,66865,0,"W 4C.wav",70
Sample,66865,0,"bass2.wav",70
Sample,67143,0,"bass2.wav",70
Sample,67143,0,"W 4F.wav",70
Sample,67421,0,"W 4C.wav",70
Sample,67699,0,"W 4F.wav",70
Sample,67699,0,"bass2.wav",70
Sample,67976,0,"bass2.wav",70
Sample,67976,0,"W 4C.wav",70
Sample,68254,0,"bass2.wav",70
Sample,68254,0,"W 4F.wav",70
Sample,68532,0,"W 4C.wav",70
Sample,68810,0,"W 4F.wav",70
Sample,68810,0,"bass2.wav",70
Sample,69087,0,"W 4C.wav",70
Sample,69087,0,"bass2.wav",70
Sample,69365,0,"W 4E.wav",70
Sample,69365,0,"bass2.wav",70
Sample,69643,0,"W 4C.wav",70
Sample,69921,0,"bass2.wav",70
Sample,69921,0,"W 4E.wav",70
Sample,70199,0,"bass2.wav",70
Sample,70199,0,"W 4C.wav",70
Sample,70476,0,"bass2.wav",70
Sample,70476,0,"W 4E.wav",70
Sample,70754,0,"W 4C.wav",70
Sample,71032,0,"W 4E.wav",70
Sample,71032,0,"bass2.wav",70
Sample,71310,0,"bass2.wav",70
Sample,71310,0,"W 3A+.wav",70
Sample,71587,0,"W 4D.wav",70
Sample,71587,0,"bass2.wav",70
Sample,71865,0,"W 3A+.wav",70
Sample,71865,0,"bass2.wav",70
Sample,72143,0,"bass2.wav",70
Sample,72143,0,"W 4D.wav",70
Sample,72421,0,"W 3A+.wav",70
Sample,72421,0,"bass2.wav",70
Sample,72699,0,"W 4D.wav",70
Sample,72699,0,"bass2.wav",70
Sample,72976,0,"bass2.wav",70
Sample,72976,0,"W 3A+.wav",70
Sample,73254,0,"bass2.wav",70
Sample,73254,0,"W 4D.wav",70
Sample,73532,0,"W 4F.wav",70
Sample,73532,0,"bass2.wav",70
Sample,73810,0,"W 4C.wav",70
Sample,73810,0,"bass2.wav",70
Sample,74087,0,"bass2.wav",70
Sample,74087,0,"W 4F.wav",70
Sample,74365,0,"bass2.wav",70
Sample,74365,0,"W 4C.wav",70
Sample,74643,0,"bass2.wav",70
Sample,74643,0,"W 4F.wav",70
Sample,75754,0,"drum.wav",70
Sample,75754,0,"X 6F.wav",70
Sample,75754,0,"W 4C.wav",70
Sample,75754,0,"bass2.wav",70
Sample,76032,0,"bass2.wav",70
Sample,76032,0,"X 6E.wav",70
Sample,76032,0,"W 4F.wav",70
Sample,76310,0,"X 6D.wav",70
Sample,76310,0,"W 4C.wav",70
Sample,76310,0,"bass2.wav",70
Sample,76587,0,"bass2.wav",70
Sample,76587,0,"X 6C.wav",70
Sample,76587,0,"W 4F.wav",70
Sample,76865,0,"X 5A+.wav",70
Sample,76865,0,"drum.wav",70
Sample,76865,0,"bass2.wav",70
Sample,76865,0,"W 4C.wav",70
Sample,77143,0,"W 4F.wav",70
Sample,77143,0,"X 5A.wav",70
Sample,77143,0,"bass2.wav",70
Sample,77421,0,"X 5G.wav",70
Sample,77421,0,"bass2.wav",70
Sample,77421,0,"W 4C.wav",70
Sample,77699,0,"W 4F.wav",70
Sample,77699,0,"X 5F.wav",70
Sample,77699,0,"bass2.wav",70
Sample,77976,0,"W 4C.wav",70
Sample,77976,0,"X 5E.wav",70
Sample,77976,0,"bass2.wav",70
Sample,77976,0,"drum.wav",70
Sample,78254,0,"bass2.wav",70
Sample,78254,0,"W 4E.wav",70
Sample,78532,0,"bass2.wav",70
Sample,78532,0,"W 4C.wav",70
Sample,78810,0,"W 4E.wav",70
Sample,78810,0,"bass2.wav",70
Sample,79087,0,"drum.wav",70
Sample,79087,0,"W 4C.wav",70
Sample,79087,0,"bass2.wav",70
Sample,79365,0,"bass2.wav",70
Sample,79365,0,"W 4E.wav",70
Sample,79643,0,"bass2.wav",70
Sample,79643,0,"W 4C.wav",70
Sample,79921,0,"bass2.wav",70
Sample,79921,0,"W 4E.wav",70
Sample,80199,0,"drum.wav",70
Sample,80199,0,"X 6F.wav",70
Sample,80199,0,"W 3A+.wav",70
Sample,80199,0,"bass2.wav",70
Sample,80476,0,"bass2.wav",70
Sample,80476,0,"X 6E.wav",70
Sample,80476,0,"W 4D+.wav",70
Sample,80754,0,"bass2.wav",70
Sample,80754,0,"X 6D.wav",70
Sample,80754,0,"W 3A+.wav",70
Sample,81032,0,"W 4D+.wav",70
Sample,81032,0,"bass2.wav",70
Sample,81032,0,"X 6C.wav",70
Sample,81310,0,"drum.wav",70
Sample,81310,0,"W 3A+.wav",70
Sample,81310,0,"bass2.wav",70
Sample,81310,0,"X 5A+.wav",70
Sample,81587,0,"X 5A.wav",70
Sample,81587,0,"bass2.wav",70
Sample,81587,0,"W 4D+.wav",70
Sample,81865,0,"bass2.wav",70
Sample,81865,0,"W 3A+.wav",70
Sample,81865,0,"X 5G.wav",70
Sample,82143,0,"bass2.wav",70
Sample,82143,0,"W 4D+.wav",70
Sample,82143,0,"X 5F.wav",70
Sample,82421,0,"drum.wav",70
Sample,82421,0,"X 5E.wav",70
Sample,82421,0,"W 3A+.wav",70
Sample,82421,0,"bass2.wav",70
Sample,82699,0,"bass2.wav",70
Sample,82699,0,"W 4E.wav",70
Sample,82976,0,"bass2.wav",70
Sample,82976,0,"W 3A+.wav",70
Sample,83254,0,"W 4E.wav",70
Sample,83254,0,"bass2.wav",70
Sample,83532,0,"bass2.wav",70
Sample,83532,0,"gu.wav",70
Sample,83532,0,"W 3A+.wav",70
Sample,83810,0,"W 4E.wav",70
Sample,83810,0,"bass2.wav",70
Sample,84087,0,"W 3A+.wav",70
Sample,84087,0,"bass2.wav",70
Sample,84087,0,"pa.wav",70
Sample,84087,0,"drum.wav",70
Sample,84365,0,"W 4E.wav",70
Sample,84365,0,"bass2.wav",70
Sample,84643,0,"W 4C.wav",70
Sample,84643,0,"bass2.wav",70
Sample,84643,0,"X 6F.wav",70
Sample,84921,0,"bass2.wav",70
Sample,84921,0,"W 4F.wav",70
Sample,84921,0,"X 6E.wav",70
Sample,85199,0,"W 4C.wav",70
Sample,85199,0,"X 6D.wav",70
Sample,85199,0,"bass2.wav",70
Sample,85476,0,"W 4F.wav",70
Sample,85476,0,"X 6C.wav",70
Sample,85476,0,"bass2.wav",70
Sample,85754,0,"X 5A+.wav",70
Sample,85754,0,"drum.wav",70
Sample,85754,0,"bass2.wav",70
Sample,85754,0,"W 4C.wav",70
Sample,86032,0,"bass2.wav",70
Sample,86032,0,"W 4F.wav",70
Sample,86032,0,"X 5A.wav",70
Sample,86310,0,"X 5G.wav",70
Sample,86310,0,"bass2.wav",70
Sample,86310,0,"W 4C.wav",70
Sample,86587,0,"W 4F.wav",70
Sample,86587,0,"X 5F.wav",70
Sample,86587,0,"bass2.wav",70
Sample,86865,0,"bass2.wav",70
Sample,86865,0,"X 5E.wav",70
Sample,86865,0,"W 4C.wav",70
Sample,86865,0,"drum.wav",70
Sample,87143,0,"W 4E.wav",70
Sample,87143,0,"bass2.wav",70
Sample,87421,0,"bass2.wav",70
Sample,87421,0,"W 4C.wav",70
Sample,87699,0,"W 4E.wav",70
Sample,87699,0,"bass2.wav",70
Sample,87976,0,"drum.wav",70
Sample,87976,0,"bass2.wav",70
Sample,87976,0,"W 4C.wav",70
Sample,88254,0,"bass2.wav",70
Sample,88254,0,"W 4E.wav",70
Sample,88532,0,"bass2.wav",70
Sample,88532,0,"W 4C.wav",70
Sample,88810,0,"bass2.wav",70
Sample,88810,0,"W 4E.wav",70
Sample,89087,0,"drum.wav",70
Sample,89087,0,"X 6C.wav",70
Sample,89087,0,"bass2.wav",70
Sample,89087,0,"W 3A+.wav",70
Sample,89365,0,"X 5A+.wav",70
Sample,89365,0,"bass2.wav",70
Sample,89365,0,"W 4D.wav",70
Sample,89643,0,"pa.wav",70
Sample,89643,0,"W 3A+.wav",70
Sample,89643,0,"bass2.wav",70
Sample,89643,0,"X 5A.wav",70
Sample,89643,0,"drum.wav",70
Sample,89921,0,"bass2.wav",70
Sample,89921,0,"W 4D.wav",70
Sample,89921,0,"X 5G.wav",70
Sample,90199,0,"W 3A+.wav",70
Sample,90199,0,"bass2.wav",70
Sample,90199,0,"X 5F.wav",70
Sample,90199,0,"pa.wav",70
Sample,90476,0,"drum.wav",70
Sample,90476,0,"bass2.wav",70
Sample,90476,0,"X 5E.wav",70
Sample,90476,0,"W 4D.wav",70
Sample,90754,0,"bass2.wav",70
Sample,90754,0,"W 3A+.wav",70
Sample,90754,0,"X 5D.wav",70
Sample,91032,0,"bass2.wav",70
Sample,91032,0,"W 4D.wav",70
Sample,91032,0,"X 5C.wav",70
Sample,91310,0,"bass2.wav",70
Sample,91310,0,"W 3A+.wav",70
Sample,91310,0,"X 5F.wav",70

[TimingPoints]
199,555.555555555556,4,1,1,20,1,0
22421,-100,4,1,1,20,0,1
37976,-100,4,1,1,20,0,0
75754,-100,4,1,1,20,0,1
91310,-100,4,1,1,20,0,0

[HitObjects]
64,192,199,5,0,0:0:0:70:Z 5C.wav
448,192,476,1,0,0:0:0:70:Z 4F.wav
64,192,754,5,0,0:0:0:70:Z 5C.wav
448,192,1032,1,0,0:0:0:70:Z 4F.wav
64,192,1310,5,0,0:0:0:70:Z 5C.wav
448,192,1587,1,0,0:0:0:70:Z 4F.wav
64,192,1865,5,0,0:0:0:70:Z 5C.wav
448,192,2143,1,0,0:0:0:70:Z 4F.wav
192,192,2421,1,0,0:0:0:70:Z 5E.wav
448,192,2699,1,0,0:0:0:70:Z 4F.wav
192,192,2976,1,0,0:0:0:70:Z 5E.wav
448,192,3254,1,0,0:0:0:70:Z 4F.wav
192,192,3532,1,0,0:0:0:70:Z 5E.wav
448,192,3810,1,0,0:0:0:70:Z 4F.wav
192,192,4087,1,0,0:0:0:70:Z 5E.wav
448,192,4365,1,0,0:0:0:70:Z 4F.wav
64,192,4643,1,0,0:0:0:70:2 4a.wav
320,192,4643,1,0,0:0:0:45:Z 5F.wav
192,192,4921,1,0,0:0:0:45:Z 4F.wav
64,192,5199,1,0,0:0:0:70:1 4a.wav
320,192,5199,1,0,0:0:0:45:Z 5F.wav
448,192,5476,1,0,0:0:0:45:Z 4F.wav
192,192,5476,1,0,0:0:0:70:1 4a+.wav
64,192,5754,1,0,0:0:0:70:2 4a.wav
320,192,5754,1,0,0:0:0:45:Z 5F.wav
448,192,6032,1,0,0:0:0:45:Z 4F.wav
192,192,6310,1,0,0:0:0:45:Z 5F.wav
64,192,6310,1,0,0:0:0:70:1 4g.wav
448,192,6587,1,0,0:0:0:45:Z 4F.wav
320,192,6587,1,0,0:0:0:70:1 4f.wav
192,192,6865,1,0,0:0:0:45:Z 5E.wav
64,192,6865,1,0,0:0:0:70:1 4g.wav
448,192,7143,1,0,0:0:0:70:1 4g.wav
320,192,7143,1,0,0:0:0:45:Z 4C.wav
64,192,7421,1,0,0:0:0:70:1 4g.wav
192,192,7421,1,0,0:0:0:45:Z 5E.wav
448,192,7699,1,0,0:0:0:70:1 4a.wav
320,192,7699,1,0,0:0:0:45:Z 4C.wav
64,192,7976,1,0,0:0:0:70:2 4C.wav
192,192,7976,1,0,0:0:0:45:Z 5E.wav
320,192,8254,1,0,0:0:0:45:Z 4C.wav
192,192,8532,1,0,0:0:0:45:Z 5E.wav
320,192,8810,1,0,0:0:0:45:Z 4C.wav
64,192,9087,1,0,0:0:0:70:2 4D.wav
448,192,9087,1,0,0:0:0:45:Z 5D.wav
192,192,9365,1,0,0:0:0:45:Z 3A+.wav
64,192,9643,1,0,0:0:0:70:1 4d.wav
448,192,9643,1,0,0:0:0:45:Z 5D.wav
320,192,9921,1,0,0:0:0:70:1 4e.wav
192,192,9921,1,0,0:0:0:45:Z 3A+.wav
64,192,10199,1,0,0:0:0:70:2 4F.wav
448,192,10199,1,0,0:0:0:45:Z 5D.wav
320,192,10476,1,0,0:0:0:45:Z 3A+.wav
64,192,10754,1,0,0:0:0:70:1 4d.wav
192,192,10754,1,0,0:0:0:45:Z 5D.wav
448,192,11032,1,0,0:0:0:70:1 4c.wav
320,192,11032,1,0,0:0:0:45:Z 3A+.wav
64,192,11310,1,0,0:0:0:45:Z 4A+.wav
192,192,11310,1,0,0:0:0:70:1 4c.wav
320,192,11587,1,0,0:0:0:70:1 4c.wav
448,192,11587,1,0,0:0:0:45:Z 4C.wav
64,192,11865,1,0,0:0:0:45:Z 4A.wav
192,192,11865,1,0,0:0:0:70:1 4c.wav
320,192,12143,1,0,0:0:0:70:1 4a.wav
448,192,12143,1,0,0:0:0:45:Z 4C.wav
64,192,12421,1,0,0:0:0:45:Z 4G.wav
192,192,12421,1,0,0:0:0:70:2 4a.wav
448,192,12699,1,0,0:0:0:45:Z 4C.wav
64,192,12976,1,0,0:0:0:45:Z 4F.wav
448,192,13254,1,0,0:0:0:45:Z 4C.wav
192,192,13532,1,0,0:0:0:45:Z 5C.wav
64,192,13532,1,0,0:0:0:70:2 4A.wav
320,192,13810,1,0,0:0:0:45:Z 4F.wav
64,192,14087,1,0,0:0:0:70:1 4a.wav
192,192,14087,1,0,0:0:0:45:Z 5C.wav
448,192,14365,1,0,0:0:0:70:1 4a+.wav
320,192,14365,1,0,0:0:0:45:Z 4F.wav
64,192,14643,1,0,0:0:0:70:2 5C.wav
192,192,14643,1,0,0:0:0:45:Z 5C.wav
320,192,14921,1,0,0:0:0:45:Z 4F.wav
448,192,15199,1,0,0:0:0:70:1 4a.wav
192,192,15199,1,0,0:0:0:45:Z 5C.wav
64,192,15476,1,0,0:0:0:70:1 4f.wav
320,192,15476,1,0,0:0:0:45:Z 4F.wav
448,192,15754,1,0,0:0:0:45:Z 5E.wav
192,192,15754,1,0,0:0:0:70:1 4g.wav
64,192,16032,1,0,0:0:0:70:1 4g.wav
320,192,16032,1,0,0:0:0:45:Z 4C.wav
192,192,16310,1,0,0:0:0:70:1 4g.wav
448,192,16310,1,0,0:0:0:45:Z 5E.wav
64,192,16587,1,0,0:0:0:70:1 5c.wav
320,192,16587,1,0,0:0:0:45:Z 4C.wav
192,192,16865,1,0,0:0:0:70:2 4G.wav
448,192,16865,1,0,0:0:0:45:Z 5E.wav
320,192,17143,1,0,0:0:0:45:Z 4C.wav
64,192,17421,1,0,0:0:0:45:Z 5E.wav
320,192,17699,1,0,0:0:0:45:Z 4C.wav
64,192,17976,1,0,0:0:0:70:2 4F.wav
448,192,17976,1,0,0:0:0:45:Z 5F.wav
192,192,18254,1,0,0:0:0:45:Z 3A+.wav
320,192,18532,1,0,0:0:0:70:1 4c.wav
448,192,18532,1,0,0:0:0:45:Z 5F.wav
64,192,18810,1,0,0:0:0:70:1 4f.wav
192,192,18810,1,0,0:0:0:45:Z 3A+.wav
448,192,19087,1,0,0:0:0:45:Z 5A.wav
320,192,19087,1,0,0:0:0:70:2 4A.wav
192,192,19365,1,0,0:0:0:45:Z 3A+.wav
64,192,19643,1,0,0:0:0:70:2 5C.wav
448,192,19643,1,0,0:0:0:45:Z 5A.wav
320,192,19921,1,0,0:0:0:45:Z 3A+.wav
64,192,20199,1,0,0:0:0:70:1 4a+.wav
448,192,20199,1,0,0:0:0:70:Z 5A+.wav
192,192,20476,1,0,0:0:0:70:1 4a+.wav
320,192,20476,1,0,0:0:0:70:Z 5A+.wav
64,192,20754,1,0,0:0:0:70:1 4a.wav
448,192,20754,1,0,0:0:0:70:Z 5A.wav
320,192,21032,1,0,0:0:0:70:Z 5G.wav
192,192,21032,1,0,0:0:0:70:1 4g.wav
448,192,21310,1,0,0:0:0:70:Z 5F.wav
64,192,21310,1,0,0:0:0:70:1 4f.wav
64,192,21865,1,0,0:0:0:70:1 4f.wav
320,192,21865,1,8,0:0:0:0:
192,192,21865,1,0,0:0:0:35:1 4e.wav
192,192,22143,1,0,0:0:0:70:1 4g.wav
448,192,22143,1,8,0:0:0:0:
64,192,22143,1,0,0:0:0:35:1 4f+.wav
64,192,22421,1,0,0:0:0:70:2 4A.wav
448,192,22421,1,0,0:0:0:70:Z 5F.wav
320,192,22421,1,0,0:0:0:70:gu.wav
320,192,22699,1,0,0:0:0:70:Z 5C.wav
64,192,22976,1,0,0:0:0:70:2 4G.wav
320,192,22976,1,0,0:0:0:70:pa.wav
192,192,22976,1,0,0:0:0:70:Z 5F.wav
320,192,23254,1,0,0:0:0:70:Z 5C.wav
320,192,23532,1,0,0:0:0:70:Z 5F.wav
448,192,23532,1,0,0:0:0:70:gu.wav
192,192,23810,1,0,0:0:0:70:gu.wav
320,192,23810,1,0,0:0:0:70:Z 5C.wav
192,192,24087,1,0,0:0:0:70:Z 5F.wav
64,192,24087,1,0,0:0:0:70:1 4f.wav
320,192,24087,1,0,0:0:0:70:pa.wav
192,192,24365,1,0,0:0:0:70:1 4f.wav
448,192,24365,1,0,0:0:0:0:
320,192,24365,1,0,0:0:0:70:Z 5C.wav
64,192,24643,1,0,0:0:0:70:1 4g.wav
192,192,24643,1,0,0:0:0:70:Z 5G.wav
448,192,24643,1,0,0:0:0:70:gu.wav
448,192,24921,1,0,0:0:0:0:
320,192,24921,1,0,0:0:0:70:Z 5C.wav
64,192,24921,1,0,0:0:0:70:1 4g.wav
64,192,25199,1,0,0:0:0:70:2 4C.wav
320,192,25199,1,0,0:0:0:70:pa.wav
192,192,25199,1,0,0:0:0:70:Z 5G.wav
448,192,25476,1,0,0:0:0:70:Z 5C.wav
448,192,25754,1,0,0:0:0:70:gu.wav
320,192,25754,1,0,0:0:0:70:Z 5G.wav
64,192,26032,1,0,0:0:0:70:gu.wav
192,192,26032,1,0,0:0:0:70:Z 5C.wav
448,192,26310,1,0,0:0:0:70:Z 5G.wav
192,192,26310,1,0,0:0:0:70:1 4f.wav
320,192,26310,1,0,0:0:0:70:pa.wav
64,192,26587,1,0,0:0:0:70:1 4g.wav
320,192,26587,1,0,0:0:0:70:Z 5C.wav
320,192,26865,1,0,0:0:0:70:Z 5A+.wav
192,192,26865,1,0,0:0:0:70:2 4A.wav
448,192,26865,1,0,0:0:0:70:gu.wav
192,192,27143,1,0,0:0:0:70:Z 4A+.wav
448,192,27421,1,0,0:0:0:70:pa.wav
64,192,27421,1,0,0:0:0:70:2 4G.wav
192,192,27421,1,0,0:0:0:70:Z 5A+.wav
192,192,27699,1,0,0:0:0:70:Z 4A+.wav
192,192,27976,1,0,0:0:0:70:gu.wav
320,192,27976,1,0,0:0:0:70:Z 5A+.wav
320,192,28254,1,0,0:0:0:70:gu.wav
192,192,28254,1,0,0:0:0:70:Z 4A+.wav
192,192,28532,1,0,0:0:0:70:Z 5A+.wav
64,192,28532,1,0,0:0:0:70:1 4f.wav
448,192,28532,1,0,0:0:0:70:pa.wav
448,192,28810,1,0,0:0:0:0:
320,192,28810,1,0,0:0:0:70:1 4f.wav
192,192,28810,1,0,0:0:0:70:Z 4A+.wav
64,192,29087,1,0,0:0:0:70:2 5C.wav
320,192,29087,1,0,0:0:0:70:Z 5F.wav
448,192,29087,1,0,0:0:0:70:gu.wav
192,192,29365,1,0,0:0:0:70:Z 5C.wav
192,192,29643,1,0,0:0:0:70:Z 5F.wav
64,192,29643,1,0,0:0:0:70:2 4A.wav
448,192,29643,1,0,0:0:0:70:pa.wav
320,192,29921,1,0,0:0:0:70:Z 5C.wav
192,192,30199,1,0,0:0:0:70:Z 5A.wav
448,192,30199,1,0,0:0:0:70:gu.wav
64,192,30476,1,0,0:0:0:70:gu.wav
320,192,30476,1,0,0:0:0:70:Z 5C.wav
448,192,30754,1,0,0:0:0:70:Z 5F.wav
192,192,30754,1,0,0:0:0:70:1 4f.wav
320,192,30754,1,0,0:0:0:70:pa.wav
320,192,31032,1,0,0:0:0:70:1 4g.wav
192,192,31032,1,0,0:0:0:70:Z 5C.wav
64,192,31032,1,0,0:0:0:0:
320,192,31310,1,0,0:0:0:70:Z 5F.wav
64,192,31310,1,0,0:0:0:70:2 4A.wav
448,192,31310,1,0,0:0:0:70:gu.wav
448,192,31587,1,0,0:0:0:70:Z 5C.wav
192,192,31865,1,0,0:0:0:70:Z 5F.wav
64,192,31865,1,0,0:0:0:70:2 4G.wav
448,192,31865,1,0,0:0:0:70:pa.wav
448,192,32143,1,0,0:0:0:70:Z 5C.wav
64,192,32421,1,0,0:0:0:70:Z 5F.wav
448,192,32421,1,0,0:0:0:70:gu.wav
64,192,32699,1,0,0:0:0:70:gu.wav
448,192,32699,1,0,0:0:0:70:Z 5C.wav
320,192,32976,1,0,0:0:0:70:Z 5F.wav
192,192,32976,1,0,0:0:0:70:1 4f.wav
448,192,32976,1,0,0:0:0:70:pa.wav
64,192,33254,1,0,0:0:0:70:1 4f.wav
192,192,33254,1,0,0:0:0:0:
448,192,33254,1,0,0:0:0:70:Z 5C.wav
320,192,33532,1,0,0:0:0:70:Z 5G.wav
64,192,33532,1,0,0:0:0:70:1 4g.wav
448,192,33532,1,0,0:0:0:70:gu.wav
320,192,33810,1,0,0:0:0:70:Z 5C.wav
192,192,33810,1,0,0:0:0:0:
64,192,33810,1,0,0:0:0:70:1 4g.wav
64,192,34087,1,0,0:0:0:70:2 4C.wav
448,192,34087,1,0,0:0:0:70:pa.wav
192,192,34087,1,0,0:0:0:70:Z 5G.wav
192,192,34365,1,0,0:0:0:70:Z 5C.wav
64,192,34643,1,0,0:0:0:70:gu.wav
320,192,34643,1,0,0:0:0:70:Z 5G.wav
192,192,34921,1,0,0:0:0:70:Z 5C.wav
320,192,34921,1,0,0:0:0:70:gu.wav
64,192,35199,1,0,0:0:0:70:1 4f.wav
448,192,35199,1,0,0:0:0:70:pa.wav
192,192,35199,1,0,0:0:0:70:Z 5G.wav
448,192,35476,1,0,0:0:0:0:
320,192,35476,1,0,0:0:0:70:Z 5C.wav
192,192,35476,1,0,0:0:0:70:1 4g.wav
320,192,35754,1,0,0:0:0:70:Z 5F.wav
64,192,35754,1,0,0:0:0:70:2 4A.wav
448,192,35754,1,0,0:0:0:70:gu.wav
64,192,36032,1,0,0:0:0:70:Z 4A+.wav
64,192,36310,1,0,0:0:0:70:2 4G.wav
192,192,36310,1,0,0:0:0:70:pa.wav
320,192,36310,1,0,0:0:0:70:Z 5F.wav
64,192,36587,1,0,0:0:0:70:Z 4A+.wav
64,192,36865,1,0,0:0:0:0:
448,192,36865,1,0,0:0:0:70:gu.wav
320,192,36865,1,0,0:0:0:70:Z 5A.wav
192,192,37143,1,0,0:0:0:70:gu.wav
64,192,37143,1,0,0:0:0:70:Z 4A+.wav
64,192,37421,1,0,0:0:0:70:1 4f.wav
320,192,37421,1,0,0:0:0:70:pa.wav
192,192,37421,1,0,0:0:0:70:Z 5F.wav
320,192,37699,1,0,0:0:0:70:Z 4A+.wav
64,192,37699,1,0,0:0:0:70:1 4g.wav
192,192,37699,128,0,39921:0:0:0:70:boynextdoor.wav
320,192,37976,128,0,39921:0:0:0:70:fuckass.wav
448,192,37976,128,0,39921:0:0:0:70:gu.wav
64,192,37976,128,0,39921:0:0:0:70:4 4f.wav
192,192,40199,1,0,0:0:0:70:H5A.wav
448,192,40199,128,0,41865:0:0:0:70:X3 5C.wav
192,192,40754,1,0,0:0:0:70:H5A.wav
192,192,41310,1,0,0:0:0:70:H5A.wav
192,192,41865,128,0,42421:0:0:0:70:X1 4E.wav
320,192,41865,1,0,0:0:0:70:H5A.wav
320,192,42421,128,0,44643:0:0:0:70:X4 4D.wav
64,192,42421,1,0,0:0:0:70:H6C.wav
64,192,42976,1,0,0:0:0:70:H6C.wav
64,192,43532,1,0,0:0:0:70:H6C.wav
64,192,44087,1,0,0:0:0:70:H6C.wav
448,192,44643,1,0,0:0:0:70:H5A+.wav
64,192,44643,128,0,46310:0:0:0:70:X3 4A+.wav
448,192,45199,1,0,0:0:0:70:H5A+.wav
448,192,45754,1,0,0:0:0:70:H5A+.wav
192,192,46310,1,0,0:0:0:70:H5A+.wav
448,192,46310,128,0,46865:0:0:0:70:X1 4G.wav
64,192,46865,1,0,0:0:0:70:H5A.wav
320,192,46865,128,0,49087:0:0:0:70:X4 4C.wav
64,192,47421,1,0,0:0:0:70:H5A.wav
64,192,47976,1,0,0:0:0:70:H5A.wav
64,192,48532,1,0,0:0:0:70:H5A.wav
448,192,49087,1,0,0:0:0:70:H6C.wav
192,192,49087,128,0,50754:0:0:0:70:X3 5C.wav
448,192,49643,1,0,0:0:0:70:H6C.wav
448,192,50199,1,0,0:0:0:70:H6C.wav
64,192,50754,1,0,0:0:0:70:H6C.wav
448,192,50754,128,0,51310:0:0:0:70:X1 5D.wav
64,192,51310,128,0,53532:0:0:0:70:X4 4A+.wav
320,192,51310,1,0,0:0:0:70:H5A+.wav
320,192,51865,1,0,0:0:0:70:H5A+.wav
320,192,52421,1,0,0:0:0:70:H5A+.wav
320,192,52976,1,0,0:0:0:70:H5A+.wav
320,192,53532,128,0,55199:0:0:0:70:X3 4A+.wav
192,192,53532,1,0,0:0:0:70:H6C-.wav
192,192,54087,1,0,0:0:0:70:H6C-.wav
192,192,54643,1,0,0:0:0:70:H6C-.wav
448,192,55199,1,0,0:0:0:70:H6C-.wav
192,192,55199,128,0,55754:0:0:0:70:X1 5C.wav
448,192,55754,1,0,0:0:0:70:H5A.wav
64,192,55754,128,0,57976:0:0:0:70:X4 4A.wav
448,192,56310,1,0,0:0:0:70:H5A.wav
448,192,56865,1,0,0:0:0:70:H5A.wav
448,192,57421,1,0,0:0:0:70:H5A.wav
448,192,57976,1,0,0:0:0:70:2 4a.wav
320,192,57976,1,0,0:0:0:70:gu.wav
192,192,57976,1,0,0:0:0:0:
192,192,58254,1,0,0:0:0:0:
448,192,58532,1,0,0:0:0:70:1 4a.wav
320,192,58532,1,8,0:0:0:0:
192,192,58810,1,0,0:0:0:70:1 4a+.wav
64,192,58810,1,0,0:0:0:0:
320,192,58810,1,0,0:0:0:70:gu.wav
192,192,59087,1,0,0:0:0:70:2 4a.wav
448,192,59087,1,0,0:0:0:0:
192,192,59365,1,0,0:0:0:0:
320,192,59365,1,0,0:0:0:0:
64,192,59365,1,0,0:0:0:70:gu.wav
64,192,59643,1,0,0:0:0:70:1 4g.wav
448,192,59643,1,8,0:0:0:0:
192,192,59921,1,0,0:0:0:0:
320,192,59921,1,0,0:0:0:70:1 4f.wav
64,192,60199,1,0,0:0:0:70:1 4g.wav
192,192,60199,1,0,0:0:0:0:
448,192,60199,1,0,0:0:0:70:gu.wav
320,192,60476,1,0,0:0:0:70:gu.wav
448,192,60476,1,0,0:0:0:70:1 4g.wav
64,192,60476,1,0,0:0:0:0:
192,192,60754,1,8,0:0:0:0:
320,192,60754,1,0,0:0:0:70:1 4g.wav
64,192,61032,1,0,0:0:0:70:1 4a.wav
448,192,61032,1,0,0:0:0:0:
64,192,61310,1,0,0:0:0:70:2 4C.wav
320,192,61310,1,0,0:0:0:0:
448,192,61587,1,0,0:0:0:0:
192,192,61587,1,0,0:0:0:0:
320,192,61587,1,0,0:0:0:70:gu.wav
64,192,61865,1,0,0:0:0:0:
448,192,61865,1,8,0:0:0:0:
64,192,62143,1,0,0:0:0:0:
448,192,62143,1,8,0:0:0:0:
64,192,62421,1,0,0:0:0:70:2 4D.wav
192,192,62421,1,0,0:0:0:0:
320,192,62421,1,0,0:0:0:70:gu.wav
320,192,62699,1,0,0:0:0:0:
192,192,62976,1,0,0:0:0:70:1 4d.wav
448,192,62976,1,8,0:0:0:0:
192,192,63254,1,0,0:0:0:70:1 4e.wav
64,192,63254,1,0,0:0:0:0:
320,192,63254,1,0,0:0:0:70:gu.wav
320,192,63532,1,0,0:0:0:70:2 4F.wav
448,192,63532,1,0,0:0:0:0:
192,192,63810,1,0,0:0:0:0:
64,192,63810,1,0,0:0:0:0:
448,192,63810,1,0,0:0:0:70:gu.wav
320,192,64087,1,8,0:0:0:0:
192,192,64087,1,0,0:0:0:70:1 4d.wav
448,192,64365,1,8,0:0:0:0:
64,192,64365,1,0,0:0:0:70:1 4c.wav
192,192,64643,1,0,0:0:0:70:1 4c.wav
64,192,64643,1,0,0:0:0:0:
320,192,64643,1,0,0:0:0:70:gu.wav
448,192,64921,1,0,0:0:0:0:
320,192,64921,1,0,0:0:0:70:1 4c.wav
192,192,65199,1,0,0:0:0:70:1 4c.wav
64,192,65199,1,8,0:0:0:0:
192,192,65476,1,0,0:0:0:70:1 4a.wav
448,192,65476,1,0,0:0:0:0:
320,192,65754,1,0,0:0:0:70:2 4a.wav
64,192,65754,1,0,0:0:0:0:
448,192,65754,1,0,0:0:0:70:gu.wav
192,192,66032,1,0,0:0:0:0:
64,192,66032,1,0,0:0:0:0:
448,192,66032,1,0,0:0:0:70:gu.wav
192,192,66310,1,0,0:0:0:0:
320,192,66310,1,8,0:0:0:0:
320,192,66587,1,0,0:0:0:0:
192,192,66587,1,8,0:0:0:0:
64,192,66865,1,0,0:0:0:70:2 4A.wav
320,192,66865,1,0,0:0:0:0:
448,192,66865,1,0,0:0:0:70:gu.wav
448,192,67143,1,0,0:0:0:0:
192,192,67421,1,0,0:0:0:70:1 4a.wav
320,192,67421,1,8,0:0:0:0:
192,192,67699,1,0,0:0:0:70:1 4a+.wav
64,192,67699,1,0,0:0:0:0:
448,192,67699,1,0,0:0:0:70:gu.wav
448,192,67976,1,0,0:0:0:0:
320,192,67976,1,0,0:0:0:70:2 5C.wav
320,192,68254,1,0,0:0:0:0:
192,192,68254,1,0,0:0:0:0:
64,192,68254,1,0,0:0:0:70:gu.wav
192,192,68532,1,0,0:0:0:70:1 4a.wav
64,192,68532,1,8,0:0:0:0:
320,192,68810,1,8,0:0:0:0:
448,192,68810,1,0,0:0:0:70:1 4f.wav
192,192,69087,1,0,0:0:0:70:1 4g.wav
64,192,69087,1,0,0:0:0:0:
448,192,69087,1,0,0:0:0:70:gu.wav
448,192,69365,1,0,0:0:0:70:gu.wav
320,192,69365,1,0,0:0:0:70:1 4g.wav
192,192,69365,1,0,0:0:0:0:
192,192,69643,1,8,0:0:0:0:
64,192,69643,1,0,0:0:0:70:1 4g.wav
64,192,69921,1,0,0:0:0:70:1 5c.wav
320,192,69921,1,0,0:0:0:0:
320,192,70199,1,0,0:0:0:0:
192,192,70199,1,0,0:0:0:70:2 4G.wav
64,192,70476,1,0,0:0:0:0:
192,192,70476,1,0,0:0:0:0:
448,192,70476,1,0,0:0:0:70:gu.wav
64,192,70754,1,0,0:0:0:0:
320,192,70754,1,8,0:0:0:0:
320,192,71032,1,8,0:0:0:0:
64,192,71032,1,0,0:0:0:0:
192,192,71310,1,0,0:0:0:70:2 4F.wav
320,192,71310,1,0,0:0:0:70:gu.wav
448,192,71310,1,0,0:0:0:70:drum.wav
64,192,71587,1,0,0:0:0:0:
192,192,71865,1,0,0:0:0:70:drum.wav
448,192,71865,1,0,0:0:0:0:
320,192,71865,1,0,0:0:0:70:1 4c.wav
64,192,72143,1,0,0:0:0:70:1 4f.wav
192,192,72143,1,0,0:0:0:0:
320,192,72143,1,0,0:0:0:70:gu.wav
448,192,72421,1,0,0:0:0:70:drum.wav
320,192,72421,1,0,0:0:0:70:2 4A.wav
64,192,72421,1,0,0:0:0:0:
448,192,72699,1,0,0:0:0:70:gu.wav
192,192,72699,1,0,0:0:0:0:
320,192,72699,1,0,0:0:0:0:
64,192,72976,1,0,0:0:0:70:2 5C.wav
448,192,72976,1,0,0:0:0:0:
192,192,72976,1,0,0:0:0:70:drum.wav
320,192,73254,1,0,0:0:0:0:
448,192,73532,1,0,0:0:0:70:drum.wav
64,192,73532,1,0,0:0:0:70:1 4a+.wav
320,192,73532,1,0,0:0:0:0:
192,192,73532,1,0,0:0:0:0:
448,192,73810,1,0,0:0:0:70:drum.wav
320,192,73810,1,0,0:0:0:0:
192,192,73810,1,0,0:0:0:70:1 4a+.wav
64,192,73810,1,0,0:0:0:0:
448,192,74087,1,0,0:0:0:70:drum.wav
64,192,74087,1,0,0:0:0:70:1 4a.wav
320,192,74087,1,0,0:0:0:0:
192,192,74087,1,0,0:0:0:0:
448,192,74365,1,0,0:0:0:70:drum.wav
192,192,74365,1,0,0:0:0:70:1 4g.wav
320,192,74365,1,0,0:0:0:0:
64,192,74365,1,0,0:0:0:0:
448,192,74643,1,0,0:0:0:70:drum.wav
64,192,74643,1,0,0:0:0:70:1 4f.wav
320,192,74643,1,0,0:0:0:0:
192,192,74643,1,0,0:0:0:0:
448,192,75199,1,0,0:0:0:70:1 4f.wav
192,192,75199,1,0,0:0:0:35:1 4e.wav
320,192,75199,1,8,0:0:0:0:
192,192,75476,1,0,0:0:0:70:1 4g.wav
320,192,75476,1,0,0:0:0:35:1 4f+.wav
448,192,75476,1,8,0:0:0:0:
64,192,75754,1,0,0:0:0:70:2 4A.wav
448,192,75754,1,0,0:0:0:70:Z 5F.wav
320,192,75754,1,0,0:0:0:70:gu.wav
192,192,75754,1,4,0:0:0:0:
192,192,76032,1,0,0:0:0:70:Z 5C.wav
64,192,76032,1,0,0:0:0:70:drum.wav
64,192,76310,1,0,0:0:0:70:2 4G.wav
320,192,76310,1,0,0:0:0:70:pa.wav
192,192,76310,1,0,0:0:0:70:Z 5F.wav
448,192,76310,1,0,0:0:0:70:drum.wav
64,192,76587,1,0,0:0:0:70:Z 5C.wav
64,192,76865,1,0,0:0:0:70:Z 5F.wav
192,192,76865,1,0,0:0:0:70:gu.wav
64,192,77143,1,0,0:0:0:70:gu.wav
320,192,77143,1,0,0:0:0:70:Z 5C.wav
448,192,77421,1,0,0:0:0:70:drum.wav
192,192,77421,1,0,0:0:0:70:Z 5F.wav
64,192,77421,1,0,0:0:0:70:1 4f.wav
320,192,77421,1,0,0:0:0:70:pa.wav
64,192,77699,1,0,0:0:0:70:1 4f.wav
448,192,77699,1,0,0:0:0:0:
192,192,77699,1,0,0:0:0:70:Z 5C.wav
192,192,77976,1,0,0:0:0:70:1 4g.wav
320,192,77976,1,0,0:0:0:70:Z 5G.wav
448,192,77976,1,0,0:0:0:70:gu.wav
320,192,78254,1,0,0:0:0:0:
192,192,78254,1,0,0:0:0:70:Z 5C.wav
64,192,78254,1,0,0:0:0:70:1 4g.wav
448,192,78532,1,0,0:0:0:70:drum.wav
64,192,78532,1,0,0:0:0:70:2 4C.wav
320,192,78532,1,0,0:0:0:70:pa.wav
192,192,78532,1,0,0:0:0:70:Z 5G.wav
448,192,78810,1,0,0:0:0:70:Z 5C.wav
192,192,79087,1,0,0:0:0:70:gu.wav
320,192,79087,1,0,0:0:0:70:Z 5G.wav
64,192,79365,1,0,0:0:0:70:gu.wav
320,192,79365,1,0,0:0:0:70:Z 5C.wav
64,192,79643,1,0,0:0:0:70:drum.wav
192,192,79643,1,0,0:0:0:70:1 4f.wav
320,192,79643,1,0,0:0:0:70:pa.wav
448,192,79643,1,0,0:0:0:70:Z 5G.wav
64,192,79921,1,0,0:0:0:70:1 4g.wav
448,192,79921,1,0,0:0:0:70:Z 5C.wav
192,192,79921,1,0,0:0:0:0:
320,192,80199,1,0,0:0:0:70:Z 5A+.wav
192,192,80199,1,0,0:0:0:70:2 4A.wav
448,192,80199,1,0,0:0:0:70:gu.wav
320,192,80476,1,0,0:0:0:70:Z 4A+.wav
64,192,80476,1,0,0:0:0:70:drum.wav
448,192,80754,1,0,0:0:0:70:pa.wav
64,192,80754,1,0,0:0:0:70:2 4G.wav
192,192,80754,1,0,0:0:0:70:Z 5A+.wav
320,192,80754,1,0,0:0:0:70:drum.wav
320,192,81032,1,0,0:0:0:70:Z 4A+.wav
64,192,81310,1,0,0:0:0:70:gu.wav
320,192,81310,1,0,0:0:0:70:Z 5A+.wav
192,192,81587,1,0,0:0:0:70:gu.wav
320,192,81587,1,0,0:0:0:70:Z 4A+.wav
320,192,81865,1,0,0:0:0:70:drum.wav
192,192,81865,1,0,0:0:0:70:Z 5A+.wav
64,192,81865,1,0,0:0:0:70:1 4f.wav
448,192,81865,1,0,0:0:0:70:pa.wav
64,192,82143,1,0,0:0:0:0:
320,192,82143,1,0,0:0:0:70:1 4f.wav
192,192,82143,1,0,0:0:0:70:Z 4A+.wav
64,192,82421,1,0,0:0:0:70:2 5C.wav
320,192,82421,1,0,0:0:0:70:Z 5F.wav
448,192,82421,1,0,0:0:0:70:gu.wav
192,192,82699,1,0,0:0:0:70:Z 5C.wav
192,192,82976,1,0,0:0:0:70:Z 5F.wav
64,192,82976,1,0,0:0:0:70:2 4A.wav
448,192,82976,1,0,0:0:0:70:pa.wav
320,192,82976,1,0,0:0:0:70:drum.wav
64,192,83254,1,0,0:0:0:70:Z 5C.wav
320,192,83532,1,0,0:0:0:70:Z 5A.wav
448,192,83532,1,0,0:0:0:70:drum.wav
64,192,83671,1,0,0:0:0:70:drum.wav
192,192,83671,1,0,0:0:0:0:
320,192,83810,1,0,0:0:0:70:gu.wav
448,192,83810,1,0,0:0:0:70:Z 5C.wav
64,192,83949,1,0,0:0:0:0:
192,192,83949,1,0,0:0:0:70:drum.wav
448,192,84087,1,0,0:0:0:70:Z 5F.wav
320,192,84087,1,0,0:0:0:70:1 4f.wav
64,192,84365,1,0,0:0:0:0:
320,192,84365,1,0,0:0:0:70:1 4g.wav
192,192,84365,1,0,0:0:0:70:Z 5C.wav
320,192,84643,1,0,0:0:0:70:Z 5F.wav
64,192,84643,1,0,0:0:0:70:2 4A.wav
448,192,84643,1,0,0:0:0:70:gu.wav
192,192,84643,1,0,0:0:0:70:drum.wav
448,192,84921,1,0,0:0:0:70:Z 5C.wav
64,192,84921,1,0,0:0:0:70:drum.wav
64,192,85199,1,0,0:0:0:70:2 4G.wav
448,192,85199,1,0,0:0:0:70:pa.wav
192,192,85199,1,0,0:0:0:70:drum.wav
320,192,85199,1,0,0:0:0:70:Z 5F.wav
64,192,85476,1,0,0:0:0:70:Z 5C.wav
64,192,85754,1,0,0:0:0:70:Z 5F.wav
192,192,85754,1,0,0:0:0:70:gu.wav
64,192,86032,1,0,0:0:0:70:gu.wav
448,192,86032,1,0,0:0:0:70:Z 5C.wav
64,192,86310,1,0,0:0:0:70:1 4f.wav
320,192,86310,1,0,0:0:0:70:Z 5F.wav
448,192,86310,1,0,0:0:0:70:pa.wav
192,192,86310,1,0,0:0:0:70:drum.wav
64,192,86587,1,0,0:0:0:70:1 4f.wav
320,192,86587,1,0,0:0:0:0:
448,192,86587,1,0,0:0:0:70:Z 5C.wav
320,192,86865,1,0,0:0:0:70:Z 5G.wav
192,192,86865,1,0,0:0:0:70:1 4g.wav
448,192,86865,1,0,0:0:0:70:gu.wav
320,192,87143,1,0,0:0:0:70:Z 5C.wav
192,192,87143,1,0,0:0:0:0:
64,192,87143,1,0,0:0:0:70:1 4g.wav
64,192,87421,1,0,0:0:0:70:2 4C.wav
448,192,87421,1,0,0:0:0:70:pa.wav
192,192,87421,1,0,0:0:0:70:Z 5G.wav
320,192,87421,1,0,0:0:0:70:drum.wav
64,192,87699,1,0,0:0:0:70:Z 5C.wav
192,192,87976,1,0,0:0:0:70:gu.wav
448,192,87976,1,0,0:0:0:70:Z 5G.wav
192,192,88254,1,0,0:0:0:70:Z 5C.wav
320,192,88254,1,0,0:0:0:70:gu.wav
64,192,88532,1,0,0:0:0:70:1 4f.wav
448,192,88532,1,0,0:0:0:70:pa.wav
320,192,88532,1,0,0:0:0:70:Z 5G.wav
192,192,88532,1,0,0:0:0:70:drum.wav
320,192,88810,1,0,0:0:0:0:
64,192,88810,1,0,0:0:0:70:Z 5C.wav
192,192,88810,1,0,0:0:0:70:1 4g.wav
192,192,89087,1,0,0:0:0:70:Z 5F.wav
64,192,89087,1,0,0:0:0:70:2 4A.wav
448,192,89087,1,0,0:0:0:70:gu.wav
320,192,89365,1,0,0:0:0:70:Z 4A+.wav
448,192,89365,1,8,0:0:0:0:
192,192,89365,1,0,0:0:0:70:drum.wav
320,192,89643,1,0,0:0:0:70:2 4G.wav
448,192,89643,1,0,0:0:0:70:Z 5F.wav
192,192,89782,1,0,0:0:0:70:pa.wav
64,192,89782,1,0,0:0:0:70:drum.wav
448,192,89921,1,0,0:0:0:70:Z 4A+.wav
320,192,89921,1,0,0:0:0:70:gu.wav
64,192,90199,1,0,0:0:0:70:gu.wav
192,192,90199,1,0,0:0:0:70:Z 5A.wav
320,192,90337,1,0,0:0:0:70:pa.wav
448,192,90337,1,0,0:0:0:70:drum.wav
192,192,90476,1,0,0:0:0:70:gu.wav
64,192,90476,1,0,0:0:0:70:Z 4A+.wav
64,192,90754,1,0,0:0:0:70:1 4f.wav
448,192,90754,1,0,0:0:0:70:pa.wav
320,192,90754,1,0,0:0:0:70:Z 5F.wav
192,192,90754,1,0,0:0:0:70:drum.wav
448,192,91032,1,0,0:0:0:70:Z 4A+.wav
320,192,91032,1,0,0:0:0:70:1 4g.wav
192,192,91032,128,0,93254:0:0:0:70:boynextdoor.wav
320,192,91310,128,0,93254:0:0:0:70:fuckass.wav
448,192,91310,128,0,93254:0:0:0:70:gu.wav
64,192,91310,128,0,93254:0:0:0:70:4 4f.wav
448,192,93532,1,0,0:0:0:70:X 6A.wav
64,192,93532,1,0,0:0:0:30:Z 4F.wav
448,192,94087,1,0,0:0:0:70:X 6A.wav
192,192,94365,1,0,0:0:0:70:X 6A+.wav
64,192,94643,1,0,0:0:0:30:Z 5C.wav
448,192,94643,1,0,0:0:0:70:X 7C.wav
192,192,95199,1,0,0:0:0:70:X 6A.wav
320,192,95476,1,0,0:0:0:70:X 6F.wav
192,192,95754,1,0,0:0:0:70:X 6G.wav
448,192,95754,1,0,0:0:0:30:Z 4C.wav
192,192,96032,1,0,0:0:0:70:X 6G.wav
192,192,96310,1,0,0:0:0:70:X 6G.wav
448,192,96587,1,0,0:0:0:70:X 7C.wav
192,192,96865,1,0,0:0:0:70:X 6G.wav
448,192,97976,1,0,0:0:0:70:X 6F.wav
64,192,97976,1,0,0:0:0:30:Z 3A+.wav
192,192,98254,1,0,0:0:0:30:Z 4F.wav
320,192,98532,1,0,0:0:0:30:Z 4A+.wav
192,192,99087,1,0,0:0:0:70:X 6C.wav
448,192,99365,1,0,0:0:0:30:Z 4F.wav
64,192,99643,1,0,0:0:0:70:X 5A+.wav
320,192,99921,1,0,0:0:0:30:Z 4A.wav
192,192,100199,1,0,0:0:0:70:X 5A.wav
448,192,100199,1,0,0:0:0:0:
192,192,101310,1,0,0:0:0:70:X 5F.wav
320,192,101726,1,0,0:0:0:70:X 5G.wav
64,192,102699,1,0,0:0:0:30:Z 4F.wav
192,192,102837,1,0,0:0:0:30:Z 4A.wav
448,192,102907,1,0,0:0:0:30:Z 5F.wav
64,192,102976,1,0,0:0:0:30:Z 4F.wav
