osu file format v14

[General]
AudioFilename: audio.mp3
AudioLeadIn: 0
PreviewTime: -1
Countdown: 1
SampleSet: None
StackLeniency: 0.5
Mode: 0
LetterboxInBreaks: 0
WidescreenStoryboard: 0

[Editor]
Bookmarks: 17052,64243,122220,168063,203793,227389,232782
DistanceSpacing: 0.8
BeatDivisor: 4
GridSize: 32
TimelineZoom: 1

[Metadata]
Title:Suga Suga
TitleUnicode:Suga Suga
Artist:Baby Bash
ArtistUnicode:Baby Bash
Creator:Soula Evans
Version:Insane
Source:
Tags:baby bash throwback suga suga sugar how you get so fly
BeatmapID:1577622
BeatmapSetID:748923

[Difficulty]
HPDrainRate:8
CircleSize:6
OverallDifficulty:8
ApproachRate:8.5
SliderMultiplier:1.4
SliderTickRate:2

[Events]
//Background and Video events
0,0,"IMG_1251.JPG",0,0
//Break Periods
2,20398,27986
2,65591,75028
//Storyboard Layer 0 (Background)
//Storyboard Layer 1 (Fail)
//Storyboard Layer 2 (Pass)
//Storyboard Layer 3 (Foreground)
//Storyboard Sound Samples

[TimingPoints]
6265.52808988764,674.157303370787,4,3,0,100,1,0
17052,-100,4,2,0,100,0,0
29186,-100,4,1,0,100,0,0
41321,-100,4,3,0,100,0,0
64243,-100,4,2,0,100,0,0
76377,-100,4,1,0,100,0,0
87164,-100,4,3,0,100,0,0
122220,-100,4,2,0,100,0,0
134355,-100,4,1,0,100,0,0
146490,-100,4,3,0,100,0,0
168063,-100,4,2,0,100,0,0
180872,-100,4,1,0,100,0,0
192332,-100,4,3,0,100,0,0
203793,-100,4,2,0,100,0,0
227389,-100,4,2,0,50,0,0
232782,-100,4,2,0,10,0,0

[Colours]
Combo1 : 255,128,64
Combo2 : 255,0,128
Combo3 : 0,128,192
Combo4 : 0,255,64

[HitObjects]
128,128,6490,5,0,0:0:0:0:
160,192,6939,2,0,P|224:256|320:256,1,186.666666666667
384,224,8119,1,0,0:0:0:0:
384,224,8288,1,0,0:0:0:0:
256,160,8962,2,0,P|320:160|416:224,1,140
416,256,9861,1,0,0:0:0:0:
320,288,10310,2,0,P|288:224|288:128,1,140
256,128,11209,1,0,0:0:0:0:
192,96,11658,2,0,P|160:160|192:224,1,140
224,256,12557,1,0,0:0:0:0:
192,288,12782,2,0,P|128:256|96:128,1,186.666666666667
160,128,13905,1,0,0:0:0:0:
224,96,14130,1,0,0:0:0:0:
256,160,14355,2,0,P|320:192|416:192,1,140
416,256,15254,1,0,0:0:0:0:
352,288,15479,1,0,0:0:0:0:
288,256,15703,1,0,0:0:0:0:
224,224,15928,2,0,L|224:128,2,93.3333333333333
192,288,17276,5,0,0:0:0:0:
192,288,17500,1,0,0:0:0:0:
160,256,17726,2,0,L|224:192,2,46.6666666666667
224,160,18400,1,0,0:0:0:0:
224,160,18625,1,0,0:0:0:0:
256,128,18849,2,0,L|320:160,2,46.6666666666667
160,160,19523,2,0,L|64:160,1,93.3333333333333
0,160,20198,1,4,0:0:0:0:
224,160,29186,6,0,L|128:160,1,93.3333333333333
64,192,29861,1,0,0:0:0:0:
64,256,30085,2,0,L|160:256,1,93.3333333333333
224,192,30759,2,0,P|288:224|352:288,1,140
448,224,31883,2,0,L|384:224,1,46.6666666666667
320,160,32332,2,0,L|416:160,1,93.3333333333333
416,96,33007,1,0,0:0:0:0:
352,64,33231,2,0,P|320:128|320:224,1,140
288,224,34130,1,0,0:0:0:0:
224,224,34355,2,0,L|160:224,1,46.6666666666667
96,192,34804,2,0,L|96:96,1,93.3333333333333
192,160,35479,2,0,L|192:288,1,93.3333333333333
224,320,36153,5,0,0:0:0:0:
288,256,36377,1,0,0:0:0:0:
192,224,36602,2,0,P|256:192|320:192,1,93.3333333333333
448,224,37276,2,0,P|384:192|320:192,1,93.3333333333333
288,128,37950,1,0,0:0:0:0:
224,128,38175,1,0,0:0:0:0:
160,96,38400,1,0,0:0:0:0:
96,64,38625,2,0,P|96:128|128:160,1,93.3333333333333
160,192,39299,2,0,P|224:192|320:256,1,140
320,288,40141,2,0,L|352:320,2,35
224,256,40647,1,4,0:0:0:0:
224,192,40816,2,0,L|256:160,1,35
416,96,41321,6,0,P|352:96|320:160,1,140
352,192,42220,1,0,0:0:0:0:
320,224,42445,1,0,0:0:0:0:
288,256,42670,2,0,L|160:160,1,140
128,160,43568,1,0,0:0:0:0:
128,96,43793,1,0,0:0:0:0:
160,32,44018,1,0,0:0:0:0:
192,32,44243,2,0,L|192:128,1,93.3333333333333
192,192,44917,2,0,L|192:352,1,140
256,256,45816,2,0,L|320:256,2,46.6666666666667
128,192,46490,2,0,P|64:160|64:128,1,93.3333333333333
128,128,47164,1,0,0:0:0:0:
192,96,47389,1,0,0:0:0:0:
256,96,47613,1,0,0:0:0:0:
288,160,47838,2,0,P|352:192|384:192,2,93.3333333333333
160,288,48962,5,0,0:0:0:0:
128,224,49186,1,0,0:0:0:0:
128,160,49411,1,0,0:0:0:0:
128,160,49580,1,8,0:0:0:0:
192,224,49917,2,0,P|224:128|224:64,1,140
256,96,50759,2,0,L|320:96,1,35
320,128,51096,1,0,0:0:0:0:
288,160,51265,2,0,L|288:224,1,35
320,256,51771,1,0,0:0:0:0:
320,256,51939,1,0,0:0:0:0:
320,256,52108,1,0,0:0:0:0:
192,224,52276,2,0,P|224:160|256:160,1,105
320,160,52950,2,0,P|352:128|352:64,1,105
224,160,53625,2,0,P|96:128|128:32,1,245
160,96,55141,5,0,0:0:0:0:
160,160,55310,2,0,L|224:160,1,35
192,224,55647,1,0,0:0:0:0:
192,288,55816,2,0,L|256:288,1,35
288,288,56153,1,0,0:0:0:0:
320,256,56321,1,0,0:0:0:0:
352,224,56490,1,0,0:0:0:0:
288,192,56658,2,0,L|384:128,1,105
352,192,57501,1,0,0:0:0:0:
320,96,57838,2,0,L|224:96,1,70
128,192,58344,6,0,P|128:128|128:96,1,70
96,128,58849,1,0,0:0:0:0:
160,64,59018,1,0,0:0:0:0:
224,128,59186,1,0,0:0:0:0:
160,192,59355,2,0,L|96:256,1,70
32,288,59861,1,0,0:0:0:0:
96,320,60029,1,0,0:0:0:0:
128,256,60198,1,0,0:0:0:0:
128,192,60366,2,0,L|192:192,1,35
224,160,60703,2,0,L|288:160,1,35
320,160,61040,1,0,0:0:0:0:
320,96,61209,1,0,0:0:0:0:
384,96,61377,1,0,0:0:0:0:
448,128,61546,2,0,L|512:128,1,35
448,192,61883,2,0,L|512:192,1,35
416,224,62389,5,0,0:0:0:0:
320,192,62726,2,0,P|256:160|128:160,1,175
160,96,63905,1,0,0:0:0:0:
320,160,64243,1,0,0:0:0:0:
160,96,75703,6,0,L|288:64,1,105,8|0,0:0|0:0,0:0:0:0:
256,160,76377,1,0,0:0:0:0:
352,160,76546,1,0,0:0:0:0:
416,96,76714,1,0,0:0:0:0:
256,96,76883,2,0,L|320:192,1,105,4|0,0:0|0:0,0:0:0:0:
288,256,77557,2,0,L|256:192,1,70
192,128,78231,1,0,0:0:0:0:
96,160,78400,1,0,0:0:0:0:
128,256,78568,1,0,0:0:0:0:
160,256,78737,2,0,L|256:256,1,70
256,192,79243,2,0,L|352:192,1,70
352,192,79748,1,0,0:0:0:0:
384,160,79917,1,0,0:0:0:0:
384,128,80085,2,0,B|448:128|448:128|448:288,1,210
384,256,81265,6,0,L|352:224,1,35
288,256,81602,2,0,L|256:224,1,35
192,192,81939,1,0,0:0:0:0:
96,192,82108,2,0,L|128:256,2,70
0,160,82950,2,0,P|64:128|96:128,1,105,8|0,0:0|0:0,0:0:0:0:
128,192,83625,2,0,L|224:192,1,70
224,128,84299,1,0,0:0:0:0:
256,96,84467,1,0,0:0:0:0:
288,128,84636,1,0,0:0:0:0:
320,192,84804,2,0,L|416:192,3,70
416,256,85984,2,2,P|384:288|320:320,2,105
160,256,87164,6,0,L|160:128,1,105
160,128,87838,1,0,0:0:0:0:
160,96,88007,1,0,0:0:0:0:
160,64,88175,1,0,0:0:0:0:
192,64,88344,1,0,0:0:0:0:
224,64,88512,1,0,0:0:0:0:
256,64,88681,1,0,0:0:0:0:
288,96,88849,2,0,L|256:128,1,35
256,192,89186,2,0,L|288:160,1,35
320,192,89523,1,0,0:0:0:0:
352,192,89692,1,0,0:0:0:0:
384,192,89861,1,0,0:0:0:0:
416,192,90029,1,0,0:0:0:0:
416,192,90198,2,8,L|416:128,2,35
256,192,90872,6,0,L|160:192,2,70
320,160,91714,1,0,0:0:0:0:
416,160,91883,1,0,0:0:0:0:
512,128,92051,1,0,0:0:0:0:
448,96,92220,2,0,L|384:32,1,70
288,32,92726,2,0,L|224:96,1,70
224,96,93231,1,0,0:0:0:0:
224,96,93400,1,8,0:0:0:0:
128,160,93568,2,0,P|128:96|160:64,1,105
224,160,94243,2,0,P|224:224|192:256,1,105
128,256,94917,1,0,0:0:0:0:
96,224,95085,1,0,0:0:0:0:
64,192,95254,1,0,0:0:0:0:
32,224,95422,1,0,0:0:0:0:
0,256,95591,1,0,0:0:0:0:
0,256,95759,6,0,L|64:256,1,35
128,256,96096,2,0,L|192:256,1,35
256,256,96434,2,0,L|192:256,1,35
128,224,96771,2,0,L|192:224,1,35
192,224,97108,1,2,0:0:0:0:
224,224,97276,2,0,L|224:160,2,35
256,256,97782,1,0,0:0:0:0:
320,256,97950,2,0,L|320:96,1,140
256,128,98793,1,0,0:0:0:0:
288,64,98962,1,0,0:0:0:0:
224,64,99130,2,0,P|160:96|64:192,1,175
32,224,100142,1,8,0:0:0:0:
96,256,100311,1,0,0:0:0:0:
160,224,100479,6,0,L|320:128,1,175
352,96,101490,1,8,0:0:0:0:
384,160,101658,1,0,0:0:0:0:
384,224,101827,2,0,L|480:256,2,70
320,224,102670,1,8,0:0:0:0:
256,256,102838,1,0,0:0:0:0:
192,224,103007,1,0,0:0:0:0:
128,160,103175,2,0,P|160:160|224:192,1,105
384,160,103849,2,0,P|352:160|288:192,1,105
160,160,104523,2,0,B|224:128|224:128|256:64,1,140,8|0,0:0|0:0,0:0:0:0:
384,64,105366,5,0,0:0:0:0:
320,128,105703,1,0,0:0:0:0:
416,192,106040,1,0,0:0:0:0:
320,256,106209,2,0,P|256:224|192:160,1,140
224,160,107052,1,0,0:0:0:0:
96,96,107389,1,0,0:0:0:0:
192,64,107726,1,0,0:0:0:0:
128,128,107894,2,0,L|128:256,1,105
160,256,108737,1,0,0:0:0:0:
256,288,108905,1,0,0:0:0:0:
352,224,109074,1,0,0:0:0:0:
352,192,109243,2,0,L|448:192,2,70
320,160,110085,1,0,0:0:0:0:
256,128,110254,6,2,L|128:128,1,105
96,96,110928,1,0,0:0:0:0:
32,96,111096,1,0,0:0:0:0:
32,160,111265,1,0,0:0:0:0:
32,224,111434,2,0,L|32:320,1,70
96,256,111939,1,0,0:0:0:0:
160,256,112108,1,0,0:0:0:0:
160,192,112276,1,0,0:0:0:0:
160,128,112445,2,8,L|256:128,1,70
256,192,112950,5,0,0:0:0:0:
256,256,113119,1,0,0:0:0:0:
320,256,113288,1,0,0:0:0:0:
384,256,113456,2,4,L|480:256,1,70
448,192,113962,1,0,0:0:0:0:
448,128,114130,1,0,0:0:0:0:
384,96,114299,2,8,L|288:96,1,70
224,128,114804,2,0,L|288:128,1,35
192,160,115141,2,0,L|128:160,1,35
96,160,115479,1,0,0:0:0:0:
96,160,115647,1,0,0:0:0:0:
96,160,115816,1,0,0:0:0:0:
96,160,115984,2,0,L|96:224,2,35
32,224,116490,6,0,P|96:288|192:320,1,175
192,192,117501,2,0,L|192:96,1,70
192,64,118007,1,0,0:0:0:0:
256,64,118175,2,0,L|352:64,1,70
352,128,118681,1,8,0:0:0:0:
352,192,118849,2,0,L|448:192,2,70
352,256,119692,1,0,0:0:0:0:
288,288,119861,1,0,0:0:0:0:
224,288,120029,1,0,0:0:0:0:
160,256,120198,2,0,L|128:288,1,35
128,192,120535,2,0,L|64:192,1,35
160,128,120872,2,0,L|128:96,1,35
224,96,121209,1,0,0:0:0:0:
288,96,121377,1,0,0:0:0:0:
352,128,121546,1,0,0:0:0:0:
352,192,121714,2,0,L|352:320,1,105
128,192,122557,5,0,0:0:0:0:
224,128,122894,1,0,0:0:0:0:
128,96,123063,2,0,L|128:32,2,35
64,160,123737,1,0,0:0:0:0:
96,224,124074,1,0,0:0:0:0:
192,224,124411,2,0,L|288:224,2,70
160,224,125254,1,4,0:0:0:0:
352,160,125591,6,2,P|256:160|192:160,1,140
160,160,126602,1,0,0:0:0:0:
224,96,126939,1,0,0:0:0:0:
320,160,127276,2,0,L|320:256,2,70
192,224,128456,5,0,0:0:0:0:
256,288,128793,1,0,0:0:0:0:
128,288,129130,2,0,L|32:288,1,70
64,192,129804,1,0,0:0:0:0:
192,192,130141,1,0,0:0:0:0:
160,96,130479,1,0,0:0:0:0:
192,96,130647,1,0,0:0:0:0:
224,96,130816,2,0,L|224:160,1,35
288,256,131321,6,0,L|288:160,1,70
352,192,131995,1,0,0:0:0:0:
384,96,132332,1,0,0:0:0:0:
224,64,132670,1,4,0:0:0:0:
256,192,132838,12,0,134186,0:0:0:0:
320,320,134355,6,0,L|448:224,1,140
352,192,135366,2,2,L|320:96,1,70
192,64,136040,2,2,L|224:128,1,70
224,192,136546,1,0,0:0:0:0:
224,192,136883,1,0,0:0:0:0:
224,192,137052,1,0,0:0:0:0:
96,224,137389,2,0,L|0:224,2,70
288,224,138231,2,0,L|128:224,1,140
160,160,139074,1,0,0:0:0:0:
192,64,139411,1,0,0:0:0:0:
192,64,139580,1,0,0:0:0:0:
192,64,139748,2,0,L|256:96,2,70
128,128,140591,5,0,0:0:0:0:
192,160,140928,1,0,0:0:0:0:
96,224,141096,2,2,P|128:256|224:256,1,140
288,224,141939,1,0,0:0:0:0:
384,192,142276,1,0,0:0:0:0:
384,160,142445,1,0,0:0:0:0:
416,160,142613,2,0,L|416:96,1,35
384,64,142950,2,0,L|384:128,1,35
384,160,143288,1,0,0:0:0:0:
288,160,143456,1,0,0:0:0:0:
224,96,143625,1,0,0:0:0:0:
192,96,143793,2,0,L|64:160,1,140
96,256,144636,6,0,L|96:192,2,35
160,288,145141,1,0,0:0:0:0:
224,224,145479,1,0,0:0:0:0:
160,160,145816,1,8,0:0:0:0:
224,160,146153,2,0,L|288:160,1,35
384,160,146490,1,4,0:0:0:0:
320,192,146658,2,0,P|352:224|416:224,1,105
96,64,147838,6,0,L|160:64,1,35
96,128,148175,1,0,0:0:0:0:
96,192,148344,1,0,0:0:0:0:
96,256,148512,1,0,0:0:0:0:
224,288,148681,2,2,L|224:160,1,105
224,160,149355,1,0,0:0:0:0:
288,128,149523,1,0,0:0:0:0:
352,128,149692,1,0,0:0:0:0:
416,160,149861,1,0,0:0:0:0:
352,160,150029,2,2,L|352:288,1,105
320,320,150703,1,0,0:0:0:0:
256,288,150872,1,0,0:0:0:0:
288,224,151040,1,0,0:0:0:0:
224,192,151209,1,0,0:0:0:0:
160,192,151377,2,0,L|160:64,1,105
192,96,152052,2,0,L|256:96,3,35
192,224,152726,6,4,P|256:256|288:256,1,105
288,192,153400,1,0,0:0:0:0:
352,192,153568,1,0,0:0:0:0:
352,128,153737,1,0,0:0:0:0:
288,128,153905,1,0,0:0:0:0:
224,128,154074,2,0,L|160:128,2,35
256,128,154580,1,8,0:0:0:0:
192,160,154748,2,0,L|192:224,1,35
192,256,155085,2,0,L|256:256,1,35
288,224,155422,2,0,L|288:160,1,35
288,128,155759,1,0,0:0:0:0:
288,64,155928,1,0,0:0:0:0:
352,96,156096,2,0,L|448:128,1,70
320,160,156602,2,0,L|224:192,1,70
192,128,157108,6,2,B|128:192|128:192|96:288,1,175
160,288,158119,1,0,0:0:0:0:
192,256,158288,1,0,0:0:0:0:
224,224,158456,1,0,0:0:0:0:
224,160,158625,2,0,L|128:160,1,70
160,96,159131,1,0,0:0:0:0:
224,64,159299,2,0,L|320:64,1,70
320,96,159804,1,0,0:0:0:0:
288,160,159973,2,0,P|352:160|448:128,1,140
480,160,160816,1,0,0:0:0:0:
448,224,160984,1,0,0:0:0:0:
384,192,161153,1,0,0:0:0:0:
384,256,161321,1,0,0:0:0:0:
320,256,161490,1,0,0:0:0:0:
288,192,161658,6,2,P|288:128|320:96,1,105
352,160,162332,1,0,0:0:0:0:
352,224,162501,2,0,L|416:224,1,35
352,288,163007,2,0,P|288:256|224:192,1,140
160,160,164018,1,0,0:0:0:0:
64,160,164355,2,0,L|64:256,2,70
64,128,165198,1,0,0:0:0:0:
64,96,165366,2,0,L|224:96,1,140
192,160,166377,1,0,0:0:0:0:
256,224,166714,1,0,0:0:0:0:
320,128,167052,1,0,0:0:0:0:
352,160,167220,2,0,L|384:192,1,35
416,256,167557,2,0,P|384:288|320:288,1,105
352,224,168231,5,0,0:0:0:0:
288,224,168400,2,0,L|256:288,1,70
192,256,168905,1,0,0:0:0:0:
160,288,169074,1,0,0:0:0:0:
128,256,169243,1,0,0:0:0:0:
96,192,169411,2,0,L|160:192,1,35
160,192,169748,1,8,0:0:0:0:
192,160,169917,2,0,L|256:160,1,35
320,160,170310,2,0,L|320:64,1,93.3333333333333
416,160,170984,2,0,L|416:256,1,93.3333333333333
160,288,172108,6,0,P|160:160|192:128,1,140
224,160,173231,1,0,0:0:0:0:
256,128,173456,2,0,L|320:128,3,46.6666666666667
320,192,174355,1,0,0:0:0:0:
320,256,174580,2,0,L|384:256,1,46.6666666666667
192,256,175029,5,0,0:0:0:0:
128,192,175254,1,0,0:0:0:0:
128,96,175479,2,0,L|224:96,1,93.3333333333333
256,128,176153,1,0,0:0:0:0:
192,192,176377,1,0,0:0:0:0:
288,192,176602,1,0,0:0:0:0:
224,256,176827,1,0,0:0:0:0:
128,256,177052,2,0,L|64:256,1,46.6666666666667
128,192,177501,2,0,L|192:192,1,46.6666666666667
256,96,177950,5,0,0:0:0:0:
256,96,178175,1,0,0:0:0:0:
256,96,178400,2,0,L|352:96,1,93.3333333333333
256,192,179074,12,0,180647,0:0:0:0:
333,294,180872,5,0,0:0:0:0:
326,179,181209,1,0,0:0:0:0:
409,236,181378,2,0,L|460:197,2,35
397,326,182052,1,0,0:0:0:0:
326,339,182389,1,0,0:0:0:0:
268,262,182726,2,0,L|211:185,2,70
288,287,183569,1,4,0:0:0:0:
223,96,183906,6,2,P|281:172|320:223,1,140
339,249,184917,1,0,0:0:0:0:
351,159,185254,1,0,0:0:0:0:
243,121,185591,2,0,L|166:179,2,70
256,160,186490,1,0,0:0:0:0:
268,262,186771,5,0,0:0:0:0:
179,249,187108,1,0,0:0:0:0:
96,288,187445,2,0,L|153:364,1,70
192,256,188119,1,0,0:0:0:0:
224,192,188456,1,0,0:0:0:0:
390,210,188794,1,0,0:0:0:0:
371,185,188962,1,0,0:0:0:0:
351,159,189131,2,0,L|300:198,1,35
185,204,189636,6,0,L|262:147,1,70
198,115,190310,1,0,0:0:0:0:
320,32,190647,1,0,0:0:0:0:
377,140,190985,1,4,0:0:0:0:
256,160,191209,2,0,P|320:224|416:224,1,186.666666666667
288,128,192332,6,0,L|448:128,2,140
288,192,194130,1,8,0:0:0:0:
128,192,194804,1,0,0:0:0:0:
128,192,195029,2,0,L|128:32,2,140
192,160,196827,1,8,0:0:0:0:
288,288,197501,1,0,0:0:0:0:
288,288,197726,2,0,L|448:288,2,140
256,288,199299,1,4,0:0:0:0:
320,160,199748,1,0,0:0:0:0:
320,96,199973,2,0,L|448:96,1,93.3333333333333
416,160,200647,1,0,0:0:0:0:
288,160,200872,2,0,L|96:160,1,186.666666666667
32,160,201995,1,8,0:0:0:0:
96,256,202445,2,0,P|160:256|224:192,1,140
384,96,203793,5,0,0:0:0:0:
384,96,203962,1,0,0:0:0:0:
384,96,204130,1,0,0:0:0:0:
384,96,204299,1,0,0:0:0:0:
384,96,204467,2,0,L|384:256,1,140
320,288,205816,2,8,L|224:288,1,70
128,160,206490,1,0,0:0:0:0:
128,160,206658,1,0,0:0:0:0:
128,160,206827,1,0,0:0:0:0:
128,160,206995,1,0,0:0:0:0:
128,160,207164,2,0,B|160:96|160:96|320:96,1,210
288,160,208512,2,0,L|288:256,1,70
96,288,209861,5,0,0:0:0:0:
96,288,210029,1,0,0:0:0:0:
96,288,210198,1,0,0:0:0:0:
96,288,210366,1,0,0:0:0:0:
96,288,210535,2,0,L|160:256,1,70
224,288,211040,2,0,L|288:256,1,70
320,192,211546,2,0,L|384:160,1,70
320,96,212557,5,0,0:0:0:0:
320,96,212726,1,0,0:0:0:0:
320,96,212894,1,0,0:0:0:0:
320,96,213063,1,0,0:0:0:0:
320,96,213231,2,0,L|256:160,1,70
160,192,213737,2,0,L|160:96,1,70
224,224,214243,2,0,L|224:320,1,70
224,352,214748,1,8,0:0:0:0:
64,256,215254,5,0,0:0:0:0:
32,224,215422,1,0,0:0:0:0:
64,192,215591,1,0,0:0:0:0:
96,160,215759,1,0,0:0:0:0:
224,160,215928,1,0,0:0:0:0:
224,128,216096,1,0,0:0:0:0:
256,96,216265,1,0,0:0:0:0:
288,96,216434,1,0,0:0:0:0:
320,128,216602,1,0,0:0:0:0:
352,192,216771,1,0,0:0:0:0:
384,224,216939,1,0,0:0:0:0:
416,192,217108,1,0,0:0:0:0:
416,160,217276,1,0,0:0:0:0:
352,96,217445,2,8,L|480:96,1,105
352,192,218119,5,0,0:0:0:0:
320,160,218288,1,0,0:0:0:0:
352,128,218456,1,0,0:0:0:0:
384,160,218625,1,0,0:0:0:0:
320,224,218793,1,0,0:0:0:0:
288,256,218962,1,0,0:0:0:0:
256,288,219130,1,0,0:0:0:0:
224,320,219299,1,0,0:0:0:0:
128,256,219467,1,0,0:0:0:0:
160,256,219636,1,0,0:0:0:0:
192,224,219804,1,0,0:0:0:0:
224,192,219973,1,0,0:0:0:0:
224,160,220141,2,0,P|224:96|192:64,1,105
64,224,221321,5,0,0:0:0:0:
96,192,221490,1,0,0:0:0:0:
128,160,221658,1,0,0:0:0:0:
160,128,221827,2,0,L|224:128,1,35
224,192,222164,1,0,0:0:0:0:
256,160,222332,1,0,0:0:0:0:
288,192,222501,1,0,0:0:0:0:
320,160,222670,1,0,0:0:0:0:
320,128,222838,1,0,0:0:0:0:
320,96,223007,1,0,0:0:0:0:
320,64,223175,2,0,L|384:64,1,35
416,96,223512,2,2,P|448:128|448:192,1,105
448,256,224186,5,0,0:0:0:0:
416,288,224355,1,0,0:0:0:0:
384,320,224523,1,0,0:0:0:0:
352,320,224692,1,0,0:0:0:0:
320,288,224861,1,0,0:0:0:0:
288,256,225029,1,0,0:0:0:0:
256,224,225198,2,0,L|192:224,2,35
192,160,225703,2,0,L|128:160,1,35
224,96,226040,2,0,L|288:96,1,35
320,128,226377,2,0,L|320:192,1,35
384,224,226714,2,0,L|384:160,1,35
384,96,227052,1,0,0:0:0:0:
448,160,227220,1,0,0:0:0:0:
384,224,227389,1,0,0:0:0:0:
320,160,227557,6,0,P|288:224|320:256,1,105
320,320,228231,1,0,0:0:0:0:
256,320,228400,1,0,0:0:0:0:
192,320,228568,1,0,0:0:0:0:
128,288,228737,2,0,L|192:256,1,70
192,192,229243,1,0,0:0:0:0:
192,128,229411,1,0,0:0:0:0:
192,64,229580,1,0,0:0:0:0:
256,64,229748,2,0,L|384:64,2,105
224,128,230928,1,0,0:0:0:0:
160,128,231096,2,0,L|192:256,2,105
96,224,232782,5,0,0:0:0:0:
128,192,232950,1,0,0:0:0:0:
160,224,233119,1,0,0:0:0:0:
224,224,233288,2,0,L|288:224,1,35
320,192,233625,1,0,0:0:0:0:
352,160,233793,1,0,0:0:0:0:
384,128,233962,1,0,0:0:0:0:
416,192,234130,2,0,L|512:192,2,70
352,224,234973,2,0,L|384:288,1,70
320,288,235479,2,0,L|288:224,1,70
224,256,235984,1,0,0:0:0:0:
192,160,236321,1,0,0:0:0:0:
256,96,236658,1,0,0:0:0:0:
288,128,236827,2,0,L|352:160,1,70
320,192,237332,2,0,L|384:192,2,35
384,224,237838,1,0,0:0:0:0:
448,256,238007,1,0,0:0:0:0:
480,192,238175,1,0,0:0:0:0:
