osu file format v14

[General]
AudioFilename: audio.mp3
AudioLeadIn: 0
PreviewTime: -1
Countdown: 1
SampleSet: None
StackLeniency: 0.5
Mode: 0
LetterboxInBreaks: 0
WidescreenStoryboard: 1

[Editor]
Bookmarks: 17052,64243,122220,168063,203793,227389,232782
DistanceSpacing: 0.8
BeatDivisor: 6
GridSize: 32
TimelineZoom: 1

[Metadata]
Title:Suga Suga
TitleUnicode:Suga Suga
Artist:Baby Bash
ArtistUnicode:Baby Bash
Creator:Soula Evans
Version:Hard
Source:
Tags:baby bash throwback suga suga sugar how you get so fly
BeatmapID:1577621
BeatmapSetID:748923

[Difficulty]
HPDrainRate:6
CircleSize:5
OverallDifficulty:6
ApproachRate:6
SliderMultiplier:1.4
SliderTickRate:2

[Events]
//Background and Video events
0,0,"IMG_1251.JPG",0,0
//Break Periods
2,20398,27986
2,65591,74503
//Storyboard Layer 0 (Background)
//Storyboard Layer 1 (Fail)
//Storyboard Layer 2 (Pass)
//Storyboard Layer 3 (Foreground)
//Storyboard Sound Samples

[TimingPoints]
6265.52808988764,674.157303370787,4,3,0,100,1,0
17052,-100,4,2,0,100,0,0
29186,-100,4,1,0,100,0,0
41321,-100,4,3,0,100,0,0
64243,-100,4,2,0,100,0,0
76377,-100,4,1,0,100,0,0
87164,-100,4,3,0,100,0,0
122220,-100,4,2,0,100,0,0
134355,-100,4,1,0,100,0,0
146490,-100,4,3,0,100,0,0
168063,-100,4,2,0,100,0,0
180872,-100,4,1,0,100,0,0
192332,-100,4,3,0,100,0,0
203793,-100,4,2,0,100,0,0
227389,-100,4,2,0,50,0,0
232782,-100,4,2,0,10,0,0

[Colours]
Combo1 : 255,128,64
Combo2 : 255,0,128
Combo3 : 0,128,192
Combo4 : 0,255,64

[HitObjects]
128,128,6490,5,0,0:0:0:0:
160,192,6714,1,0,0:0:0:0:
160,192,6939,2,0,P|224:256|320:256,1,186.666666666667
288,192,8288,1,0,0:0:0:0:
288,128,8737,1,0,0:0:0:0:
288,128,8962,2,0,P|352:128|448:192,1,140
416,256,9973,1,0,0:0:0:0:
320,288,10310,2,0,P|288:224|288:128,1,140
256,128,11321,1,0,0:0:0:0:
192,96,11658,2,0,P|160:160|192:224,1,140
224,256,12557,1,0,0:0:0:0:
192,224,12838,2,0,L|128:192,3,70
128,128,14130,1,0,0:0:0:0:
192,96,14355,2,0,P|256:128|352:128,1,140
352,192,15366,1,0,0:0:0:0:
288,224,15703,2,0,L|288:128,2,93.3333333333333
224,256,17052,6,0,L|320:256,2,70
224,192,17950,1,0,0:0:0:0:
224,128,18287,1,0,0:0:0:0:
224,64,18624,1,0,0:0:0:0:
288,64,18961,2,0,L|320:128,1,70
320,224,19580,2,0,L|384:192,1,70
416,192,20198,1,4,0:0:0:0:
224,160,29186,6,0,L|64:160,2,140
224,192,30759,2,0,P|288:224|352:288,1,140
320,160,31883,2,0,L|480:160,2,140
224,224,33625,2,0,L|160:224,1,46.6666666666667
96,192,34074,2,0,L|96:96,1,93.3333333333333
160,96,34917,1,0,0:0:0:0:
192,160,35254,1,0,0:0:0:0:
192,160,35479,2,0,L|192:288,1,93.3333333333333
224,288,36153,5,0,0:0:0:0:
256,256,36434,2,0,P|320:224|384:224,1,93.3333333333333
448,224,37276,2,0,P|384:192|320:192,1,93.3333333333333
320,128,37950,1,0,0:0:0:0:
256,96,38288,1,0,0:0:0:0:
192,64,38625,2,0,P|192:128|224:160,1,93.3333333333333
256,192,39299,2,0,P|320:192|416:256,1,140
320,256,40310,1,0,0:0:0:0:
224,256,40647,1,4,0:0:0:0:
256,96,41321,6,0,P|192:96|160:160,2,140
288,160,43007,1,0,0:0:0:0:
351,162,43344,1,0,0:0:0:0:
414,196,43681,1,0,0:0:0:0:
413,228,44018,2,0,L|317:224,1,93.3333333333333
299,203,44692,2,0,L|161:283,1,140
160,320,45703,2,0,L|256:288,2,70
96,256,46714,1,0,0:0:0:0:
160,224,47052,1,0,0:0:0:0:
224,224,47389,1,0,0:0:0:0:
320,224,47726,2,0,P|376:258|421:279,2,105
302,200,49074,5,0,0:0:0:0:
256,224,49299,1,0,0:0:0:0:
192,224,49580,2,0,P|224:128|224:64,1,140
288,64,50535,1,0,0:0:0:0:
343,96,50759,2,0,L|398:128,2,35
382,155,51434,1,0,0:0:0:0:
382,155,51658,1,0,0:0:0:0:
384,192,51883,2,0,P|320:157|321:125,1,105
256,128,52782,2,2,P|384:160|352:256,1,245,0|0,0:0|0:0,0:0:0:0:
160,96,54467,5,0,0:0:0:0:
256,96,54804,1,0,0:0:0:0:
320,128,55141,2,0,L|384:128,3,35
288,192,55928,2,0,L|384:128,1,105
384,96,56714,1,0,0:0:0:0:
320,96,57052,2,0,L|224:96,2,70
224,160,58175,6,0,P|224:96|224:64,1,70
288,64,58849,1,0,0:0:0:0:
320,128,59186,1,0,0:0:0:0:
288,192,59523,1,0,0:0:0:0:
192,160,59861,2,0,L|256:160,3,35
192,128,60647,2,0,L|256:128,3,35
192,96,61377,2,0,L|256:96,3,35
320,128,62220,5,0,0:0:0:0:
288,192,62557,2,0,P|224:224|96:224,1,175
128,160,63681,1,0,0:0:0:0:
192,128,64243,1,0,0:0:0:0:
160,96,75703,6,0,L|288:64,1,105,8|0,0:0|0:0,0:0:0:0:
256,96,76490,1,0,0:0:0:0:
320,96,76714,1,0,0:0:0:0:
384,96,77052,2,0,L|448:192,2,105,4|0|0,0:0|0:0|0:0,0:0:0:0:
320,128,78400,1,0,0:0:0:0:
256,192,78737,2,0,L|320:192,2,46.6666666666667
160,160,79523,1,0,0:0:0:0:
160,96,79861,2,0,B|224:96|224:96|224:256,1,210
288,256,81265,6,0,L|256:224,2,35
192,192,81939,2,0,L|224:256,2,70
96,160,82894,2,0,P|160:128|192:128,1,105,8|0,0:0|0:0,0:0:0:0:
128,192,83681,2,0,L|224:192,1,70
224,128,84299,1,0,0:0:0:0:
288,128,84636,1,0,0:0:0:0:
320,192,84917,2,0,L|451:193,3,116.666666666667
320,288,87164,6,0,L|320:160,1,105
384,192,87950,1,0,0:0:0:0:
448,192,88287,1,0,0:0:0:0:
416,128,88625,2,0,L|384:192,2,70
384,96,89523,1,0,0:0:0:0:
352,128,89861,1,0,0:0:0:0:
320,160,90198,2,8,L|256:192,2,70
320,160,91209,1,0,0:0:0:0:
256,128,91546,1,0,0:0:0:0:
192,160,91883,2,0,L|128:96,1,70
256,64,92557,2,0,L|192:128,1,70
192,192,93231,1,0,0:0:0:0:
192,192,93400,1,8,0:0:0:0:
192,192,93568,2,0,P|192:256|224:288,1,105
288,288,94243,6,0,P|288:224|256:192,1,105
320,128,95029,1,0,0:0:0:0:
384,192,95366,1,0,0:0:0:0:
352,288,95703,2,0,L|416:288,2,35
320,192,96377,2,0,L|416:192,1,93.3333333333333
448,192,97108,1,2,0:0:0:0:
352,160,97501,1,0,0:0:0:0:
288,192,97726,2,0,L|288:32,1,140
352,96,98793,1,0,0:0:0:0:
288,160,99130,2,0,P|224:192|128:288,1,175
64,224,100310,6,0,L|249:207,1,175,8|0,0:0|0:0,0:0:0:0:
288,192,101434,1,8,0:0:0:0:
352,192,101658,2,0,L|448:224,2,70
320,224,102670,1,8,0:0:0:0:
192,192,103007,1,0,0:0:0:0:
192,192,103175,2,0,P|224:192|288:224,2,105
160,160,104523,2,0,B|224:128|224:128|256:64,1,140,8|0,0:0|0:0,0:0:0:0:
320,96,105479,1,0,0:0:0:0:
320,160,105816,1,0,0:0:0:0:
288,224,106040,2,0,P|224:192|160:128,1,140
224,160,107052,1,0,0:0:0:0:
160,128,107389,1,0,0:0:0:0:
192,64,107726,1,0,0:0:0:0:
256,64,107950,2,0,L|256:192,2,105
224,64,109241,1,0,0:0:0:0:
192,64,109523,6,2,L|64:64,1,105
96,128,110310,2,0,L|96:224,2,70
160,128,111321,1,0,0:0:0:0:
160,192,111546,1,0,0:0:0:0:
224,224,111883,2,8,L|320:224,1,70
288,160,112445,1,0,0:0:0:0:
288,96,112670,1,0,0:0:0:0:
352,96,113007,2,4,L|448:96,1,70
448,160,113680,1,0,0:0:0:0:
448,224,113904,1,0,0:0:0:0:
384,256,114243,2,8,L|288:256,1,70
224,256,114917,2,0,L|160:256,2,35
224,192,115535,1,0,0:0:0:0:
224,192,115760,1,0,0:0:0:0:
224,192,115928,2,0,L|224:256,2,35
160,192,116490,6,0,P|224:256|320:288,1,175
320,256,117501,2,0,L|320:160,1,70
320,128,118063,2,0,L|416:128,1,70
352,192,118625,2,0,L|448:192,2,70
352,256,119692,1,0,0:0:0:0:
224,288,119916,1,0,0:0:0:0:
160,256,120085,2,0,L|128:288,2,35
160,128,120647,2,0,L|128:96,2,35
288,96,121209,1,0,0:0:0:0:
352,128,121434,1,0,0:0:0:0:
352,192,121658,2,0,L|352:320,1,105
128,192,122445,5,0,0:0:0:0:
192,128,122670,1,0,0:0:0:0:
128,96,122894,2,0,L|128:32,2,35
64,160,123569,1,0,0:0:0:0:
96,224,123793,1,0,0:0:0:0:
192,224,124018,2,0,L|288:224,2,70
160,224,125029,1,4,0:0:0:0:
352,160,125591,6,2,P|256:160|192:160,1,140
160,160,126602,1,0,0:0:0:0:
224,96,126939,1,0,0:0:0:0:
320,160,127276,2,0,L|320:256,2,70
192,224,128456,5,0,0:0:0:0:
256,288,128793,1,0,0:0:0:0:
128,288,129130,2,0,L|32:288,1,70
64,192,129804,1,0,0:0:0:0:
192,192,130141,1,0,0:0:0:0:
160,96,130479,1,0,0:0:0:0:
192,96,130647,1,0,0:0:0:0:
224,96,130816,2,0,L|224:160,1,35
288,256,131321,6,0,L|288:160,1,70
352,192,131995,1,0,0:0:0:0:
384,96,132332,1,0,0:0:0:0:
224,64,132670,1,4,0:0:0:0:
256,192,132838,12,0,134186,0:0:0:0:
320,320,134467,6,0,L|448:224,1,140
352,192,135366,2,2,L|320:96,1,70
256,96,136040,2,2,L|288:160,1,70
224,192,136546,1,0,0:0:0:0:
224,192,136883,1,0,0:0:0:0:
224,192,137052,1,0,0:0:0:0:
128,160,137389,2,0,L|32:160,2,70
288,224,138288,2,0,L|160:224,1,116.666666666667
160,160,139074,1,0,0:0:0:0:
256,160,139411,1,0,0:0:0:0:
256,160,139580,1,0,0:0:0:0:
256,160,139748,2,0,L|320:192,2,70
192,160,140704,5,0,0:0:0:0:
128,192,140984,2,2,P|160:224|256:224,1,140
288,224,141939,1,0,0:0:0:0:
288,160,142164,1,0,0:0:0:0:
352,224,142332,2,0,L|352:160,1,35
416,192,142782,2,0,L|416:256,2,35
384,160,143344,1,0,0:0:0:0:
320,96,143625,1,0,0:0:0:0:
320,192,143793,2,0,L|192:256,1,140
96,256,144804,6,0,L|96:192,2,35
192,288,145479,1,0,0:0:0:0:
160,160,145816,1,8,0:0:0:0:
160,64,146153,2,0,L|224:64,1,46.6666666666667
256,128,146714,1,4,0:0:0:0:
320,64,147052,2,0,P|352:96|416:96,1,105
320,192,147838,6,0,L|384:192,1,35
320,256,148288,1,0,0:0:0:0:
256,256,148457,1,0,0:0:0:0:
192,256,148625,1,0,0:0:0:0:
128,256,148850,2,2,L|128:384,1,105
224,320,149580,1,0,0:0:0:0:
192,256,149804,1,0,0:0:0:0:
256,224,149973,1,0,0:0:0:0:
320,192,150141,2,2,L|320:64,1,105
320,64,150815,1,0,0:0:0:0:
256,96,150984,1,0,0:0:0:0:
224,160,151209,1,0,0:0:0:0:
160,192,151377,2,0,L|160:320,1,105
224,320,152052,2,0,L|288:320,2,46.6666666666667
288,256,152726,6,4,P|352:288|384:288,1,105
416,224,153400,1,0,0:0:0:0:
384,192,153568,1,0,0:0:0:0:
352,160,153793,1,0,0:0:0:0:
320,128,154018,1,8,0:0:0:0:
256,96,154243,2,0,L|256:192,1,93.3333333333333
256,256,154917,2,0,L|320:256,1,35
288,192,155254,1,0,0:0:0:0:
288,128,155423,1,0,0:0:0:0:
352,160,155591,2,0,L|448:192,2,70
320,160,156490,2,0,L|224:192,1,70
192,128,157108,6,2,B|128:192|128:192|96:288,1,175
160,288,158119,1,0,0:0:0:0:
192,256,158288,1,0,0:0:0:0:
224,224,158456,1,0,0:0:0:0:
224,160,158625,2,0,L|128:160,1,70
288,160,159131,1,0,0:0:0:0:
352,160,159299,2,0,L|448:160,1,70
320,160,159804,5,0,0:0:0:0:
288,160,159973,2,0,P|352:160|448:128,1,140
352,96,160816,1,0,0:0:0:0:
288,96,160984,1,0,0:0:0:0:
224,128,161153,1,0,0:0:0:0:
224,192,161321,1,0,0:0:0:0:
256,256,161490,1,0,0:0:0:0:
288,192,161658,6,2,P|288:128|320:96,1,105
352,160,162332,1,0,0:0:0:0:
352,224,162501,2,0,L|416:224,1,35
352,288,163007,2,0,P|288:256|224:192,1,140
160,160,164018,1,0,0:0:0:0:
64,160,164355,2,0,L|64:256,2,70
64,96,165366,2,0,L|224:96,1,140
192,160,166377,1,0,0:0:0:0:
256,224,166714,1,0,0:0:0:0:
320,128,167052,1,0,0:0:0:0:
416,192,167389,2,0,P|384:224|320:224,1,105
288,160,168231,5,0,0:0:0:0:
288,160,168400,2,0,L|256:224,1,70
256,222,168905,1,0,0:0:0:0:
224,256,169186,1,0,0:0:0:0:
128,256,169523,1,0,0:0:0:0:
160,192,169861,1,8,0:0:0:0:
256,192,170198,2,0,L|256:96,1,93.3333333333333
416,160,170984,2,0,L|416:256,1,93.3333333333333
160,288,172108,6,0,P|160:160|192:128,1,140
224,160,173231,1,0,0:0:0:0:
288,224,173568,2,0,L|352:224,2,46.6666666666667
320,192,174355,1,0,0:0:0:0:
192,256,174691,5,0,0:0:0:0:
128,192,175029,1,0,0:0:0:0:
128,96,175366,2,0,L|224:96,1,93.3333333333333
256,128,176153,1,0,0:0:0:0:
288,192,176377,1,0,0:0:0:0:
224,224,176602,1,0,0:0:0:0:
160,224,176827,2,0,L|96:224,3,46.6666666666667
192,128,177950,5,0,0:0:0:0:
224,96,178175,1,0,0:0:0:0:
256,96,178400,2,0,L|352:96,1,93.3333333333333
256,192,179074,12,0,180647,0:0:0:0:
333,294,180984,5,0,0:0:0:0:
288,256,181209,1,0,0:0:0:0:
256,224,181378,2,0,L|307:185,2,35
288,160,182052,1,0,0:0:0:0:
224,128,182389,1,0,0:0:0:0:
160,128,182726,2,0,L|103:51,2,70
160,192,183569,1,4,0:0:0:0:
224,192,183906,6,2,P|282:268|321:319,1,140
339,249,184917,1,0,0:0:0:0:
351,159,185254,1,0,0:0:0:0:
352,128,185591,2,0,L|275:186,2,70
352,160,186490,1,0,0:0:0:0:
320,224,186771,5,0,0:0:0:0:
288,288,187108,1,0,0:0:0:0:
192,288,187445,2,0,L|249:364,1,70
192,256,188119,1,0,0:0:0:0:
224,192,188456,1,0,0:0:0:0:
390,210,188794,1,0,0:0:0:0:
351,159,189131,2,0,L|300:198,2,35
288,128,189860,1,0,0:0:0:0:
224,96,190197,1,0,0:0:0:0:
160,160,190535,1,4,0:0:0:0:
128,224,190872,2,0,P|192:288|288:288,1,186.666666666667
288,128,192332,6,0,L|448:128,2,140
192,96,194130,1,8,0:0:0:0:
192,288,194804,1,0,0:0:0:0:
128,288,195029,2,0,L|128:128,2,140
128,96,196827,1,8,0:0:0:0:
288,288,197501,1,0,0:0:0:0:
320,256,197726,2,0,L|480:256,2,140
288,224,199299,1,4,0:0:0:0:
320,160,199748,1,0,0:0:0:0:
320,96,199973,2,0,L|448:96,1,93.3333333333333
416,160,200647,1,0,0:0:0:0:
416,224,200872,2,0,L|224:224,1,186.666666666667
224,160,201995,1,8,0:0:0:0:
160,128,202445,2,0,P|108:166|96:256,1,140
384,96,203793,5,0,0:0:0:0:
384,96,203961,1,0,0:0:0:0:
384,96,204130,1,0,0:0:0:0:
384,96,204467,2,0,L|384:256,1,140
288,224,205816,2,8,L|192:224,1,70
128,160,206490,1,0,0:0:0:0:
128,160,206715,1,0,0:0:0:0:
128,160,206883,1,0,0:0:0:0:
128,160,207052,2,0,B|160:96|160:96|320:96,1,210
288,160,208512,2,0,L|288:256,1,70
96,288,209861,5,0,0:0:0:0:
96,288,210085,1,0,0:0:0:0:
96,288,210253,1,0,0:0:0:0:
96,288,210422,2,0,L|160:256,1,70
224,288,211040,2,0,L|288:256,1,70
320,192,211658,2,0,L|384:160,1,70
320,96,212557,5,0,0:0:0:0:
320,96,212782,1,0,0:0:0:0:
320,96,212951,1,0,0:0:0:0:
320,96,213119,2,0,L|256:160,1,70
192,160,213737,2,0,L|192:64,1,70
224,224,214355,2,0,L|224:320,1,70
224,352,214917,1,8,0:0:0:0:
64,256,215254,5,0,0:0:0:0:
32,192,215479,2,0,L|32:160,2,23.3333333333333
96,160,215928,1,0,0:0:0:0:
128,224,216153,2,0,L|128:256,2,23.3333333333333
192,192,216602,1,0,0:0:0:0:
224,128,216827,2,0,L|256:128,2,23.3333333333333
352,96,217445,2,8,L|480:96,1,105
256,128,218119,5,0,0:0:0:0:
320,128,218288,2,0,L|320:96,2,23.3333333333333
320,224,218793,1,0,0:0:0:0:
256,224,218962,2,0,L|288:256,2,23.3333333333333
160,256,219467,1,0,0:0:0:0:
160,192,219636,2,0,L|192:192,2,23.3333333333333
96,160,220141,2,0,P|96:96|64:64,1,105
64,224,221321,5,0,0:0:0:0:
128,256,221602,1,0,0:0:0:0:
192,288,221883,2,0,L|256:288,1,35
288,256,222332,1,0,0:0:0:0:
352,224,222670,1,0,0:0:0:0:
320,160,223007,1,0,0:0:0:0:
384,128,223344,2,2,P|416:160|416:224,1,93.3333333333333
448,256,224186,5,0,0:0:0:0:
448,192,224467,2,0,L|384:192,2,35
320,288,225141,1,0,0:0:0:0:
288,256,225366,1,0,0:0:0:0:
288,192,225703,2,0,L|352:192,2,35
320,128,226265,2,0,L|320:192,1,35
384,224,226714,2,0,L|384:160,2,35
384,224,227276,1,0,0:0:0:0:
320,160,227501,6,0,P|288:224|320:256,1,105
320,320,228232,1,0,0:0:0:0:
256,320,228512,1,0,0:0:0:0:
192,288,228737,2,0,L|256:256,1,70
224,192,229299,1,0,0:0:0:0:
160,160,229580,1,0,0:0:0:0:
160,96,229861,2,0,L|256:96,2,93.3333333333333
160,128,231096,2,0,L|192:256,2,105
96,224,232782,5,0,0:0:0:0:
160,224,233007,2,0,L|224:224,2,35
256,192,233625,1,0,0:0:0:0:
320,256,233905,2,0,L|416:256,2,70
384,192,234973,2,0,L|416:256,1,70
288,192,235591,2,0,L|256:128,1,70
192,160,236321,1,0,0:0:0:0:
256,96,236658,1,0,0:0:0:0:
288,128,236827,2,0,L|352:160,1,70
384,224,237501,1,0,0:0:0:0:
448,320,237838,1,0,0:0:0:0:
480,192,238175,1,0,0:0:0:0:
