osu file format v14

[General]
AudioFilename: audio.mp3
AudioLeadIn: 0
PreviewTime: 146645
Countdown: 0
SampleSet: Normal
StackLeniency: 0.7
Mode: 0
LetterboxInBreaks: 0
EpilepsyWarning: 1
WidescreenStoryboard: 1

[Editor]
Bookmarks: 122649,150985,164938
DistanceSpacing: 1.2
BeatDivisor: 4
GridSize: 4
TimelineZoom: 1

[Metadata]
Title:Mr DJ
TitleUnicode:Mr DJ
Artist:Baby Alice
ArtistUnicode:Baby Alice
Creator:XinCrin
Version:Insane
Source:
Tags:techno trance euro pina colada
BeatmapID:2103742
BeatmapSetID:874368

[Difficulty]
HPDrainRate:8
CircleSize:4
OverallDifficulty:8
ApproachRate:9
SliderMultiplier:2.1
SliderTickRate:1

[Events]
//Background and Video events
0,0,"bg.jpg",0,0
//Break Periods
2,75498,81463
2,131311,132838
//Storyboard Layer 0 (Background)
//Storyboard Layer 1 (Fail)
//Storyboard Layer 2 (Pass)
//Storyboard Layer 3 (Foreground)
//Storyboard Layer 4 (Overlay)
//Storyboard Sound Samples

[TimingPoints]
34,422.832980972516,4,1,1,80,1,0
133234,-100,4,2,1,80,0,0
145602,-100,4,1,1,80,0,0
146968,-83.3333333333333,4,2,1,80,0,0
147179,-83.3333333333333,4,1,1,80,0,1
160604,-83.3333333333333,4,1,1,80,0,0
160710,-83.3333333333333,4,1,1,80,0,1
174241,-100,4,1,1,80,0,0

[Colours]
Combo1 : 198,198,255
Combo2 : 217,179,255
Combo3 : 255,193,255

[HitObjects]
112,296,1725,6,0,P|132:236|168:208,1,105
256,160,2148,1,0,0:0:0:0:
348,210,2359,1,0,0:0:0:0:
348,210,2465,1,0,0:0:0:0:
348,210,2570,2,0,P|386:245|400:296,1,105
256,376,2993,2,0,L|256:264,1,105
72,120,3416,6,0,B|144:72|144:72|172:68,1,105
256,120,3839,1,0,0:0:0:0:
349,69,4050,1,0,0:0:0:0:
349,69,4156,1,0,0:0:0:0:
349,69,4262,2,0,B|368:72|368:72|440:120,1,105
388,212,4685,1,0,0:0:0:0:
256,288,4896,1,0,0:0:0:0:
124,212,5107,6,0,P|76:248|56:300,1,105
256,160,5530,2,0,L|256:56,1,105
256,55,5847,1,0,0:0:0:0:
256,55,5953,1,0,0:0:0:0:
388,212,6165,2,0,P|436:248|456:300,2,105
256,328,6799,6,0,B|252:276|252:276|264:208|264:208|256:168,1,157.5
256,156,7222,2,0,L|256:52,1,105
164,100,7644,2,0,P|120:148|72:160,1,105
348,100,8067,2,0,P|392:148|440:160,1,105
80,292,8490,6,0,B|160:264|160:264|192:264,1,105
436,324,8913,2,0,B|356:352|356:352|336:352,1,105
336,352,9230,1,0,0:0:0:0:
336,352,9336,1,0,0:0:0:0:
256,284,9547,1,0,0:0:0:0:
256,92,9759,1,0,0:0:0:0:
212,188,9970,1,0,0:0:0:0:
108,184,10181,6,0,P|56:184|16:152,1,105
256,224,10604,2,0,L|256:332,1,105
404,184,11027,2,0,P|456:184|496:152,1,105
380,48,11450,1,0,0:0:0:0:
256,168,11661,1,0,0:0:0:0:
132,48,11873,6,0,B|80:80|80:80|52:120,1,105
56,220,12296,2,0,P|104:240|140:284,1,105
52,340,12718,1,0,0:0:0:0:
176,164,12930,1,0,0:0:0:0:
176,164,13036,1,0,0:0:0:0:
176,164,13141,2,0,L|304:168,1,105
344,252,13564,6,0,B|388:216|384:164|384:164|408:200|440:204,2,157.5
256,308,14410,1,0,0:0:0:0:
256,308,14833,1,0,0:0:0:0:
256,192,15255,12,0,16524,0:0:0:0:
68,304,16947,6,0,L|176:304,1,105
173,304,17265,1,0,0:0:0:0:
173,304,17370,1,0,0:0:0:0:
256,240,17581,1,0,0:0:0:0:
256,240,17687,1,0,0:0:0:0:
256,240,17792,2,0,L|372:236,1,105
360,236,18110,1,0,0:0:0:0:
360,236,18215,1,0,0:0:0:0:
436,160,18427,1,0,0:0:0:0:
436,160,18532,1,0,0:0:0:0:
436,160,18638,5,0,0:0:0:0:
380,68,18850,1,0,0:0:0:0:
380,68,18955,1,0,0:0:0:0:
380,68,19061,1,0,0:0:0:0:
256,164,19272,1,0,0:0:0:0:
256,164,19378,1,0,0:0:0:0:
256,164,19484,1,0,0:0:0:0:
132,68,19695,1,0,0:0:0:0:
132,68,19800,1,0,0:0:0:0:
132,68,19906,1,0,0:0:0:0:
56,140,20118,1,0,0:0:0:0:
56,140,20224,1,0,0:0:0:0:
56,140,20329,6,0,L|36:256,1,105
38,243,20647,1,0,0:0:0:0:
38,243,20752,1,0,0:0:0:0:
100,328,20964,1,0,0:0:0:0:
100,328,21069,1,0,0:0:0:0:
100,328,21175,1,0,0:0:0:0:
248,272,21387,1,0,0:0:0:0:
248,272,21493,1,0,0:0:0:0:
248,272,21599,2,0,L|356:276,1,105
172,160,22021,5,0,0:0:0:0:
172,160,22232,2,0,L|67:156,1,105
288,56,22655,2,0,L|392:59,1,105
120,216,23078,2,0,L|15:212,1,105
420,52,23501,1,0,0:0:0:0:
444,156,23712,5,0,0:0:0:0:
408,256,23924,1,0,0:0:0:0:
408,256,24029,1,0,0:0:0:0:
408,256,24135,2,0,L|304:284,1,105
306,283,24452,1,0,0:0:0:0:
306,283,24558,1,0,0:0:0:0:
220,224,24769,1,0,0:0:0:0:
220,224,24875,1,0,0:0:0:0:
220,224,24981,2,0,B|236:128|236:128|248:108,1,105
336,76,25403,5,0,0:0:0:0:
128,152,25615,1,0,0:0:0:0:
128,152,25721,1,0,0:0:0:0:
128,152,25826,2,0,L|108:260,1,105
300,344,26249,1,0,0:0:0:0:
305,312,26354,1,0,0:0:0:0:
310,281,26460,1,0,0:0:0:0:
315,250,26566,1,0,0:0:0:0:
320,224,26672,2,0,L|332:120,1,105
332,119,26989,1,0,0:0:0:0:
332,119,27095,5,0,0:0:0:0:
432,84,27306,1,0,0:0:0:0:
208,152,27518,1,0,0:0:0:0:
208,152,27623,1,0,0:0:0:0:
208,152,27729,2,0,L|96:160,1,105
260,332,28152,1,0,0:0:0:0:
260,332,28257,1,0,0:0:0:0:
260,332,28363,2,0,L|364:324,1,105
364,324,28680,1,0,0:0:0:0:
364,324,28786,5,0,0:0:0:0:
448,256,28998,1,0,0:0:0:0:
388,364,29209,1,0,0:0:0:0:
440,164,29420,1,0,0:0:0:0:
440,360,29632,1,0,0:0:0:0:
380,120,29843,1,0,0:0:0:0:
400,120,29949,1,0,0:0:0:0:
472,368,30160,1,0,0:0:0:0:
456,368,30266,1,0,0:0:0:0:
101,301,30477,6,0,P|150:253|199:235,1,105,4|0,0:0|0:0,0:0:0:0:
410,300,30900,2,0,P|375:262|329:238,1,105,8|0,0:0|0:0,0:0:0:0:
256,164,31323,1,0,0:0:0:0:
184,88,31535,1,0,0:0:0:0:
88,128,31746,2,0,B|60:164|60:164|48:224,1,105,8|0,0:0|0:0,0:0:0:0:
208,356,32169,6,0,L|312:344,1,105,0|0,0:0|0:0,0:0:0:0:
368,256,32592,1,8,0:0:0:0:
388,152,32803,1,0,0:0:0:0:
420,52,33014,2,0,P|368:44|320:68,1,105,0|0,0:0|0:0,0:0:0:0:
256,148,33437,1,8,0:0:0:0:
196,232,33649,1,0,0:0:0:0:
92,52,33860,6,0,P|144:44|192:68,1,105,0|0,0:0|0:0,0:0:0:0:
256,148,34283,1,8,0:0:0:0:
348,336,34494,1,0,0:0:0:0:
256,284,34705,1,0,0:0:0:0:
164,336,34917,1,0,0:0:0:0:
208,200,35129,2,0,B|232:184|256:180|256:180|280:184|304:200,1,105,8|0,0:0|0:0,0:0:0:0:
168,112,35551,6,0,P|124:132|76:184,1,105,0|0,0:0|0:0,0:0:0:0:
344,112,35974,2,0,P|388:132|436:184,1,105,8|0,0:0|0:0,0:0:0:0:
176,32,36397,1,0,0:0:0:0:
256,100,36609,1,0,0:0:0:0:
336,32,36820,1,8,0:0:0:0:
256,100,37031,1,0,0:0:0:0:
60,232,37243,6,0,B|88:304|88:304|124:320,1,105,0|0,0:0|0:0,0:0:0:0:
308,280,37666,2,0,B|276:272|256:280|256:280|224:272|204:280,1,105,8|0,0:0|0:0,0:0:0:0:
398,315,38088,2,0,B|424:304|424:304|452:232,1,105,0|0,0:0|0:0,0:0:0:0:
416,132,38511,1,8,0:0:0:0:
344,56,38723,1,0,0:0:0:0:
196,224,38934,6,0,B|112:216|112:216|88:204,1,105,0|0,0:0|0:0,0:0:0:0:
196,128,39357,2,0,P|160:88|140:36,1,105,8|0,0:0|0:0,0:0:0:0:
316,224,39780,2,0,B|400:216|400:216|424:204,1,105,0|0,0:0|0:0,0:0:0:0:
316,128,40203,2,0,P|352:88|372:36,1,105,8|0,0:0|0:0,0:0:0:0:
116,268,40625,5,0,0:0:0:0:
188,348,40837,1,0,0:0:0:0:
396,268,41048,1,8,0:0:0:0:
324,348,41260,1,0,0:0:0:0:
112,164,41471,1,0,0:0:0:0:
116,268,41683,1,0,0:0:0:0:
400,164,41894,1,8,0:0:0:0:
396,268,42106,1,0,0:0:0:0:
256,76,42317,6,0,P|304:48|360:48,1,105,0|0,0:0|0:0,0:0:0:0:
148,232,42740,2,0,P|96:229|51:202,1,105,0|0,0:0|0:0,0:0:0:0:
368,236,43162,2,0,P|405:271|422:320,1,105,0|0,0:0|0:0,0:0:0:0:
256,192,43585,1,0,0:0:0:0:
256,192,43797,1,0,0:0:0:0:
256,200,43902,1,0,0:0:0:0:
256,208,44008,5,0,0:0:0:0:
160,120,44431,1,0,0:0:0:0:
348,284,44854,5,0,0:0:0:0:
120,72,45065,1,0,0:0:0:0:
400,320,45277,1,0,0:0:0:0:
140,88,45699,6,0,B|72:140|72:140|56:168,1,105,4|0,0:0|0:0,0:0:0:0:
76,256,46122,1,8,0:0:0:0:
176,292,46334,1,0,0:0:0:0:
176,292,46439,1,0,0:0:0:0:
176,292,46545,2,0,L|200:184,1,105,0|0,0:0|0:0,0:0:0:0:
338,33,46968,2,0,L|316:136,1,105,8|0,0:0|0:0,0:0:0:0:
108,64,47391,6,0,P|159:70|205:96,1,105,0|0,0:0|0:0,0:0:0:0:
409,276,47814,2,0,P|357:269|312:244,1,105,8|0,0:0|0:0,0:0:0:0:
403,120,48236,2,0,L|300:140,1,105,0|0,0:0|0:0,0:0:0:0:
300,140,48554,1,0,0:0:0:0:
300,140,48659,1,8,0:0:0:0:
88,271,48871,1,0,0:0:0:0:
192,244,49082,5,0,0:0:0:0:
204,140,49294,1,0,0:0:0:0:
204,140,49399,1,0,0:0:0:0:
204,140,49505,2,0,P|160:96|112:84,1,105,8|0,0:0|0:0,0:0:0:0:
300,192,49928,2,0,L|416:180,1,105,0|0,0:0|0:0,0:0:0:0:
476,104,50351,1,8,0:0:0:0:
448,296,50562,1,0,0:0:0:0:
240,308,50773,6,0,L|132:320,1,105,0|0,0:0|0:0,0:0:0:0:
48,260,51196,2,0,B|44:164|44:164|52:144,1,105,8|0,0:0|0:0,0:0:0:0:
240,116,51619,1,0,0:0:0:0:
136,100,51831,1,0,0:0:0:0:
292,208,52042,1,8,0:0:0:0:
392,176,52253,1,0,0:0:0:0:
168,112,52465,6,0,B|112:136|104:188|104:188|112:248|168:268,1,210,0|8,0:0|0:0,0:0:0:0:
256,212,53099,1,0,0:0:0:0:
340,152,53310,2,0,P|360:196|352:256,1,105,0|0,0:0|0:0,0:0:0:0:
157,251,53733,2,0,P|151:199|172:152,1,105,8|0,0:0|0:0,0:0:0:0:
360,352,54156,6,0,B|312:360|256:332|256:332|208:356|156:352,1,210,0|8,0:0|0:0,0:0:0:0:
72,288,54790,1,0,0:0:0:0:
44,188,55002,2,0,B|36:116|36:116|44:84,1,105,0|0,0:0|0:0,0:0:0:0:
140,44,55425,1,8,0:0:0:0:
204,128,55636,1,0,0:0:0:0:
405,261,55847,6,0,P|367:296|316:304,1,105,0|0,0:0|0:0,0:0:0:0:
316,304,56165,1,0,0:0:0:0:
316,304,56270,1,8,0:0:0:0:
106,261,56482,1,0,0:0:0:0:
106,261,56693,2,0,P|144:296|196:304,1,105,0|0,0:0|0:0,0:0:0:0:
256,111,57116,2,0,L|256:216,1,105,8|0,0:0|0:0,0:0:0:0:
16,88,57539,6,0,B|60:60|60:60|104:84|160:88,1,157.5,0|0,0:0|0:0,0:0:0:0:
172,96,57962,2,0,L|108:184,1,105,0|0,0:0|0:0,0:0:0:0:
401,180,58384,2,0,L|340:96,1,105,0|0,0:0|0:0,0:0:0:0:
256,208,58807,1,0,0:0:0:0:
256,192,59230,12,4,60075,0:0:0:0:
164,288,60499,5,8,0:0:0:0:
72,236,60710,1,0,0:0:0:0:
72,236,60816,1,0,0:0:0:0:
72,236,60921,2,0,B|72:152|72:152|84:112,1,105,0|0,0:0|0:0,0:0:0:0:
160,64,61344,1,8,0:0:0:0:
264,68,61556,1,0,0:0:0:0:
264,68,61767,6,0,L|376:56,1,105,0|0,0:0|0:0,0:0:0:0:
216,212,62190,2,0,L|111:223,1,105,8|0,0:0|0:0,0:0:0:0:
356,184,62613,2,0,L|352:292,1,105,0|0,0:0|0:0,0:0:0:0:
172,336,63036,1,8,0:0:0:0:
72,300,63247,1,0,0:0:0:0:
40,200,63458,6,0,P|92:176|148:180,1,105,0|0,0:0|0:0,0:0:0:0:
210,64,63881,2,0,L|244:164,1,105,8|0,0:0|0:0,0:0:0:0:
244,164,64198,1,0,0:0:0:0:
244,164,64304,1,0,0:0:0:0:
332,224,64516,1,0,0:0:0:0:
368,124,64727,2,0,P|420:108|472:124,1,105,8|0,0:0|0:0,0:0:0:0:
320,256,65150,6,0,P|269:269|220:253,1,105,0|0,0:0|0:0,0:0:0:0:
144,184,65573,1,8,0:0:0:0:
60,248,65784,2,0,L|48:360,1,105,0|0,0:0|0:0,0:0:0:0:
28,68,66207,2,0,L|16:180,1,105,0|8,0:0|0:0,0:0:0:0:
120,196,66630,1,0,0:0:0:0:
284,328,66841,6,0,P|336:340|400:320,1,105,0|0,0:0|0:0,0:0:0:0:
460,256,67264,1,8,0:0:0:0:
476,152,67475,1,0,0:0:0:0:
476,152,67581,1,0,0:0:0:0:
476,152,67687,1,0,0:0:0:0:
392,88,67898,1,0,0:0:0:0:
308,152,68110,1,8,0:0:0:0:
236,76,68321,1,0,0:0:0:0:
128,316,68532,6,0,B|144:228|144:228|136:204,1,105,0|0,0:0|0:0,0:0:0:0:
202,63,68955,2,0,L|232:164,1,105,8|0,0:0|0:0,0:0:0:0:
264,264,69378,1,0,0:0:0:0:
352,208,69590,2,0,P|404:192|456:208,1,105,0|8,0:0|0:0,0:0:0:0:
264,264,70012,1,0,0:0:0:0:
312,108,70224,6,0,L|440:96,1,105,0|0,0:0|0:0,0:0:0:0:
232,36,70647,2,0,L|127:45,1,105,8|0,0:0|0:0,0:0:0:0:
64,208,71069,1,0,0:0:0:0:
120,296,71281,1,0,0:0:0:0:
120,296,71387,1,0,0:0:0:0:
120,296,71492,1,8,0:0:0:0:
220,328,71704,1,0,0:0:0:0:
284,244,71915,6,0,P|260:184|288:80,1,157.5,0|0,0:0|0:0,0:0:0:0:
276,72,72338,2,0,L|168:100,1,105,8|0,0:0|0:0,0:0:0:0:
96,232,72761,5,0,0:0:0:0:
96,232,73184,1,0,0:0:0:0:
256,192,73606,12,0,75298,0:0:0:0:
100,348,82063,6,0,L|120:232,1,105,4|0,0:0|0:0,0:0:0:0:
117,244,82380,1,0,0:0:0:0:
117,244,82486,1,8,0:0:0:0:
308,44,82697,1,0,0:0:0:0:
308,44,82803,1,0,0:0:0:0:
308,44,82909,2,0,L|290:147,1,105,0|0,0:0|0:0,0:0:0:0:
290,147,83226,1,0,0:0:0:0:
290,147,83332,1,8,0:0:0:0:
408,352,83543,1,0,0:0:0:0:
408,352,83649,1,0,0:0:0:0:
408,352,83754,5,0,0:0:0:0:
416,164,83966,1,0,0:0:0:0:
416,164,84072,1,0,0:0:0:0:
416,164,84177,1,8,0:0:0:0:
240,236,84389,1,0,0:0:0:0:
240,236,84494,1,0,0:0:0:0:
240,236,84600,2,0,L|124:244,1,105,0|0,0:0|0:0,0:0:0:0:
135,243,84917,1,0,0:0:0:0:
135,243,85023,1,8,0:0:0:0:
360,88,85234,1,0,0:0:0:0:
360,88,85340,1,0,0:0:0:0:
360,88,85446,6,0,B|360:180|360:180|352:200,1,105,0|0,0:0|0:0,0:0:0:0:
355,192,85763,1,0,0:0:0:0:
355,192,85869,1,8,0:0:0:0:
116,256,86080,1,0,0:0:0:0:
116,256,86186,1,0,0:0:0:0:
116,256,86291,1,0,0:0:0:0:
116,256,86503,2,0,B|200:248|200:248|224:232,1,105,0|8,0:0|0:0,0:0:0:0:
217,236,86820,1,0,0:0:0:0:
217,236,86926,1,0,0:0:0:0:
324,56,87137,5,0,0:0:0:0:
280,156,87349,2,0,P|336:164|392:144,1,105,0|8,0:0|0:0,0:0:0:0:
120,204,87771,2,0,P|96:256|92:316,1,105,0|0,0:0|0:0,0:0:0:0:
272,304,88194,1,0,0:0:0:0:
272,304,88300,1,0,0:0:0:0:
272,304,88406,1,8,0:0:0:0:
272,304,88617,1,0,0:0:0:0:
84,128,88828,6,0,L|208:116,1,105,4|0,0:0|0:0,0:0:0:0:
284,164,89251,1,8,0:0:0:0:
332,260,89463,1,0,0:0:0:0:
256,332,89674,2,0,P|204:344|156:328,1,105,0|0,0:0|0:0,0:0:0:0:
292,184,90097,2,0,B|388:172|388:172|408:180,1,105,8|0,0:0|0:0,0:0:0:0:
72,212,90520,1,0,0:0:0:0:
140,132,90731,1,0,0:0:0:0:
228,76,90943,2,0,P|296:64|340:72,1,105,8|0,0:0|0:0,0:0:0:0:
232,312,91365,6,0,B|204:228|204:228|204:208,1,105,0|0,0:0|0:0,0:0:0:0:
292,152,91788,1,8,0:0:0:0:
384,200,92000,1,0,0:0:0:0:
232,312,92211,2,0,P|176:336|128:328,1,105,0|0,0:0|0:0,0:0:0:0:
224,152,92634,2,0,P|270:129|322:133,1,105,8|0,0:0|0:0,0:0:0:0:
112,192,93057,6,0,B|104:104|104:104|112:80,1,105,0|0,0:0|0:0,0:0:0:0:
200,32,93480,1,8,0:0:0:0:
284,92,93691,1,0,0:0:0:0:
316,320,93902,2,0,L|428:308,1,105,0|0,0:0|0:0,0:0:0:0:
476,220,94325,1,8,0:0:0:0:
416,132,94537,1,0,0:0:0:0:
312,23,94748,6,0,L|312:128,1,105,0|0,0:0|0:0,0:0:0:0:
144,115,95171,2,0,L|224:184,1,105,8|0,0:0|0:0,0:0:0:0:
83,327,95594,2,0,B|168:260|168:260|204:292|264:280,1,210,0|8,0:0|0:0,0:0:0:0:
360,240,96228,1,0,0:0:0:0:
252,60,96439,6,0,P|188:40|148:48,1,105,0|0,0:0|0:0,0:0:0:0:
72,116,96862,1,8,0:0:0:0:
159,250,97074,2,0,B|156:216|156:216|172:148,1,105,0|0,0:0|0:0,0:0:0:0:
276,144,97497,1,0,0:0:0:0:
228,308,97708,2,0,P|184:336|124:332,1,105,8|0,0:0|0:0,0:0:0:0:
67,144,98131,6,0,L|172:148,1,105,0|0,0:0|0:0,0:0:0:0:
248,76,98554,1,8,0:0:0:0:
67,144,98765,2,0,B|56:216|56:216|60:256,1,105,0|0,0:0|0:0,0:0:0:0:
272,368,99188,2,0,B|283:296|283:296|279:264,1,105,0|8,0:0|0:0,0:0:0:0:
340,60,99611,2,0,P|373:99|387:149,1,105,0|0,0:0|0:0,0:0:0:0:
199,192,100034,6,0,P|241:160|292:151,1,105,0|8,0:0|0:0,0:0:0:0:
200,312,100456,2,0,B|112:316|112:316|96:308,1,105,0|0,0:0|0:0,0:0:0:0:
328,236,100879,1,0,0:0:0:0:
392,320,101091,1,0,0:0:0:0:
144,176,101302,2,0,B|72:128|72:128|60:108,1,105,0|0,0:0|0:0,0:0:0:0:
380,168,101725,5,0,0:0:0:0:
364,272,101936,1,0,0:0:0:0:
256,108,102148,1,0,0:0:0:0:
256,84,102254,1,0,0:0:0:0:
256,64,102360,5,4,0:0:0:0:
256,328,102782,1,0,0:0:0:0:
460,256,103205,5,0,0:0:0:0:
256,84,103416,1,0,0:0:0:0:
52,256,103628,1,0,0:0:0:0:
460,336,104050,6,0,B|460:240|460:240|448:216,1,105,4|0,0:0|0:0,0:0:0:0:
312,92,104473,1,8,0:0:0:0:
468,84,104685,1,0,0:0:0:0:
360,188,104896,2,0,P|304:196|256:176,1,105,0|0,0:0|0:0,0:0:0:0:
92,248,105319,2,0,P|143:239|192:257,1,105,8|0,0:0|0:0,0:0:0:0:
136,344,105742,5,0,0:0:0:0:
12,192,105953,1,0,0:0:0:0:
208,120,106165,2,0,B|304:116|304:116|324:128,1,105,8|0,0:0|0:0,0:0:0:0:
444,260,106587,1,0,0:0:0:0:
432,88,106799,1,0,0:0:0:0:
432,88,106905,1,0,0:0:0:0:
432,88,107010,1,8,0:0:0:0:
344,220,107222,6,0,P|336:272|356:324,1,105,0|0,0:0|0:0,0:0:0:0:
288,120,107644,2,0,B|240:132|240:132|204:144|192:172,1,105,0|8,0:0|0:0,0:0:0:0:
176,316,108067,1,0,0:0:0:0:
104,112,108279,2,0,P|88:160|96:220,1,105,0|0,0:0|0:0,0:0:0:0:
104,112,108702,2,0,B|56:56|56:56|28:40,1,105,8|0,0:0|0:0,0:0:0:0:
44,296,109124,6,0,B|92:352|92:352|119:367,1,105,0|0,0:0|0:0,0:0:0:0:
257,192,109547,2,0,L|152:192,1,105,8|0,0:0|0:0,0:0:0:0:
144,296,109970,1,0,0:0:0:0:
300,328,110181,1,0,0:0:0:0:
368,184,110393,2,0,B|360:156|360:156|368:120|356:76,1,105,8|0,0:0|0:0,0:0:0:0:
154,80,110816,6,0,B|144:120|152:156|152:156|144:184,1,105,0|0,0:0|0:0,0:0:0:0:
256,336,111239,1,8,0:0:0:0:
256,232,111450,1,0,0:0:0:0:
120,160,111661,2,0,P|60:140|28:108,1,105,0|0,0:0|0:0,0:0:0:0:
256,31,112084,2,0,L|256:136,1,105,8|0,0:0|0:0,0:0:0:0:
392,159,112507,6,0,P|442:145|481:111,1,105,0|0,0:0|0:0,0:0:0:0:
204,232,112930,2,0,L|161:327,1,105,8|0,0:0|0:0,0:0:0:0:
353,327,113353,2,0,L|310:231,1,105,0|0,0:0|0:0,0:0:0:0:
372,43,113776,2,0,P|423:42|470:66,1,105,8|0,0:0|0:0,0:0:0:0:
136,196,114198,6,0,P|84:197|37:173,1,105,0|0,0:0|0:0,0:0:0:0:
41,66,114621,2,0,P|88:42|140:44,1,105,8|0,0:0|0:0,0:0:0:0:
369,218,115044,2,0,P|421:218|468:196,1,105
256,40,115467,2,0,B|252:80|252:80|260:132|260:132|256:152,1,105,8|0,0:0|0:0,0:0:0:0:
208,236,115890,6,0,P|156:248|104:228,1,105,0|0,0:0|0:0,0:0:0:0:
156,136,116313,1,8,0:0:0:0:
280,308,116524,1,0,0:0:0:0:
376,264,116735,2,0,B|472:248|472:248|484:236,1,105,0|0,0:0|0:0,0:0:0:0:
496,140,117158,1,8,0:0:0:0:
416,72,117370,1,0,0:0:0:0:
148,132,117581,6,4,B|116:216|116:216|135:260|135:260|112:332,1,210,4|8,0:0|0:0,0:0:0:0:
24,272,118215,1,0,0:0:0:0:
300,84,118427,2,0,L|256:184,1,105,0|0,0:0|0:0,0:0:0:0:
472,48,118850,2,0,L|428:148,1,105,8|0,0:0|0:0,0:0:0:0:
200,272,119272,6,0,P|252:288|316:268,1,105,0|0,0:0|0:0,0:0:0:0:
168,96,119695,2,0,P|118:80|67:90,1,105,8|0,0:0|0:0,0:0:0:0:
104,188,120118,1,0,0:0:0:0:
296,48,120329,1,0,0:0:0:0:
296,48,120435,1,0,0:0:0:0:
296,48,120541,1,8,0:0:0:0:
400,60,120752,1,0,0:0:0:0:
452,272,120964,6,0,B|360:276|360:276|336:268,1,105,0|0,0:0|0:0,0:0:0:0:
177,192,121387,2,0,P|227:178|276:196,1,105,8|0,0:0|0:0,0:0:0:0:
220,284,121809,1,0,0:0:0:0:
64,192,122021,2,0,B|68:120|68:120|80:88,1,105,0|8,0:0|0:0,0:0:0:0:
184,68,122444,1,0,0:0:0:0:
202,372,122655,6,0,P|153:358|124:316,1,105,0|0,0:0|0:0,0:0:0:0:
136,212,123078,2,0,L|248:208,1,105,8|0,0:0|0:0,0:0:0:0:
324,144,123501,1,0,0:0:0:0:
404,212,123712,2,0,P|428:152|420:108,1,105,0|8,0:0|0:0,0:0:0:0:
328,288,124135,1,0,0:0:0:0:
404,360,124346,6,0,L|508:352,2,105,0|0|8,0:0|0:0|0:0,0:0:0:0:
404,360,124981,1,0,0:0:0:0:
128,172,125192,1,0,0:0:0:0:
160,272,125403,1,0,0:0:0:0:
168,80,125615,1,8,0:0:0:0:
228,324,125826,1,0,0:0:0:0:
160,56,126038,6,0,L|56:84,1,105,0|0,0:0|0:0,0:0:0:0:
256,348,126461,2,0,L|357:320,1,105,0|0,0:0|0:0,0:0:0:0:
168,161,126883,2,0,L|64:189,1,105,0|0,0:0|0:0,0:0:0:0:
164,261,127306,2,0,L|265:233,1,105,0|0,0:0|0:0,0:0:0:0:
384,360,127729,5,0,0:0:0:0:
425,350,127834,1,0,0:0:0:0:
458,325,127940,1,0,0:0:0:0:
477,288,128046,1,0,0:0:0:0:
478,246,128151,1,0,0:0:0:0:
460,209,128257,1,0,0:0:0:0:
430,180,128363,1,0,0:0:0:0:
391,163,128468,1,0,0:0:0:0:
350,159,128574,1,0,0:0:0:0:
310,170,128680,1,0,0:0:0:0:
284,202,128786,1,0,0:0:0:0:
293,241,128891,1,0,0:0:0:0:
325,268,128997,1,0,0:0:0:0:
366,276,129103,1,0,0:0:0:0:
402,257,129208,1,0,0:0:0:0:
419,219,129314,1,0,0:0:0:0:
419,177,129420,1,0,0:0:0:0:
404,138,129526,1,0,0:0:0:0:
370,115,129631,1,0,0:0:0:0:
329,120,129737,1,0,0:0:0:0:
293,141,129843,1,0,0:0:0:0:
260,167,129948,1,0,0:0:0:0:
228,194,130054,1,0,0:0:0:0:
193,217,130160,1,0,0:0:0:0:
154,232,130265,1,0,0:0:0:0:
112,230,130371,1,0,0:0:0:0:
76,210,130477,1,0,0:0:0:0:
49,177,130583,1,0,0:0:0:0:
38,137,130688,1,0,0:0:0:0:
43,96,130794,1,0,0:0:0:0:
64,60,130900,1,0,0:0:0:0:
99,37,131005,1,0,0:0:0:0:
164,32,131111,5,4,0:0:0:0:
36,304,133438,5,2,0:0:0:0:
132,348,133649,2,0,B|152:308|136:272|136:272|172:260|208:216|188:156,1,210,0|0,0:0|0:0,0:0:0:0:
84,176,134283,1,2,0:0:0:0:
136,84,134494,6,0,B|188:52|248:80|248:80|344:68,1,210,0|0,1:0|0:0,0:0:0:0:
444,92,135129,1,2,0:0:0:0:
380,176,135340,2,0,B|276:188|276:188|308:220|308:272|272:316,1,210,0|0,0:0|0:0,0:0:0:0:
192,248,135974,1,2,0:0:0:0:
200,144,136186,6,0,B|148:140|108:184|108:184|120:120|100:80,1,210,0|0,1:0|0:0,0:0:0:0:
12,20,136820,1,2,0:0:0:0:
212,64,137031,2,0,B|288:72|288:72|312:36|380:24|416:44,1,210,0|2,0:0|0:0,0:0:0:0:
368,136,137666,1,2,0:0:0:0:
386,347,137877,6,0,B|408:324|416:280|392:244|392:244|448:236|464:180,1,210,4|0,1:0|0:0,0:0:0:0:
296,292,138511,1,2,0:0:0:0:
192,300,138723,2,0,P|144:324|84:304,1,105,0|0,0:0|0:0,0:0:0:0:
52,216,139146,1,2,0:0:0:0:
52,112,139357,6,0,B|100:116|136:160|136:160|128:104|136:64|208:24|272:80,1,315,2|0,0:0|0:0,0:0:0:0:
344,152,140203,1,2,0:0:0:0:
416,76,140414,2,0,B|464:108|464:140|460:196|424:216|424:216|452:228|468:248,1,210,0|0,0:0|0:0,0:0:0:0:
476,344,141048,1,2,0:0:0:0:
372,320,141260,6,0,B|324:280|260:284|224:312|224:312|176:352|108:336|92:288|80:252,1,315,0|2,1:0|0:0,0:0:0:0:
24,204,142105,2,0,B|40:236|84:244|112:228|136:204|136:204|164:176|216:184,1,210,0|0,0:0|0:0,0:0:0:0:
308,224,142740,1,2,0:0:0:0:
184,272,142951,5,0,0:0:0:0:
142,294,143056,1,0,0:0:0:0:
96,300,143162,1,0,0:0:0:0:
52,283,143268,1,0,0:0:0:0:
26,244,143373,1,0,0:0:0:0:
30,198,143479,1,0,0:0:0:0:
64,167,143585,1,0,0:0:0:0:
104,141,143690,1,0,0:0:0:0:
136,107,143796,1,0,0:0:0:0:
142,61,143902,1,0,0:0:0:0:
109,29,144008,1,0,0:0:0:0:
62,28,144113,1,0,0:0:0:0:
32,62,144219,1,0,0:0:0:0:
40,107,144325,1,0,0:0:0:0:
71,143,144430,1,0,0:0:0:0:
114,161,144536,1,0,0:0:0:0:
160,157,144642,1,0,0:0:0:0:
197,128,144748,1,0,0:0:0:0:
242,115,144853,1,0,0:0:0:0:
286,129,144959,1,0,0:0:0:0:
312,167,145065,1,0,0:0:0:0:
310,214,145170,1,0,0:0:0:0:
289,256,145276,1,0,0:0:0:0:
275,300,145382,1,0,0:0:0:0:
300,352,145487,5,4,1:0:0:0:
346,344,145911,1,8,0:3:0:0:
386,333,146334,5,0,0:0:0:0:
182,108,146545,1,8,3:0:0:0:
452,321,146757,1,8,3:0:0:0:
44,264,147179,6,0,B|120:224|120:224|172:224,1,125.999996154785,4|0,0:0|0:0,0:0:0:0:
256,308,147602,1,8,0:0:0:0:
351,224,147814,1,0,0:0:0:0:
351,224,147919,1,0,0:0:0:0:
351,224,148025,2,0,B|392:224|392:224|468:264,1,125.999996154785,0|0,0:0|0:0,0:0:0:0:
457,104,148448,2,0,L|332:120,1,125.999996154785,8|0,0:0|0:0,0:0:0:0:
54,104,148871,6,0,L|180:120,1,125.999996154785,0|0,0:0|0:0,0:0:0:0:
340,272,149294,1,8,0:0:0:0:
256,364,149505,1,0,0:0:0:0:
256,364,149611,1,0,0:0:0:0:
256,364,149716,1,0,0:0:0:0:
172,272,149928,1,0,0:0:0:0:
256,176,150139,1,8,0:0:0:0:
256,176,150351,1,0,0:0:0:0:
80,56,150562,6,0,B|56:136|56:136|56:184,1,125.999996154785,0|0,0:0|0:0,0:0:0:0:
224,348,150985,2,0,B|248:268|248:268|248:220,1,125.999996154785,8|0,0:0|0:0,0:0:0:0:
248,225,151302,1,0,0:0:0:0:
248,225,151408,1,0,0:0:0:0:
463,36,151619,2,0,L|340:60,1,125.999996154785,0|8,0:0|0:0,0:0:0:0:
120,112,152042,1,0,0:0:0:0:
220,36,152253,6,0,P|248:96|236:156,1,125.999996154785,0|0,0:0|0:0,0:0:0:0:
104,352,152676,2,0,P|76:292|88:232,1,125.999996154785,8|0,0:0|0:0,0:0:0:0:
300,180,153099,1,0,0:0:0:0:
408,304,153310,1,0,0:0:0:0:
216,272,153522,2,0,B|196:224|196:224|144:240|104:224,1,125.999996154785,8|0,0:0|0:0,0:0:0:0:
36,32,153945,6,0,B|56:80|56:80|108:64|129:74,1,125.999996154785,0|0,0:0|0:0,0:0:0:0:
216,272,154368,1,8,0:0:0:0:
116,344,154579,1,0,0:0:0:0:
116,344,154685,1,0,0:0:0:0:
116,344,154790,1,0,0:0:0:0:
376,336,155002,1,0,0:0:0:0:
404,212,155213,1,8,0:0:0:0:
108,212,155425,1,0,0:0:0:0:
136,336,155636,5,0,0:0:0:0:
404,212,155847,1,0,0:0:0:0:
324,116,156059,1,8,0:0:0:0:
108,212,156270,1,0,0:0:0:0:
188,116,156482,1,0,0:0:0:0:
256,224,156693,1,0,0:0:0:0:
52,280,156905,2,0,P|24:220|40:160,1,125.999996154785,8|0,0:0|0:0,0:0:0:0:
192,32,157327,6,0,L|212:160,1,125.999996154785,0|0,0:0|0:0,0:0:0:0:
460,280,157750,2,0,P|488:220|472:160,1,125.999996154785,8|0,0:0|0:0,0:0:0:0:
320,32,158172,2,0,L|300:160,1,125.999996154785,0|0,0:0|0:0,0:0:0:0:
300,156,158490,1,2,1:2:0:0:
300,156,158596,1,8,0:0:0:0:
256,276,158807,1,0,0:0:0:0:
96,60,159019,6,0,B|80:160|80:160|88:188,1,125.999996154785,2|0,1:2|0:0,0:0:0:0:
112,200,159336,2,0,P|108:236|96:260,1,62.9999980773926,0|2,0:0|0:2,0:0:0:0:
4,348,159653,1,0,0:0:0:0:
256,248,159864,1,2,0:2:0:0:
368,312,160076,1,0,0:0:0:0:
152,188,160287,1,2,0:2:0:0:
28,272,160499,1,0,0:0:0:0:
328,140,160710,6,0,L|436:76,1,125.999996154785,4|0,0:0|0:0,0:0:0:0:
184,144,161133,2,0,P|192:80|232:28,1,125.999996154785,8|0,0:0|0:0,0:0:0:0:
320,264,161556,1,0,0:0:0:0:
204,308,161767,1,0,0:0:0:0:
384,148,161979,2,0,P|432:184|448:248,1,125.999996154785,8|0,0:0|0:0,0:0:0:0:
144,176,162401,6,0,L|188:52,1,125.999996154785,0|0,0:0|0:0,0:0:0:0:
332,144,162824,2,0,L|376:20,1,125.999996154785,8|0,0:0|0:0,0:0:0:0:
374,25,163141,1,0,0:0:0:0:
374,25,163247,1,0,0:0:0:0:
112,72,163458,1,0,0:0:0:0:
64,188,163670,1,8,0:0:0:0:
20,304,163881,1,0,0:0:0:0:
336,324,164093,6,0,B|420:324|420:324|456:296,1,125.999996154785,0|0,0:0|0:0,0:0:0:0:
256,228,164516,2,0,P|256:156|256:100,1,125.999996154785,8|0,0:0|0:0,0:0:0:0:
256,102,164833,1,0,0:0:0:0:
256,102,164938,1,0,0:0:0:0:
58,298,165150,2,0,B|92:324|92:324|176:324,1,125.999996154785,0|8,0:0|0:0,0:0:0:0:
256,224,165573,1,0,0:0:0:0:
80,44,165784,6,0,B|56:68|56:68|76:112|56:160,1,125.999996154785,0|0,0:0|0:0,0:0:0:0:
32,280,166207,2,0,P|120:288|160:312,1,125.999996154785,8|0,0:0|0:0,0:0:0:0:
480,280,166630,2,0,P|417:280|360:305,1,125.999996154785,0|0,0:0|0:0,0:0:0:0:
256,232,167053,1,8,0:0:0:0:
344,144,167264,1,0,0:0:0:0:
108,244,167475,6,0,B|68:180|116:112|116:112|140:68,1,188.999994232178,4|0,0:0|0:0,0:0:0:0:
152,68,167898,2,0,P|212:76|284:60,1,125.999996154785,0|0,0:0|0:0,0:0:0:0:
275,63,168215,1,0,0:0:0:0:
275,63,168321,1,0,0:0:0:0:
452,200,168532,1,0,0:0:0:0:
400,84,168744,1,0,0:0:0:0:
316,176,168955,1,0,0:0:0:0:
180,332,169167,6,0,P|116:344|60:320,1,125.999996154785,0|0,0:0|0:0,0:0:0:0:
332,332,169590,2,0,P|392:344|450:321,1,125.999996154785,0|0,0:0|0:0,0:0:0:0:
256,236,170012,2,0,L|256:108,1,125.999996154785,0|0,0:0|0:0,0:0:0:0:
136,76,170435,1,0,0:0:0:0:
48,164,170647,1,0,0:0:0:0:
164,312,170858,6,0,B|200:344|256:344|288:304|288:304|308:272|360:264|400:284,1,251.999992309571,0|0,0:0|0:0,0:0:0:0:
500,340,171492,2,0,B|464:304|384:280|384:280|448:240|448:176,1,251.999992309571,0|0,0:0|0:0,0:0:0:0:
447,183,172021,1,0,0:0:0:0:
447,183,172127,1,0,0:0:0:0:
372,84,172338,1,0,0:0:0:0:
256,132,172549,6,0,B|176:156|88:112|88:112|56:128,1,188.999994232178,0|0,0:0|0:0,0:0:0:0:
74,118,172972,2,0,L|100:256,1,125.999996154785,0|0,0:0|0:0,0:0:0:0:
40,356,173395,1,0,0:0:0:0:
40,356,173606,1,0,0:0:0:0:
40,356,173818,1,0,0:0:0:0:
256,144,174241,5,4,0:0:0:0:
