osu file format v14

[General]
AudioFilename: audio.mp3
AudioLeadIn: 0
PreviewTime: 126245
Countdown: 0
SampleSet: Normal
StackLeniency: 0.2
Mode: 1
LetterboxInBreaks: 0
WidescreenStoryboard: 1

[Editor]
Bookmarks: 80048,102245,169745,266745,281961
DistanceSpacing: 1
BeatDivisor: 8
GridSize: 32
TimelineZoom: 2.4

[Metadata]
Title:13 stairs
TitleUnicode:13階段のすべりだい
Artist:Babuchan
ArtistUnicode:ばぶちゃん
Creator:Alchyr
Version:5
Source:
Tags:piano electronic experimental noise japanese 13 kaidan no suberi dai 死後日記 SHIGO-NIKKI trevor brown SasitamA さしたま 初音ミク Hatsune Miku vocaloid Vomit Shithead ゲボ吐き糞野郎
BeatmapID:3928853
BeatmapSetID:1093671

[Difficulty]
HPDrainRate:5.5
CircleSize:7
OverallDifficulty:6
ApproachRate:0
SliderMultiplier:1.4
SliderTickRate:1

[Events]
//Background and Video events
0,0,"bg.jpg",0,0
//Break Periods
//Storyboard Layer 0 (Background)
//Storyboard Layer 1 (Fail)
//Storyboard Layer 2 (Pass)
//Storyboard Layer 3 (Foreground)
//Storyboard Layer 4 (Overlay)
//Storyboard Sound Samples

[TimingPoints]
979,697.674418604651,4,1,0,40,1,0
979,-90.526315789474,4,1,0,40,0,0
3769,631.578947368421,4,1,0,40,1,0
3769,-100,4,1,0,40,0,0
6295,666.666666666667,4,1,0,40,1,0
6295,-94.736842105263,4,1,0,40,0,0
7628,705.882352941176,4,1,0,40,1,8
7628,-89.473684210526,4,1,0,40,0,8
9039,705.882352941176,4,1,0,40,1,0
9039,-89.473684210526,4,1,0,40,0,0
11770,895.522388059701,4,1,0,40,1,0
11770,-70.526315789474,4,1,0,40,0,0
13561,952.380952380952,4,1,0,40,1,8
13561,-66.315789473684,4,1,0,40,0,8
14515,1034.48275862069,4,1,0,40,1,8
14515,-61.052631578947,4,1,0,40,0,8
15549,689.655172413793,4,1,0,40,1,0
15549,-91.578947368421,4,1,0,40,0,0
17617,750,4,1,0,40,1,8
17617,-84.210526315789,4,1,0,40,0,8
19759,750,4,1,0,40,1,0
19759,-84.210526315789,4,1,0,40,0,0
21717,-22.5225225225225,4,1,0,40,0,0
21913,-84.210526315789,4,1,0,40,0,0
22759,923.076923076923,4,1,0,40,1,0
22759,-68.421052631579,4,1,0,40,0,0
24605,895.522388059701,4,1,0,40,1,8
24605,-70.526315789474,4,1,0,40,0,8
25500,800,4,1,0,40,1,8
25500,-78.947368421053,4,1,0,40,0,8
26300,705.882352941176,4,1,0,40,1,0
26300,-89.473684210526,4,1,0,40,0,0
28417,631.578947368421,4,1,0,40,1,8
28417,-100,4,1,0,40,0,8
29048,571.428571428571,4,1,0,40,1,0
29048,-110.526315789474,4,1,0,40,0,0
30190,705.882352941176,4,1,0,40,1,8
30190,-89.473684210526,4,1,0,40,0,8
31601,779.220779220779,4,1,0,40,1,0
31601,-81.052631578947,4,1,0,40,0,0
37055,705.882352941176,4,1,0,40,1,8
37055,-89.473684210526,4,1,0,40,0,8
37760,722.89156626506,4,1,0,40,1,0
37760,-87.368421052632,4,1,0,40,0,0
40572,800,4,1,0,40,1,0
40572,-78.947368421053,4,1,0,40,0,0
42172,923.076923076923,4,1,0,40,1,8
42172,-68.421052631579,4,1,0,40,0,8
43095,1000,4,1,0,40,1,8
43095,-63.157894736842,4,1,0,40,0,8
44095,1111.11111111111,4,1,0,40,1,0
44095,-56.842105263158,4,1,0,40,0,0
45206,1000,4,1,0,40,1,8
45206,-63.157894736842,4,1,0,40,0,8
45621,-55.5555555555556,4,1,0,40,0,8
46455,-64.2710896175554,4,1,0,40,0,8
47371,-76.2759112681914,4,1,0,40,0,8
48206,1000,4,1,0,40,1,0
48206,-88.5657518260086,4,1,0,40,0,0
49205,-101.65265373825,4,1,0,40,0,0
50206,1071.42857142857,4,1,0,40,1,8
50206,-100,4,1,0,40,0,8
50919,-67.033665795468,4,1,0,40,0,8
51633,-35.2731768913653,4,1,0,40,0,8
52345,689.655172413793,4,1,0,40,1,0
52345,-33.3333311833903,4,1,0,40,0,0
52435,-91.578947368421,4,1,0,40,0,0
59219,769.230769230769,4,1,0,40,1,8
59219,-82.105263157895,4,1,0,40,0,0
60020,800,4,1,0,40,1,8
60020,-78.947368421053,4,1,0,40,0,0
60820,779.220779220779,4,1,0,40,1,0
60820,-81.052631578947,4,1,0,40,0,0
62366,810.810810810811,4,1,0,40,1,8
62366,-77.894736842105,4,1,0,40,0,8
63176,769.230769230769,4,1,0,40,1,0
63176,-82.105263157895,4,1,0,40,0,0
64714,821.917808219178,4,1,0,40,1,8
64714,-76.842105263158,4,1,0,40,0,8
65535,821.917808219178,4,1,0,40,1,0
65535,-76.842105263158,4,1,0,40,0,0
66357,769.230769230769,4,1,0,40,1,8
66357,-82.105263157895,4,1,0,40,0,8
67895,800,4,1,0,40,1,8
67895,-78.947368421053,4,1,0,40,0,8
68695,810.810810810811,4,1,0,40,1,0
68695,-77.894736842105,4,1,0,40,0,0
70316,821.917808219178,4,1,0,40,1,8
70316,-76.842105263158,4,1,0,40,0,8
71959,882.352941176471,4,1,0,40,1,0
71959,-125,4,1,0,40,0,0
72841,-83.3333333333333,4,1,0,35,0,0
73723,937.5,4,1,0,30,1,8
73723,-100,4,1,0,30,0,0
74660,1000,4,1,0,25,1,8
74660,-120.481927710843,4,1,0,25,0,0
75660,1578.94736842105,4,1,0,20,1,0
75660,-100,4,1,0,20,0,0
77227,705.882352941176,4,1,0,40,1,8
77227,-89.473684210526,4,1,0,40,0,0
80048,631.578947368421,4,1,0,40,1,0
80048,-100,4,1,0,40,0,0
97732,800,4,1,0,40,1,0
97732,-78.945290913397,4,1,0,40,0,0
98532,1000,4,1,0,40,1,8
98532,-70.3740009030102,4,1,0,40,0,0
99532,1158.30115830116,4,1,0,35,1,8
99532,-69.4874491659958,4,1,0,35,0,0
100690,779.220779220779,4,1,0,30,1,8
100690,-120.481931844278,4,1,0,30,0,0
102151,-33.3333333333333,4,1,0,70,0,0
102199,-32.5173956830567,4,1,0,80,0,0
102245,250,3,1,0,90,1,1
102245,-100.000004960603,3,1,0,90,0,1
113976,-93.4579439252336,3,1,0,90,0,1
114245,250,3,1,0,90,1,8
114245,-104.166666666667,3,1,0,90,0,0
114745,250,3,1,0,90,1,1
114745,-100,3,1,0,90,0,1
116213,-98.0392156862745,4,1,0,80,0,1
117705,-96.1538461538461,4,1,0,80,0,1
119218,-94.3396226415094,4,1,0,80,0,1
120714,-95.6937799043062,4,1,0,80,0,1
122186,-97.0873786407767,4,1,0,80,0,1
123702,-98.5221674876847,4,1,0,80,0,1
125188,-100,4,1,0,80,0,1
126245,500,3,1,0,40,1,8
127745,500,4,1,0,40,1,0
141495,-100,4,1,0,40,0,0
141620,-98.3680736580135,4,1,0,40,0,0
141745,-96.7885557211715,4,1,0,40,0,0
141870,-95.2589614868019,4,1,0,40,0,0
141995,-93.7770488175183,4,1,0,40,0,0
142120,-92.3404518587671,4,1,0,40,0,0
142245,-90.9472060563563,4,1,0,40,0,0
142370,-89.5953783120052,4,1,0,40,0,0
142495,-88.2831487774108,4,1,0,41,0,0
142620,-87.0088026805672,4,1,0,42,0,0
142745,-85.770722849921,4,1,0,44,0,0
142870,-84.5674543843151,4,1,0,46,0,0
142995,-83.397410343614,4,1,0,48,0,0
143120,-82.2593010591708,4,1,0,50,0,0
143245,-81.1518367095202,4,1,0,52,0,0
143370,-80.0737960104032,4,1,0,54,0,0
143495,-79.0240217221231,4,1,0,56,0,0
143620,-78.0014165057238,4,1,0,58,0,0
143745,-77.0049390967937,4,1,0,60,0,0
158245,-76.9230769230769,4,1,0,59,0,0
158370,-78.4207934302196,4,1,0,58,0,0
158495,-79.9779260923985,4,1,0,57,0,0
158620,-81.5982152838353,4,1,0,55,0,0
158745,-83.2854442029167,4,1,0,53,0,0
158870,-85.0439932577122,4,1,0,51,0,0
158995,-86.8784067195235,4,1,0,49,0,0
159120,-88.7936231971565,4,1,0,47,0,0
159245,-90.7952666611584,4,1,0,45,0,0
159370,-92.8891498041897,4,1,0,43,0,0
159495,-95.0819796828826,4,1,0,42,0,0
159620,-97.3807499681078,4,1,0,41,0,0
159745,-99.7935271922393,4,1,0,40,0,0
161682,-76.9230769230769,4,1,0,66,0,0
162182,-76.9230769230769,4,1,0,5,0,0
162870,-76.9230769230769,4,1,0,66,0,0
163557,-76.9230769230769,4,1,0,5,0,0
164245,-76.9230769230769,4,1,0,66,0,0
164495,-76.9230769230769,4,1,0,5,0,0
165432,-76.9230769230769,4,1,0,66,0,0
165745,-76.9230769230769,4,1,0,40,0,0
167307,-87.719298245614,4,1,0,55,0,0
167494,-88.3601672604461,4,1,0,55,0,0
167619,-89.0057184045517,4,1,0,55,0,0
167681,-84.3985592166994,4,1,0,55,0,0
167744,-89.6559858851308,4,1,0,55,0,0
167932,-90.9708079359083,4,1,0,60,0,0
168119,-91.6354321773964,4,1,0,62,0,0
168369,-92.9792831837724,4,1,0,66,0,0
168494,-93.6585811581694,4,1,0,68,0,0
168619,-94.3428420202358,4,1,0,70,0,0
168744,-95.0321020283662,4,1,0,71,0,0
168869,-95.7263977058556,4,1,0,72,0,0
168994,-96.425765842835,4,1,0,74,0,0
169244,-97.8398680016769,4,1,0,75,0,0
169494,-99.2747082370917,4,1,0,80,0,0
169619,-100,4,1,0,80,0,0
169745,250,3,1,0,80,1,1
171213,-98.0392156862745,4,1,0,80,0,1
172705,-96.1538461538461,4,1,0,80,0,1
174213,-94.3396226415094,4,1,0,80,0,1
175714,-95.6937799043062,4,1,0,80,0,1
177186,-97.0873786407767,4,1,0,80,0,1
178702,-98.5221674876847,4,1,0,80,0,1
180188,-100,4,1,0,80,0,1
181703,-100,3,1,0,85,0,1
181745,250,4,1,0,85,1,0
181745,-93.4579439252336,3,1,0,85,0,0
182120,-87.719298245614,3,1,0,90,0,0
182745,-87.719298245614,3,1,0,85,0,0
182786,-87.719298245614,3,1,0,83,0,0
182828,-87.719298245614,3,1,0,81,0,0
182870,-87.719298245614,3,1,0,79,0,0
182911,-87.719298245614,3,1,0,77,0,0
182953,-87.719298245614,3,1,0,75,0,0
182995,-87.719298245614,3,1,0,73,0,0
183036,-87.719298245614,3,1,0,71,0,0
183078,-87.719298245614,3,1,0,70,0,0
184245,-93.4674728396724,3,1,0,70,0,0
184369,-96.4813066164725,3,1,0,70,0,0
184494,-99.5923206609979,3,1,0,70,0,0
184619,-102.803648525108,3,1,0,70,0,0
184744,-106.118524801208,3,1,0,70,0,0
184869,-109.540288380273,3,1,0,70,0,0
184994,-113.07238581493,3,1,0,70,0,0
185119,-116.718374790977,3,1,0,70,0,0
185203,-120.481927710843,3,1,0,90,0,0
185327,-116.812379564507,3,1,0,90,0,0
185410,-113.254595762037,3,1,0,90,0,0
185494,-109.76425998969,3,1,0,90,0,0
185577,-106.421142524424,3,1,0,90,0,0
185660,-103.179847222288,3,1,0,90,0,0
185745,-100,4,1,0,90,0,1
217745,500,3,1,0,85,1,0
217745,-50,3,1,0,85,0,0
217870,-50,3,1,0,70,0,0
218245,-51.4967464596278,3,1,0,70,0,0
218745,-53.0382979185438,3,1,0,70,0,0
219245,-54.6259956112291,3,1,0,70,0,0
220245,-57.9453965865088,3,1,0,70,0,0
220745,-59.6799879303605,3,1,0,70,0,0
221245,-61.4665041432685,3,1,0,70,0,0
221745,-63.3064995925112,3,1,0,70,0,0
222245,-65.2015751752416,3,1,0,70,0,0
223745,-71.2340191873595,3,1,0,70,0,0
223994,-72.292349985449,3,1,0,70,0,0
224245,-73.3664045078343,3,1,0,70,0,0
224745,-75.5626226318888,3,1,0,70,0,0
225245,-77.8245843899782,3,1,0,70,0,0
226245,-82.5536698452504,3,1,0,70,0,0
226494,-83.7801778015507,3,1,0,70,0,0
226745,-85.0249081066537,3,1,0,70,0,0
226994,-86.2881314917799,3,1,0,70,0,0
227245,-87.57012271043,3,1,0,70,0,0
227745,-90.1915281331502,3,1,0,70,0,0
228245,-92.8914051415845,3,1,0,70,0,0
229245,-129.374850550168,3,1,0,70,0,0
229745,-101.485709791702,3,1,0,70,0,0
230245,-104.523677328373,3,1,0,70,0,0
230745,-107.652586208143,3,1,0,70,0,0
231245,-110.87515875368,3,1,0,70,0,0
232245,-117.61259403487,3,1,0,70,0,0
232745,-121.133318709457,3,1,0,70,0,0
232995,-122.933008286537,3,1,0,70,0,0
233245,-124.759436027884,3,1,0,70,0,0
233495,-126.612999185022,3,1,0,70,0,0
233745,-128.494100911482,3,1,0,70,0,0
234245,-132.340562723928,3,1,0,70,0,0
234745,-136.302168098372,3,1,0,70,0,0
235245,-140.382363849189,3,1,0,70,0,0
235745,-144.584699970898,3,1,0,70,0,0
235995,-146.732809015669,3,1,0,70,0,0
236245,-148.912832726854,3,1,0,70,0,0
236745,-153.370527830395,3,1,0,70,0,0
237245,-157.961663721223,3,1,0,70,0,0
237745,-162.690234939856,3,1,0,70,0,0
238245,-167.560355603101,3,1,0,70,0,0
238495,-170.049816213307,3,1,0,70,0,0
238745,-172.57626298356,3,1,0,70,0,0
238995,-175.14024542086,3,1,0,70,0,0
239245,-177.742321196289,3,1,0,70,0,0
239745,-183.06302499582,3,1,0,70,0,0
240245,-188.543003686845,3,1,0,70,0,0
240745,-194.187025151963,3,1,0,70,0,0
241245,-200,3,1,0,70,0,0
241620,-200,3,1,0,90,0,0
241745,500,4,1,0,90,1,0
241745,-50,4,1,0,90,0,0
242245,-50,4,1,0,90,0,0
243245,250,4,1,0,90,1,8
243245,-120.481927710843,4,1,0,90,0,0
243327,-116.812379564507,4,1,0,90,0,0
243410,-113.254595762037,4,1,0,90,0,0
243494,-109.76425998969,4,1,0,90,0,0
243577,-106.421142524424,4,1,0,90,0,0
243660,-103.179847222288,4,1,0,90,0,0
243745,250,4,1,0,90,1,1
243745,-100,4,1,0,90,0,1
259745,-100,4,1,0,90,0,0
259827,-100.806349292034,4,1,0,90,0,0
259910,-101.619200575875,4,1,0,90,0,0
259994,-102.448518814028,4,1,0,90,0,0
260077,-103.274611720184,4,1,0,90,0,0
260160,-104.10736582064,4,1,0,90,0,0
260244,-104.956990071883,4,1,0,90,0,0
260327,-105.803310018267,4,1,0,90,0,0
260410,-106.656454259547,4,1,0,90,0,0
260494,-107.52688172043,4,1,0,90,0,0
260744,-107.52688172043,4,1,0,90,0,0
260827,-106.365491037206,4,1,0,90,0,0
260910,-105.21664445735,4,1,0,90,0,0
260994,-104.066589570987,4,1,0,90,0,0
261077,-102.942573272654,4,1,0,90,0,0
261160,-101.830697399449,4,1,0,90,0,0
261244,-100.717652103907,4,1,0,90,0,0
261327,-99.6298074559629,4,1,0,90,0,0
261410,-98.5537125455609,4,1,0,90,0,0
261494,-97.4764858456715,4,1,0,90,0,0
261745,-94.3396226415094,4,1,0,90,0,1
261806,-100,4,1,0,90,0,1
274744,-100,4,1,0,90,0,1
274785,-98.9226781609809,4,1,0,90,0,1
274827,-92.5727216947074,4,1,0,90,0,1
274869,-97.8398680016769,4,1,0,90,0,1
274931,-96.7858177364274,4,1,0,90,0,1
274994,-96.7773636539916,4,1,0,90,0,1
275056,-95.9943531244336,4,1,0,90,0,1
275119,-95.2052024211967,4,1,0,90,0,1
275181,-92.649576809237,4,1,0,90,0,1
275244,-93.6585811581694,4,1,0,90,0,1
275285,-83.7255347526729,4,1,0,90,0,1
275327,-92.6455303265843,4,1,0,90,0,1
275410,-91.6434370813162,4,1,0,90,0,1
275494,-90.6403056806105,4,1,0,90,0,1
275713,-87.719298245614,4,2,0,90,0,1
275745,-87.719298245614,4,2,0,90,0,0
275807,-87.719298245614,4,2,0,80,0,0
275870,-87.719298245614,4,2,0,70,0,0
275932,-87.719298245614,4,2,0,60,0,0
275995,-87.719298245614,4,2,0,50,0,0
276057,-87.719298245614,4,2,0,40,0,0
276120,-87.719298245614,4,2,0,30,0,0
276745,260.869565217391,4,2,0,30,1,8
277788,521.739130434783,4,2,0,30,1,0
277788,-66.6666666666667,4,2,0,30,0,0
278223,-71.9952821782238,4,2,0,50,0,0
278297,-76.9230769230769,4,2,0,30,0,0
279841,-93.8049776512803,4,2,0,30,0,0
280281,-101.681451764155,4,2,0,45,0,0
280409,-101.681451764155,4,2,0,30,0,0
281701,-100,4,2,0,25,0,0
281961,582.52427184466,3,2,0,25,1,0
281961,-120.481927710843,3,2,0,25,0,0
282542,-123.778552406139,3,2,0,25,0,0
283125,-127.206648794351,3,2,0,25,0,0
283707,-130.761252037331,3,2,0,25,0,0
283708,-130.767477544925,3,2,0,25,0,0
284290,-134.461886022817,3,2,0,25,0,0
284872,-138.303690596001,3,2,0,25,0,0
285455,-142.308316617555,3,2,0,25,0,0
285746,-144.368505955833,3,2,0,25,0,0
286037,-146.471107536183,3,2,0,25,0,0
286328,-148.617367156142,3,2,0,25,0,0
286377,-148.983150748762,3,2,0,25,0,0
286620,-150.816188683107,3,2,0,25,0,0
287203,550.45871559633,3,2,0,25,1,0
287203,-164.388123095487,3,2,0,25,0,0
287752,-169.102574590775,3,2,0,25,0,0
288303,588.235294117647,3,2,0,25,1,8
288303,-162.838771368823,3,2,0,25,0,8
288596,-165.374957000781,3,2,0,25,0,8
288891,555.555555555556,3,2,0,25,1,0
288891,-177.849302867642,3,2,0,25,0,0
289445,-183.207368459986,3,2,0,25,0,0
290002,600,3,2,0,25,1,8
290002,-174.828528484973,3,2,0,25,0,0
290602,600,3,2,0,25,1,0
290602,-180.697439784711,3,2,0,25,0,0
291202,545.454545454546,3,2,0,25,1,8
291202,-205.548086643709,3,2,0,25,0,8
291732,566.037735849057,3,2,0,25,1,8
291732,-204.124694330575,3,2,0,25,0,8
291978,-207.039266102757,3,2,0,25,0,8
292292,588.235294117647,3,2,0,25,1,0
292292,-202.867347198664,3,2,0,25,0,0
292585,-206.37888835749,3,2,0,25,0,0
292880,594.059405940594,3,2,0,25,1,8
292880,-207.92401893548,3,2,0,25,0,8
293473,-215.427021650518,3,2,0,25,0,8
294068,594.059405940594,3,2,0,25,1,0
294068,-223.348729984736,3,2,0,25,0,0
294641,618.556701030928,3,2,0,25,1,8
294641,-222.254533074454,3,2,0,25,0,8
294949,-226.614304853988,3,2,0,25,0,8
295259,631.578947368421,3,2,0,25,1,8
295259,-226.342120333854,3,2,0,25,0,8
295890,631.578947368421,3,2,0,25,1,0
295890,-235.757795496957,3,2,0,25,0,0
296522,652.173913043478,3,2,0,25,1,8
296522,-238.050931211226,3,2,0,25,0,0
297174,731.707317073171,3,2,0,25,1,8
297174,-221.753183706195,3,2,0,25,0,0
297905,750,3,2,0,25,1,0
297905,-227.635649648093,3,2,0,25,0,0
298655,-240.225161466014,3,2,0,25,0,0
299405,952.380952380952,3,2,0,25,1,8
299405,-200.000010684562,3,2,0,25,0,0
300357,1000,3,2,0,15,1,0
300357,-200.000010684562,3,2,0,15,0,0

[HitObjects]
93,93,80048,5,0,0:0:0:0:
82,90,81311,1,8,0:0:0:0:
217,41,82258,1,8,0:0:0:0:
391,92,82574,1,0,0:0:0:0:
56,95,83521,1,0,0:0:0:0:
39,28,83837,1,8,0:0:0:0:
111,90,84784,1,0,0:0:0:0:
41,128,85100,1,0,0:0:0:0:
45,80,86363,1,8,0:0:0:0:
442,161,87626,1,0,0:0:0:0:
252,296,88258,1,0,0:0:0:0:
210,197,88890,1,8,0:0:0:0:
168,253,89521,1,0,0:0:0:0:
175,173,90153,1,8,0:0:0:0:
171,169,90784,1,0,0:0:0:0:
213,130,91416,1,8,0:0:0:0:
211,143,92048,1,8,0:0:0:0:
70,171,92363,1,0,0:0:0:0:
161,170,92679,1,0,0:0:0:0:
463,160,93626,1,0,0:0:0:0:
341,90,93942,1,8,0:0:0:0:
48,141,94890,1,8,0:0:0:0:
411,295,95205,1,0,0:0:0:0:
116,170,96469,1,8,0:0:0:0:
397,166,97732,1,0,0:0:0:0:
455,154,98532,1,0,0:0:0:0:
422,298,99532,1,8,0:0:0:0:
216,0,100690,1,8,0:0:0:0:
56,248,102245,1,8,0:0:0:0:
334,94,102307,1,8,0:0:0:0:
308,188,102370,1,8,0:0:0:0:
50,187,102432,1,8,0:0:0:0:
47,324,102495,1,0,0:0:0:0:
201,358,102620,1,0,0:0:0:0:
407,162,102745,1,8,0:0:0:0:
138,6,102870,1,8,0:0:0:0:
44,70,102932,1,8,0:0:0:0:
37,42,102995,1,0,0:0:0:0:
140,311,103120,1,0,0:0:0:0:
403,294,103245,1,8,0:0:0:0:
85,277,103370,1,8,0:0:0:0:
114,7,103495,1,0,0:0:0:0:
211,143,103745,1,8,0:0:0:0:
50,175,103807,1,8,0:0:0:0:
209,2,103870,1,0,0:0:0:0:
193,0,103932,1,0,0:0:0:0:
46,94,103995,1,8,0:0:0:0:
479,157,104120,1,0,0:0:0:0:
57,242,104245,1,8,0:0:0:0:
86,254,104307,1,8,0:0:0:0:
302,192,104370,1,8,0:0:0:0:
344,43,104495,1,0,0:0:0:0:
205,124,104620,1,0,0:0:0:0:
288,224,104745,1,0,0:0:0:0:
395,90,104870,1,8,0:0:0:0:
168,352,104932,1,8,0:0:0:0:
320,161,104995,1,0,0:0:0:0:
317,136,105245,1,0,0:0:0:0:
123,4,105307,1,0,0:0:0:0:
214,9,105370,1,8,0:0:0:0:
296,218,105432,1,0,0:0:0:0:
385,297,105495,1,8,0:0:0:0:
446,87,105620,1,0,0:0:0:0:
137,336,105682,1,0,0:0:0:0:
457,160,105745,1,8,0:0:0:0:
188,173,105870,1,8,0:0:0:0:
404,85,105995,1,0,0:0:0:0:
264,281,106120,1,0,0:0:0:0:
312,164,106245,1,8,0:0:0:0:
51,188,106307,1,8,0:0:0:0:
185,174,106370,1,8,0:0:0:0:
206,131,106495,1,0,0:0:0:0:
185,164,106745,1,8,0:0:0:0:
327,133,106807,1,0,0:0:0:0:
67,94,106870,1,8,0:0:0:0:
446,161,106932,1,8,0:0:0:0:
265,277,106995,1,0,0:0:0:0:
195,167,107120,1,0,0:0:0:0:
139,344,107245,1,8,0:0:0:0:
51,178,107307,1,0,0:0:0:0:
118,175,107370,1,8,0:0:0:0:
43,134,107495,1,0,0:0:0:0:
45,54,107620,1,0,0:0:0:0:
292,212,107682,1,0,0:0:0:0:
271,261,107745,1,8,0:0:0:0:
299,203,107870,1,8,0:0:0:0:
208,236,107995,1,0,0:0:0:0:
40,334,108245,1,8,0:0:0:0:
336,72,108307,1,8,0:0:0:0:
439,290,108370,1,8,0:0:0:0:
381,285,108432,1,8,0:0:0:0:
118,7,108495,1,0,0:0:0:0:
206,248,108620,1,0,0:0:0:0:
87,260,108745,1,8,0:0:0:0:
257,285,108870,1,8,0:0:0:0:
204,195,108995,1,0,0:0:0:0:
386,94,109057,1,0,0:0:0:0:
408,164,109120,1,8,0:0:0:0:
44,123,109245,1,0,0:0:0:0:
208,135,109370,1,0,0:0:0:0:
54,218,109495,1,8,0:0:0:0:
382,292,109745,1,8,0:0:0:0:
140,287,109807,1,8,0:0:0:0:
422,299,109870,1,0,0:0:0:0:
181,94,109995,1,8,0:0:0:0:
206,204,110120,1,8,0:0:0:0:
405,164,110245,1,0,0:0:0:0:
76,93,110370,1,8,0:0:0:0:
137,168,110495,1,0,0:0:0:0:
454,157,110557,1,0,0:0:0:0:
74,279,110620,1,8,0:0:0:0:
111,167,110745,1,0,0:0:0:0:
336,92,110870,1,8,0:0:0:0:
216,23,110932,1,8,0:0:0:0:
210,201,110995,1,8,0:0:0:0:
217,341,111245,1,8,0:0:0:0:
187,357,111307,1,8,0:0:0:0:
216,337,111370,1,0,0:0:0:0:
348,30,111495,1,8,0:0:0:0:
99,170,111620,1,0,0:0:0:0:
254,301,111745,1,8,0:0:0:0:
165,8,111870,1,8,0:0:0:0:
40,9,111995,1,0,0:0:0:0:
290,227,112120,1,0,0:0:0:0:
289,240,112245,1,8,0:0:0:0:
197,174,112307,1,8,0:0:0:0:
82,248,112370,1,8,0:0:0:0:
140,271,112495,1,0,0:0:0:0:
384,284,112620,1,8,0:0:0:0:
74,286,112682,1,8,0:0:0:0:
251,304,112745,1,8,0:0:0:0:
216,18,112870,1,0,0:0:0:0:
452,293,112995,1,8,0:0:0:0:
75,284,113120,1,0,0:0:0:0:
178,168,113245,1,8,0:0:0:0:
194,251,113370,1,8,0:0:0:0:
394,167,113432,1,8,0:0:0:0:
179,361,113495,1,0,0:0:0:0:
505,161,113745,1,0,0:0:0:0:
175,247,113807,1,0,0:0:0:0:
187,164,113995,1,8,0:0:0:0:
44,113,114057,1,8,0:0:0:0:
381,266,114120,1,8,0:0:0:0:
417,293,114245,1,0,0:0:0:0:
167,358,114307,1,0,0:0:0:0:
166,175,114370,1,0,0:0:0:0:
190,91,114432,1,0,0:0:0:0:
97,9,114745,1,12,0:0:0:0:
466,298,114995,1,0,0:0:0:0:
384,275,115057,1,0,0:0:0:0:
323,135,115120,1,0,0:0:0:0:
48,192,115182,1,0,0:0:0:0:
211,19,115245,1,8,0:0:0:0:
441,159,115370,1,0,0:0:0:0:
320,135,115495,1,8,0:0:0:0:
419,164,115557,1,0,0:0:0:0:
156,351,115620,1,8,0:0:0:0:
126,245,115745,1,0,0:0:0:0:
215,58,115870,1,0,0:0:0:0:
186,363,115995,1,8,0:0:0:0:
223,361,116245,1,12,0:0:0:0:
181,166,116370,1,8,0:0:0:0:
201,356,116495,1,8,0:0:0:0:
344,53,116620,1,8,0:0:0:0:
211,243,116682,1,0,0:0:0:0:
46,90,116745,1,8,0:0:0:0:
403,160,116932,1,0,0:0:0:0:
198,169,116995,1,0,0:0:0:0:
54,89,117057,1,0,0:0:0:0:
165,89,117120,1,8,0:0:0:0:
315,165,117307,1,0,0:0:0:0:
215,74,117370,1,0,0:0:0:0:
209,0,117432,1,0,0:0:0:0:
382,293,117495,1,8,0:0:0:0:
486,292,117620,1,0,0:0:0:0:
75,249,117745,1,12,0:0:0:0:
54,218,117870,1,0,0:0:0:0:
215,343,117995,1,8,0:0:0:0:
333,100,118057,1,8,0:0:0:0:
77,275,118120,1,0,0:0:0:0:
479,160,118245,1,8,0:0:0:0:
378,93,118370,1,0,0:0:0:0:
386,298,118495,1,8,0:0:0:0:
124,5,118557,1,0,0:0:0:0:
192,90,118620,1,0,0:0:0:0:
437,160,118682,1,0,0:0:0:0:
154,167,118745,1,8,0:0:0:0:
335,88,118932,1,0,0:0:0:0:
149,352,118995,1,8,0:0:0:0:
66,11,119120,1,0,0:0:0:0:
71,245,119245,1,12,0:0:0:0:
191,167,119495,1,0,0:0:0:0:
338,94,119620,1,0,0:0:0:0:
148,268,119745,1,8,0:0:0:0:
350,26,119807,1,8,0:0:0:0:
39,38,119870,1,8,0:0:0:0:
142,269,119995,1,0,0:0:0:0:
283,245,120120,1,0,0:0:0:0:
467,160,120245,1,8,0:0:0:0:
124,174,120307,1,0,0:0:0:0:
329,118,120370,1,8,0:0:0:0:
50,221,120495,1,8,0:0:0:0:
101,90,120620,1,0,0:0:0:0:
440,164,120745,1,12,0:0:0:0:
271,264,120995,1,8,0:0:0:0:
37,336,121120,1,0,0:0:0:0:
320,94,121245,1,8,0:0:0:0:
108,8,121307,1,8,0:0:0:0:
205,251,121370,1,8,0:0:0:0:
111,8,121495,1,0,0:0:0:0:
407,295,121620,1,8,0:0:0:0:
213,228,121682,1,8,0:0:0:0:
267,273,121745,1,8,0:0:0:0:
218,31,121870,1,0,0:0:0:0:
53,323,121995,1,8,0:0:0:0:
135,173,122120,1,0,0:0:0:0:
395,299,122245,1,12,0:0:0:0:
390,162,122370,1,0,0:0:0:0:
168,9,122495,1,0,0:0:0:0:
312,175,122620,1,0,0:0:0:0:
40,58,122745,1,8,0:0:0:0:
171,172,122995,1,0,0:0:0:0:
186,167,123120,1,8,0:0:0:0:
190,169,123182,1,0,0:0:0:0:
157,89,123245,1,8,0:0:0:0:
88,170,123307,1,8,0:0:0:0:
212,108,123370,1,0,0:0:0:0:
60,90,123495,1,8,0:0:0:0:
134,10,123620,1,0,0:0:0:0:
180,362,123745,1,12,0:0:0:0:
191,168,123870,1,0,0:0:0:0:
106,7,123995,1,0,0:0:0:0:
263,280,124120,1,8,0:0:0:0:
468,157,124245,1,8,0:0:0:0:
206,133,124370,1,0,0:0:0:0:
428,160,124432,1,0,0:0:0:0:
102,7,124495,1,0,0:0:0:0:
129,13,124620,1,8,0:0:0:0:
213,126,124682,1,8,0:0:0:0:
316,164,124745,1,8,0:0:0:0:
42,86,124995,1,0,0:0:0:0:
61,314,125120,1,0,0:0:0:0:
211,141,125245,1,12,0:0:0:0:
451,87,125370,1,8,0:0:0:0:
279,239,125432,1,8,0:0:0:0:
451,292,125495,1,0,0:0:0:0:
395,88,125620,1,0,0:0:0:0:
316,95,125745,1,8,0:0:0:0:
212,3,125870,1,0,0:0:0:0:
32,338,125995,1,8,0:0:0:0:
209,12,126120,1,8,0:0:0:0:
456,295,127745,1,0,0:0:0:0:
467,293,128745,1,8,0:0:0:0:
506,155,129495,1,8,0:0:0:0:
88,8,129745,1,0,0:0:0:0:
87,176,130495,1,0,0:0:0:0:
43,90,130745,1,8,0:0:0:0:
439,292,131495,1,0,0:0:0:0:
206,97,131745,1,0,0:0:0:0:
148,89,132745,1,8,0:0:0:0:
381,276,134245,1,0,0:0:0:0:
204,358,134745,1,8,0:0:0:0:
41,117,135245,1,0,0:0:0:0:
42,76,135745,1,8,0:0:0:0:
261,274,136245,1,0,0:0:0:0:
469,158,136745,1,8,0:0:0:0:
109,4,137245,1,8,0:0:0:0:
321,149,137495,1,0,0:0:0:0:
389,167,137745,1,0,0:0:0:0:
291,214,138495,1,0,0:0:0:0:
45,115,138745,1,8,0:0:0:0:
182,90,139495,1,8,0:0:0:0:
180,168,139745,1,0,0:0:0:0:
389,298,140620,1,0,0:0:0:0:
477,292,140745,1,8,0:0:0:0:
336,86,141245,1,8,0:0:0:0:
316,168,141745,1,0,0:0:0:0:
208,181,142245,1,0,0:0:0:0:
137,284,142620,1,0,0:0:0:0:
76,172,142745,1,8,0:0:0:0:
321,123,142995,1,0,0:0:0:0:
55,94,143120,1,0,0:0:0:0:
42,97,143245,1,8,0:0:0:0:
67,289,143495,1,0,0:0:0:0:
207,73,143620,1,8,0:0:0:0:
144,246,143745,1,8,0:0:0:0:
171,248,143995,1,0,0:0:0:0:
106,243,144120,1,0,0:0:0:0:
68,11,144245,1,8,0:0:0:0:
114,249,144495,1,0,0:0:0:0:
484,162,144620,1,8,0:0:0:0:
67,8,144745,1,8,0:0:0:0:
86,91,144995,1,0,0:0:0:0:
143,254,145120,1,8,0:0:0:0:
181,88,145245,1,0,0:0:0:0:
381,301,145495,1,0,0:0:0:0:
51,207,145745,1,8,0:0:0:0:
151,250,145995,1,0,0:0:0:0:
411,290,146120,1,0,0:0:0:0:
133,336,146245,1,0,0:0:0:0:
267,277,146495,1,8,0:0:0:0:
188,9,146745,1,0,0:0:0:0:
265,283,146995,1,0,0:0:0:0:
386,288,147120,1,0,0:0:0:0:
54,244,147245,1,8,0:0:0:0:
336,87,147495,1,0,0:0:0:0:
374,281,147745,1,8,0:0:0:0:
200,0,148120,1,8,0:0:0:0:
168,4,148245,1,0,0:0:0:0:
47,12,148620,1,0,0:0:0:0:
318,91,148745,1,8,0:0:0:0:
310,93,149120,1,8,0:0:0:0:
216,358,149245,1,8,0:0:0:0:
117,4,149620,1,0,0:0:0:0:
473,291,149745,1,8,0:0:0:0:
339,101,150245,1,0,0:0:0:0:
212,42,150745,1,8,0:0:0:0:
353,95,151120,1,0,0:0:0:0:
128,246,151245,1,8,0:0:0:0:
48,136,151495,1,0,0:0:0:0:
60,172,151620,1,8,0:0:0:0:
411,158,151745,1,8,0:0:0:0:
190,172,151995,1,0,0:0:0:0:
212,167,152120,1,8,0:0:0:0:
40,81,152245,1,0,0:0:0:0:
167,361,152495,1,0,0:0:0:0:
414,162,152620,1,0,0:0:0:0:
200,93,152745,1,8,0:0:0:0:
201,1,152995,1,0,0:0:0:0:
132,346,153120,1,8,0:0:0:0:
52,206,153245,1,8,0:0:0:0:
474,159,153495,1,0,0:0:0:0:
324,93,153745,1,8,0:0:0:0:
393,300,153995,1,0,0:0:0:0:
470,155,154120,1,8,0:0:0:0:
141,167,154245,1,0,0:0:0:0:
204,167,154495,1,8,0:0:0:0:
141,90,154745,1,8,0:0:0:0:
137,312,154995,1,0,0:0:0:0:
328,130,155120,1,0,0:0:0:0:
210,360,155245,1,8,0:0:0:0:
211,97,155495,1,0,0:0:0:0:
49,133,155745,1,8,0:0:0:0:
214,95,155995,1,0,0:0:0:0:
39,334,156120,1,8,0:0:0:0:
367,94,156245,1,8,0:0:0:0:
213,114,156495,1,0,0:0:0:0:
194,90,156620,1,0,0:0:0:0:
312,193,156745,1,8,0:0:0:0:
66,311,156995,1,0,0:0:0:0:
342,59,157120,1,8,0:0:0:0:
335,83,157245,1,8,0:0:0:0:
260,296,157495,1,0,0:0:0:0:
207,125,157620,1,0,0:0:0:0:
374,90,157745,1,8,0:0:0:0:
256,289,158245,1,0,0:0:0:0:
67,300,158745,1,8,0:0:0:0:
28,346,159245,1,8,0:0:0:0:
443,295,159745,1,0,0:0:0:0:
142,290,161745,1,0,0:0:0:0:
387,87,161870,1,8,0:0:0:0:
148,253,161995,1,8,0:0:0:0:
325,99,162120,1,0,0:0:0:0:
281,246,162932,1,0,0:0:0:0:
101,92,163057,1,8,0:0:0:0:
305,188,163182,1,0,0:0:0:0:
62,244,163307,1,8,0:0:0:0:
52,184,164307,1,8,0:0:0:0:
154,3,164432,1,0,0:0:0:0:
407,161,165526,1,8,0:0:0:0:
123,6,165651,1,0,0:0:0:0:
40,26,167370,1,8,0:0:0:0:
296,220,167495,1,8,0:0:0:0:
297,96,167620,1,8,0:0:0:0:
440,296,167745,1,0,0:0:0:0:
434,160,167995,1,8,0:0:0:0:
327,116,168120,1,8,0:0:0:0:
400,297,168370,1,8,0:0:0:0:
207,183,168495,1,0,0:0:0:0:
405,93,168620,1,8,0:0:0:0:
82,8,168745,1,8,0:0:0:0:
497,156,168870,1,0,0:0:0:0:
68,301,168995,1,0,0:0:0:0:
146,249,169245,1,0,0:0:0:0:
206,150,169495,1,8,0:0:0:0:
87,261,169620,1,0,0:0:0:0:
214,20,169745,1,12,0:0:0:0:
94,249,169995,1,8,0:0:0:0:
397,158,170057,1,8,0:0:0:0:
335,95,170120,1,0,0:0:0:0:
49,150,170245,1,8,0:0:0:0:
416,163,170370,1,0,0:0:0:0:
122,87,170495,1,0,0:0:0:0:
328,131,170620,1,8,0:0:0:0:
175,2,170682,1,8,0:0:0:0:
44,139,170745,1,8,0:0:0:0:
452,159,170870,1,8,0:0:0:0:
66,305,170995,1,0,0:0:0:0:
206,228,171120,1,0,0:0:0:0:
119,92,171245,1,12,0:0:0:0:
61,247,171495,1,8,0:0:0:0:
214,86,171557,1,8,0:0:0:0:
23,344,171620,1,0,0:0:0:0:
106,89,171745,1,8,0:0:0:0:
144,173,171870,1,8,0:0:0:0:
133,349,171995,1,0,0:0:0:0:
413,160,172120,1,0,0:0:0:0:
75,275,172245,1,8,0:0:0:0:
186,165,172370,1,0,0:0:0:0:
149,88,172432,1,0,0:0:0:0:
383,275,172495,1,8,0:0:0:0:
149,88,172620,1,0,0:0:0:0:
162,84,172745,1,12,0:0:0:0:
429,161,172995,1,8,0:0:0:0:
217,330,173120,1,8,0:0:0:0:
46,115,173245,1,0,0:0:0:0:
330,112,173307,1,0,0:0:0:0:
422,88,173370,1,8,0:0:0:0:
50,92,173495,1,0,0:0:0:0:
474,154,173620,1,0,0:0:0:0:
142,345,173745,1,8,0:0:0:0:
161,253,173870,1,8,0:0:0:0:
457,161,173932,1,8,0:0:0:0:
129,2,173995,1,8,0:0:0:0:
454,84,174120,1,0,0:0:0:0:
340,72,174245,1,12,0:0:0:0:
354,93,174495,1,0,0:0:0:0:
455,88,174557,1,0,0:0:0:0:
223,359,174620,1,0,0:0:0:0:
117,86,174745,1,8,0:0:0:0:
37,57,174870,1,0,0:0:0:0:
460,88,174932,1,0,0:0:0:0:
198,364,174995,1,0,0:0:0:0:
313,156,175120,1,8,0:0:0:0:
435,87,175245,1,0,0:0:0:0:
158,248,175370,1,0,0:0:0:0:
164,361,175495,1,8,0:0:0:0:
40,75,175620,1,0,0:0:0:0:
49,155,175745,1,12,0:0:0:0:
157,254,175995,1,8,0:0:0:0:
355,25,176120,1,0,0:0:0:0:
347,30,176182,1,0,0:0:0:0:
345,94,176245,1,8,0:0:0:0:
382,252,176370,1,8,0:0:0:0:
130,250,176495,1,0,0:0:0:0:
256,285,176620,1,0,0:0:0:0:
313,96,176745,1,8,0:0:0:0:
139,275,176870,1,0,0:0:0:0:
452,84,176932,1,0,0:0:0:0:
467,89,176995,1,0,0:0:0:0:
362,92,177120,1,0,0:0:0:0:
450,291,177245,1,12,0:0:0:0:
205,213,177370,1,8,0:0:0:0:
467,85,177432,1,8,0:0:0:0:
354,31,177495,1,0,0:0:0:0:
208,92,177745,1,8,0:0:0:0:
150,174,177995,1,8,0:0:0:0:
65,249,178057,1,8,0:0:0:0:
31,18,178120,1,0,0:0:0:0:
492,293,178182,1,0,0:0:0:0:
45,88,178245,1,8,0:0:0:0:
486,296,178370,1,8,0:0:0:0:
355,19,178495,1,0,0:0:0:0:
116,89,178620,1,0,0:0:0:0:
323,129,178745,1,12,0:0:0:0:
203,220,178995,1,0,0:0:0:0:
43,106,179120,1,0,0:0:0:0:
119,88,179245,1,8,0:0:0:0:
384,297,179307,1,8,0:0:0:0:
42,117,179370,1,8,0:0:0:0:
85,246,179495,1,0,0:0:0:0:
207,102,179620,1,0,0:0:0:0:
96,92,179745,1,8,0:0:0:0:
375,284,179870,1,0,0:0:0:0:
181,90,179995,1,8,0:0:0:0:
213,43,180057,1,8,0:0:0:0:
369,86,180120,1,0,0:0:0:0:
212,334,180245,1,12,0:0:0:0:
300,202,180370,1,0,0:0:0:0:
166,6,180495,1,8,0:0:0:0:
375,280,180620,1,0,0:0:0:0:
438,85,180682,1,0,0:0:0:0:
200,5,180745,1,0,0:0:0:0:
128,248,180870,1,8,0:0:0:0:
186,362,180995,1,0,0:0:0:0:
322,93,181245,1,8,0:0:0:0:
39,8,181328,1,0,0:0:0:0:
81,268,181411,1,0,0:0:0:0:
362,95,181495,1,8,0:0:0:0:
42,126,181557,1,8,0:0:0:0:
408,160,181620,1,0,0:0:0:0:
200,170,181745,1,8,0:0:0:0:
422,296,181807,1,8,0:0:0:0:
327,137,181870,1,8,0:0:0:0:
291,219,181932,1,8,0:0:0:0:
67,94,182245,1,0,0:0:0:0:
216,90,182307,1,0,0:0:0:0:
501,294,182370,1,8,0:0:0:0:
328,103,182432,1,8,0:0:0:0:
492,291,182495,1,0,0:0:0:0:
312,161,182557,1,0,0:0:0:0:
215,74,182620,1,8,0:0:0:0:
316,154,182682,1,8,0:0:0:0:
265,284,182745,2,0,B|361:345|361:345|393:249|393:249|131:321|131:321|123:348|123:348|41:68,1,797.999990258789
84,89,184245,1,0,0:0:0:0:
39,59,184370,1,0,0:0:0:0:
39,81,184495,1,8,0:0:0:0:
62,10,184620,1,8,0:0:0:0:
66,308,184745,1,0,0:0:0:0:
130,249,184870,1,0,0:0:0:0:
48,163,184995,1,0,0:0:0:0:
133,319,185120,1,0,0:0:0:0:
256,192,185245,12,0,185620,0:0:0:0:
53,218,185745,5,12,0:0:0:0:
29,342,185870,1,0,0:0:0:0:
129,88,185932,1,0,0:0:0:0:
36,338,185995,1,8,0:0:0:0:
27,347,186057,1,8,0:0:0:0:
72,170,186120,1,0,0:0:0:0:
160,166,186245,1,8,0:0:0:0:
150,348,186370,1,0,0:0:0:0:
318,144,186495,1,0,0:0:0:0:
100,92,186620,1,0,0:0:0:0:
206,120,186745,1,8,0:0:0:0:
143,172,186807,1,8,0:0:0:0:
393,92,186870,1,0,0:0:0:0:
322,130,186995,1,8,0:0:0:0:
72,90,187120,1,8,0:0:0:0:
452,290,187370,1,0,0:0:0:0:
56,93,187432,1,0,0:0:0:0:
392,291,187495,1,8,0:0:0:0:
140,92,187620,1,0,0:0:0:0:
102,8,187745,1,8,0:0:0:0:
56,91,187870,1,8,0:0:0:0:
216,136,187932,1,8,0:0:0:0:
174,169,187995,1,8,0:0:0:0:
390,162,188120,1,8,0:0:0:0:
124,2,188370,1,8,0:0:0:0:
349,57,188432,1,8,0:0:0:0:
71,251,188495,1,8,0:0:0:0:
104,94,188620,1,0,0:0:0:0:
264,279,188745,1,8,0:0:0:0:
384,296,188995,1,0,0:0:0:0:
47,163,189057,1,0,0:0:0:0:
48,87,189120,1,0,0:0:0:0:
58,87,189182,1,0,0:0:0:0:
342,50,189245,1,8,0:0:0:0:
209,115,189370,1,0,0:0:0:0:
287,235,189495,1,8,0:0:0:0:
129,88,189620,1,0,0:0:0:0:
314,97,189745,1,8,0:0:0:0:
382,274,189870,1,8,0:0:0:0:
379,92,189995,1,0,0:0:0:0:
310,99,190120,1,0,0:0:0:0:
383,292,190182,1,0,0:0:0:0:
54,247,190245,1,8,0:0:0:0:
46,136,190370,1,8,0:0:0:0:
84,246,190495,1,0,0:0:0:0:
207,130,190620,1,8,0:0:0:0:
491,154,190745,1,0,0:0:0:0:
184,367,190807,1,0,0:0:0:0:
213,83,190870,1,0,0:0:0:0:
169,92,190995,1,8,0:0:0:0:
37,69,191057,1,8,0:0:0:0:
385,283,191182,1,0,0:0:0:0:
26,349,191245,1,8,0:0:0:0:
143,11,191370,1,8,0:0:0:0:
454,298,191495,1,0,0:0:0:0:
327,123,191745,1,0,0:0:0:0:
196,2,191807,1,0,0:0:0:0:
47,164,191870,1,0,0:0:0:0:
165,355,191932,1,0,0:0:0:0:
330,115,191995,1,8,0:0:0:0:
468,288,192120,1,8,0:0:0:0:
42,103,192245,1,0,0:0:0:0:
106,90,192495,1,0,0:0:0:0:
460,80,192620,1,0,0:0:0:0:
105,172,192745,1,8,0:0:0:0:
496,160,192807,1,8,0:0:0:0:
139,347,192870,1,0,0:0:0:0:
149,9,192995,1,8,0:0:0:0:
213,2,193120,1,8,0:0:0:0:
194,251,193245,1,0,0:0:0:0:
47,325,193307,1,0,0:0:0:0:
308,168,193370,1,0,0:0:0:0:
446,292,193495,1,8,0:0:0:0:
80,172,193620,1,0,0:0:0:0:
40,94,193745,1,8,0:0:0:0:
424,162,193995,1,0,0:0:0:0:
468,295,194120,1,0,0:0:0:0:
329,99,194245,1,8,0:0:0:0:
214,352,194370,1,0,0:0:0:0:
206,98,194432,1,0,0:0:0:0:
496,292,194495,1,8,0:0:0:0:
271,265,194620,1,0,0:0:0:0:
213,350,194745,1,8,0:0:0:0:
322,152,194807,1,8,0:0:0:0:
337,79,194870,1,8,0:0:0:0:
377,257,194932,1,8,0:0:0:0:
133,4,194995,1,0,0:0:0:0:
149,8,195120,1,0,0:0:0:0:
42,13,195245,1,8,0:0:0:0:
76,246,195370,1,8,0:0:0:0:
46,59,195495,1,0,0:0:0:0:
208,211,195745,1,8,0:0:0:0:
468,159,195807,1,8,0:0:0:0:
212,81,195870,1,8,0:0:0:0:
213,363,195995,1,0,0:0:0:0:
43,45,196120,1,0,0:0:0:0:
411,296,196245,1,8,0:0:0:0:
77,251,196370,1,0,0:0:0:0:
92,247,196495,1,8,0:0:0:0:
38,54,196620,1,8,0:0:0:0:
449,161,196745,1,0,0:0:0:0:
71,89,196870,1,0,0:0:0:0:
310,173,196995,1,8,0:0:0:0:
311,172,197120,1,0,0:0:0:0:
198,2,197245,1,8,0:0:0:0:
337,93,197307,1,8,0:0:0:0:
214,356,197370,1,0,0:0:0:0:
222,365,197495,1,8,0:0:0:0:
328,105,197557,1,8,0:0:0:0:
464,287,197620,1,0,0:0:0:0:
317,90,197682,1,0,0:0:0:0:
218,346,197745,1,8,0:0:0:0:
157,349,197995,1,8,0:0:0:0:
56,93,198057,1,0,0:0:0:0:
130,344,198120,1,8,0:0:0:0:
212,3,198182,1,0,0:0:0:0:
82,268,198245,1,8,0:0:0:0:
294,219,198370,1,0,0:0:0:0:
336,88,198495,1,8,0:0:0:0:
118,248,198557,1,8,0:0:0:0:
53,170,198620,1,0,0:0:0:0:
402,85,198745,1,8,0:0:0:0:
44,64,198870,1,8,0:0:0:0:
468,162,198995,1,8,0:0:0:0:
379,283,199120,1,0,0:0:0:0:
165,173,199245,1,8,0:0:0:0:
86,95,199307,1,8,0:0:0:0:
281,246,199370,1,8,0:0:0:0:
196,166,199495,1,0,0:0:0:0:
429,294,199745,1,8,0:0:0:0:
189,7,199870,1,0,0:0:0:0:
55,218,199932,1,0,0:0:0:0:
353,39,199995,1,0,0:0:0:0:
345,71,200120,1,0,0:0:0:0:
44,117,200245,1,8,0:0:0:0:
57,93,200307,1,8,0:0:0:0:
123,248,200370,1,8,0:0:0:0:
137,95,200495,1,0,0:0:0:0:
207,361,200620,1,0,0:0:0:0:
210,34,200745,1,8,0:0:0:0:
326,113,200870,1,0,0:0:0:0:
441,86,200995,1,0,0:0:0:0:
407,89,201120,1,0,0:0:0:0:
164,170,201245,1,8,0:0:0:0:
306,196,201307,1,8,0:0:0:0:
155,171,201370,1,8,0:0:0:0:
90,169,201495,1,0,0:0:0:0:
321,122,201745,1,8,0:0:0:0:
116,171,201870,1,0,0:0:0:0:
127,340,201932,1,0,0:0:0:0:
338,60,201995,1,8,0:0:0:0:
254,296,202057,1,8,0:0:0:0:
163,5,202120,1,0,0:0:0:0:
65,89,202245,1,8,0:0:0:0:
450,160,202370,1,0,0:0:0:0:
55,203,202495,1,0,0:0:0:0:
179,253,202620,1,0,0:0:0:0:
355,93,202745,1,8,0:0:0:0:
507,162,202807,1,8,0:0:0:0:
164,8,202870,1,0,0:0:0:0:
55,227,202995,1,8,0:0:0:0:
502,159,203120,1,8,0:0:0:0:
466,80,203370,1,0,0:0:0:0:
165,248,203432,1,0,0:0:0:0:
155,169,203495,1,8,0:0:0:0:
411,166,203620,1,0,0:0:0:0:
75,92,203745,1,8,0:0:0:0:
398,87,203870,1,8,0:0:0:0:
494,289,203932,1,8,0:0:0:0:
318,143,203995,1,8,0:0:0:0:
384,280,204120,1,8,0:0:0:0:
340,65,204370,1,8,0:0:0:0:
148,264,204432,1,8,0:0:0:0:
210,22,204495,1,8,0:0:0:0:
259,283,204620,1,0,0:0:0:0:
392,300,204745,1,8,0:0:0:0:
139,282,204995,1,0,0:0:0:0:
426,166,205120,1,0,0:0:0:0:
134,90,205245,1,8,0:0:0:0:
255,302,205307,1,8,0:0:0:0:
102,7,205370,1,0,0:0:0:0:
331,93,205495,1,8,0:0:0:0:
124,93,205557,1,8,0:0:0:0:
138,301,205620,1,0,0:0:0:0:
132,9,205745,1,8,0:0:0:0:
381,276,205870,1,8,0:0:0:0:
303,94,205995,1,0,0:0:0:0:
382,92,206120,1,0,0:0:0:0:
37,41,206182,1,0,0:0:0:0:
63,251,206245,1,8,0:0:0:0:
68,298,206370,1,8,0:0:0:0:
263,276,206495,1,0,0:0:0:0:
143,269,206620,1,8,0:0:0:0:
204,6,206745,1,0,0:0:0:0:
208,146,206807,1,0,0:0:0:0:
453,159,206870,1,0,0:0:0:0:
42,99,206995,1,8,0:0:0:0:
133,336,207120,1,0,0:0:0:0:
200,8,207245,1,8,0:0:0:0:
503,156,207370,1,8,0:0:0:0:
439,85,207495,1,0,0:0:0:0:
199,6,207745,1,0,0:0:0:0:
308,176,207807,1,0,0:0:0:0:
47,176,207870,1,0,0:0:0:0:
82,89,207932,1,0,0:0:0:0:
509,157,207995,1,8,0:0:0:0:
216,352,208120,1,8,0:0:0:0:
136,309,208245,1,0,0:0:0:0:
318,156,208495,1,0,0:0:0:0:
142,346,208620,1,0,0:0:0:0:
345,90,208745,1,8,0:0:0:0:
210,92,208807,1,0,0:0:0:0:
58,316,208870,1,0,0:0:0:0:
384,290,208932,1,0,0:0:0:0:
188,175,208995,1,8,0:0:0:0:
39,328,209120,1,0,0:0:0:0:
148,268,209245,1,8,0:0:0:0:
120,168,209307,1,0,0:0:0:0:
212,107,209370,1,0,0:0:0:0:
250,304,209432,1,0,0:0:0:0:
66,305,209495,1,8,0:0:0:0:
127,10,209620,1,0,0:0:0:0:
75,88,209745,1,8,0:0:0:0:
47,130,209995,1,0,0:0:0:0:
372,92,210120,1,0,0:0:0:0:
134,334,210245,1,8,0:0:0:0:
188,358,210370,1,0,0:0:0:0:
199,171,210432,1,0,0:0:0:0:
358,22,210495,1,8,0:0:0:0:
49,222,210620,1,8,0:0:0:0:
288,99,210745,1,0,0:0:0:0:
100,252,210807,1,0,0:0:0:0:
313,93,210870,1,8,0:0:0:0:
167,6,210932,1,0,0:0:0:0:
268,274,210995,1,8,0:0:0:0:
469,296,211120,1,8,0:0:0:0:
120,171,211245,1,0,0:0:0:0:
147,275,211370,1,8,0:0:0:0:
41,47,211495,1,0,0:0:0:0:
101,9,211745,1,8,0:0:0:0:
390,300,211807,1,8,0:0:0:0:
380,280,211870,1,8,0:0:0:0:
303,187,211995,1,0,0:0:0:0:
135,304,212120,1,8,0:0:0:0:
429,162,212370,1,0,0:0:0:0:
66,91,212495,1,8,0:0:0:0:
345,53,212620,1,8,0:0:0:0:
496,294,212745,1,0,0:0:0:0:
395,94,212870,1,0,0:0:0:0:
268,275,212995,1,8,0:0:0:0:
142,281,213120,1,0,0:0:0:0:
130,171,213245,1,8,0:0:0:0:
44,34,213307,1,8,0:0:0:0:
176,91,213370,1,0,0:0:0:0:
348,92,213495,1,8,0:0:0:0:
156,247,213557,1,8,0:0:0:0:
357,90,213620,1,0,0:0:0:0:
52,174,213682,1,0,0:0:0:0:
291,227,213745,1,8,0:0:0:0:
115,10,213995,1,8,0:0:0:0:
169,362,214057,1,0,0:0:0:0:
259,290,214120,1,8,0:0:0:0:
207,163,214182,1,0,0:0:0:0:
83,86,214245,1,8,0:0:0:0:
139,7,214370,1,0,0:0:0:0:
189,170,214495,1,8,0:0:0:0:
345,58,214557,1,8,0:0:0:0:
383,291,214620,1,0,0:0:0:0:
378,265,214745,1,8,0:0:0:0:
105,89,214870,1,8,0:0:0:0:
196,169,214995,1,8,0:0:0:0:
322,118,215120,1,0,0:0:0:0:
211,231,215245,1,8,0:0:0:0:
157,355,215307,1,8,0:0:0:0:
493,295,215370,1,8,0:0:0:0:
417,91,215495,1,0,0:0:0:0:
76,167,215745,1,8,0:0:0:0:
143,271,215870,1,0,0:0:0:0:
54,245,215932,1,0,0:0:0:0:
262,295,215995,1,0,0:0:0:0:
37,336,216120,1,0,0:0:0:0:
75,92,216245,1,8,0:0:0:0:
47,5,216370,1,8,0:0:0:0:
76,169,216495,1,0,0:0:0:0:
363,97,216620,1,0,0:0:0:0:
85,91,216745,1,8,0:0:0:0:
458,161,216870,1,0,0:0:0:0:
499,156,216932,1,0,0:0:0:0:
319,142,216995,1,0,0:0:0:0:
153,254,217120,1,0,0:0:0:0:
183,249,217245,1,8,0:0:0:0:
141,289,217370,1,8,0:0:0:0:
331,102,217495,1,0,0:0:0:0:
51,10,217620,1,0,0:0:0:0:
318,152,217745,1,8,0:0:0:0:
83,173,218245,1,0,0:0:0:0:
186,364,218745,1,8,0:0:0:0:
102,174,219245,1,8,0:0:0:0:
130,249,220245,1,0,0:0:0:0:
205,203,220745,1,8,0:0:0:0:
160,352,221245,1,0,0:0:0:0:
179,171,221745,1,8,0:0:0:0:
149,11,222245,1,8,0:0:0:0:
281,237,223745,1,8,0:0:0:0:
55,236,223995,1,0,0:0:0:0:
180,86,224245,1,8,0:0:0:0:
435,294,224745,1,0,0:0:0:0:
481,160,225245,1,8,0:0:0:0:
181,364,226245,1,8,0:0:0:0:
267,267,226495,1,8,0:0:0:0:
45,137,226745,1,0,0:0:0:0:
191,253,226995,1,0,0:0:0:0:
145,90,227245,1,8,0:0:0:0:
219,356,227745,1,8,0:0:0:0:
389,95,228245,1,0,0:0:0:0:
212,138,229745,1,0,0:0:0:0:
272,258,230245,1,8,0:0:0:0:
356,94,230745,1,8,0:0:0:0:
402,168,231245,1,0,0:0:0:0:
378,91,232245,1,8,0:0:0:0:
39,38,232745,1,0,0:0:0:0:
328,116,232995,1,0,0:0:0:0:
55,203,233245,1,8,0:0:0:0:
66,92,233495,1,0,0:0:0:0:
440,156,233745,1,8,0:0:0:0:
138,303,234245,1,0,0:0:0:0:
268,269,234745,1,8,0:0:0:0:
281,239,235245,1,8,0:0:0:0:
49,137,235745,1,0,0:0:0:0:
75,174,235995,1,0,0:0:0:0:
164,5,236245,1,8,0:0:0:0:
54,204,236745,1,8,0:0:0:0:
211,179,237245,1,0,0:0:0:0:
404,163,237745,1,8,0:0:0:0:
411,167,238245,1,8,0:0:0:0:
55,95,238495,1,8,0:0:0:0:
132,173,238745,1,0,0:0:0:0:
98,87,238995,1,0,0:0:0:0:
150,6,239245,1,8,0:0:0:0:
212,108,239745,1,8,0:0:0:0:
83,93,240245,1,0,0:0:0:0:
187,166,240745,1,8,0:0:0:0:
100,6,241245,1,8,0:0:0:0:
422,295,241745,1,12,0:0:0:0:
256,192,243245,12,0,243620,0:0:0:0:
214,226,243745,5,12,0:0:0:0:
199,165,243870,1,0,0:0:0:0:
328,100,243932,1,0,0:0:0:0:
428,294,243995,1,8,0:0:0:0:
70,245,244057,1,8,0:0:0:0:
29,348,244120,1,0,0:0:0:0:
449,88,244245,1,8,0:0:0:0:
82,168,244307,1,8,0:0:0:0:
54,328,244370,1,8,0:0:0:0:
54,251,244495,1,0,0:0:0:0:
150,251,244620,1,8,0:0:0:0:
195,360,244870,1,0,0:0:0:0:
58,220,244995,1,0,0:0:0:0:
132,87,245120,1,0,0:0:0:0:
51,237,245245,1,8,0:0:0:0:
382,294,245370,1,0,0:0:0:0:
30,345,245432,1,0,0:0:0:0:
43,55,245495,1,8,0:0:0:0:
357,22,245620,1,8,0:0:0:0:
25,351,245745,1,0,0:0:0:0:
54,172,245870,1,0,0:0:0:0:
213,154,245932,1,0,0:0:0:0:
388,93,245995,1,0,0:0:0:0:
385,86,246120,1,8,0:0:0:0:
125,10,246370,1,8,0:0:0:0:
47,104,246432,1,8,0:0:0:0:
193,253,246495,1,0,0:0:0:0:
300,216,246557,1,0,0:0:0:0:
135,91,246620,1,8,0:0:0:0:
325,127,246745,1,0,0:0:0:0:
161,4,247120,1,0,0:0:0:0:
209,167,247182,1,0,0:0:0:0:
51,326,247245,1,8,0:0:0:0:
190,171,247307,1,0,0:0:0:0:
53,181,247370,1,8,0:0:0:0:
41,326,247432,1,0,0:0:0:0:
335,85,247495,1,8,0:0:0:0:
61,315,247620,1,0,0:0:0:0:
73,284,247745,1,8,0:0:0:0:
205,86,247995,1,0,0:0:0:0:
212,335,248120,1,0,0:0:0:0:
129,343,248182,1,0,0:0:0:0:
144,267,248245,1,8,0:0:0:0:
132,175,248370,1,8,0:0:0:0:
198,7,248495,1,0,0:0:0:0:
37,73,248557,1,0,0:0:0:0:
35,18,248620,1,0,0:0:0:0:
64,309,248745,1,8,0:0:0:0:
218,51,248870,1,0,0:0:0:0:
37,57,248995,1,0,0:0:0:0:
163,359,249120,1,0,0:0:0:0:
331,111,249245,1,8,0:0:0:0:
339,92,249307,1,8,0:0:0:0:
134,313,249370,1,8,0:0:0:0:
373,91,249495,1,0,0:0:0:0:
493,158,249620,1,0,0:0:0:0:
111,3,249745,1,8,0:0:0:0:
148,169,249995,1,0,0:0:0:0:
192,356,250120,1,0,0:0:0:0:
211,51,250245,1,8,0:0:0:0:
130,89,250328,1,8,0:0:0:0:
211,167,250411,1,8,0:0:0:0:
330,104,250495,1,0,0:0:0:0:
160,86,250620,1,0,0:0:0:0:
325,121,250745,1,8,0:0:0:0:
49,131,250995,1,0,0:0:0:0:
210,122,251120,1,0,0:0:0:0:
125,6,251245,1,8,0:0:0:0:
320,136,251307,1,0,0:0:0:0:
217,25,251370,1,0,0:0:0:0:
41,135,251495,1,8,0:0:0:0:
388,88,251745,1,8,0:0:0:0:
495,291,251870,1,0,0:0:0:0:
85,91,251932,1,0,0:0:0:0:
58,308,251995,1,8,0:0:0:0:
49,239,252057,1,0,0:0:0:0:
37,73,252120,1,8,0:0:0:0:
132,339,252245,1,0,0:0:0:0:
339,61,252370,1,0,0:0:0:0:
502,161,252432,1,0,0:0:0:0:
212,173,252495,1,8,0:0:0:0:
202,218,252620,1,8,0:0:0:0:
184,252,252745,1,0,0:0:0:0:
282,234,252995,1,8,0:0:0:0:
210,188,253120,1,0,0:0:0:0:
92,246,253245,1,8,0:0:0:0:
210,363,253370,1,8,0:0:0:0:
333,90,253495,1,0,0:0:0:0:
202,4,253557,1,0,0:0:0:0:
145,286,253620,1,8,0:0:0:0:
201,247,253745,1,0,0:0:0:0:
351,42,253870,1,0,0:0:0:0:
463,84,253995,1,8,0:0:0:0:
343,57,254120,1,0,0:0:0:0:
450,89,254370,1,8,0:0:0:0:
206,90,254432,1,0,0:0:0:0:
142,351,254495,1,8,0:0:0:0:
215,93,254557,1,8,0:0:0:0:
216,64,254620,1,0,0:0:0:0:
355,32,254745,1,8,0:0:0:0:
73,286,254995,1,0,0:0:0:0:
212,182,255120,1,0,0:0:0:0:
144,279,255245,1,8,0:0:0:0:
291,222,255370,1,0,0:0:0:0:
118,253,255495,1,8,0:0:0:0:
167,251,255620,1,8,0:0:0:0:
184,88,255745,1,0,0:0:0:0:
42,95,255995,1,8,0:0:0:0:
87,262,256120,1,0,0:0:0:0:
169,4,256182,1,0,0:0:0:0:
188,253,256245,1,8,0:0:0:0:
210,4,256370,1,8,0:0:0:0:
146,247,256495,1,0,0:0:0:0:
420,87,256557,1,0,0:0:0:0:
27,352,256620,1,8,0:0:0:0:
193,167,256682,1,0,0:0:0:0:
57,90,256745,1,8,0:0:0:0:
221,360,256870,1,8,0:0:0:0:
86,13,256995,1,0,0:0:0:0:
216,113,257120,1,8,0:0:0:0:
206,201,257245,1,0,0:0:0:0:
382,296,257307,1,0,0:0:0:0:
302,185,257370,1,0,0:0:0:0:
173,88,257495,1,8,0:0:0:0:
198,89,257557,1,8,0:0:0:0:
436,87,257620,1,8,0:0:0:0:
424,163,257745,1,0,0:0:0:0:
188,89,257995,1,8,0:0:0:0:
219,363,258120,1,0,0:0:0:0:
187,5,258245,1,8,0:0:0:0:
307,192,258328,1,8,0:0:0:0:
91,245,258411,1,8,0:0:0:0:
43,66,258495,1,0,0:0:0:0:
70,3,258620,1,0,0:0:0:0:
181,251,258745,1,8,0:0:0:0:
66,88,258995,1,0,0:0:0:0:
210,9,259120,1,0,0:0:0:0:
325,105,259245,1,8,0:0:0:0:
381,288,259307,1,8,0:0:0:0:
487,159,259370,1,0,0:0:0:0:
389,163,259432,1,0,0:0:0:0:
94,252,259495,1,8,0:0:0:0:
164,356,259745,1,0,0:0:0:0:
207,244,259828,1,0,0:0:0:0:
419,93,259911,1,0,0:0:0:0:
32,338,259995,1,8,0:0:0:0:
406,85,260078,1,8,0:0:0:0:
349,92,260161,1,8,0:0:0:0:
158,95,260245,1,0,0:0:0:0:
57,226,260328,1,0,0:0:0:0:
210,124,260411,1,0,0:0:0:0:
48,105,260495,1,8,0:0:0:0:
55,235,260745,1,8,0:0:0:0:
179,367,260828,1,8,0:0:0:0:
191,246,260911,1,8,0:0:0:0:
431,295,260995,1,0,0:0:0:0:
211,115,261078,1,0,0:0:0:0:
110,170,261161,1,0,0:0:0:0:
82,273,261245,1,8,0:0:0:0:
115,246,261328,1,8,0:0:0:0:
129,92,261411,1,8,0:0:0:0:
135,310,261495,1,0,0:0:0:0:
266,283,261745,1,12,0:0:0:0:
138,242,261870,1,0,0:0:0:0:
50,230,261932,1,0,0:0:0:0:
410,158,261995,1,0,0:0:0:0:
53,218,262120,1,8,0:0:0:0:
112,3,262370,1,8,0:0:0:0:
190,90,262432,1,8,0:0:0:0:
123,6,262495,1,0,0:0:0:0:
84,245,262557,1,0,0:0:0:0:
330,100,262620,1,8,0:0:0:0:
426,86,262745,1,0,0:0:0:0:
142,255,263120,1,0,0:0:0:0:
462,84,263182,1,0,0:0:0:0:
214,148,263245,1,8,0:0:0:0:
78,279,263307,1,0,0:0:0:0:
143,5,263370,1,8,0:0:0:0:
79,275,263432,1,0,0:0:0:0:
123,173,263495,1,8,0:0:0:0:
174,362,263620,1,0,0:0:0:0:
97,247,263745,1,8,0:0:0:0:
143,287,263995,1,0,0:0:0:0:
58,227,264120,1,0,0:0:0:0:
49,164,264182,1,0,0:0:0:0:
347,61,264245,1,8,0:0:0:0:
133,92,264370,1,8,0:0:0:0:
187,252,264495,1,0,0:0:0:0:
141,291,264557,1,0,0:0:0:0:
469,296,264620,1,0,0:0:0:0:
150,89,264745,1,8,0:0:0:0:
458,293,264870,1,0,0:0:0:0:
210,26,264995,1,0,0:0:0:0:
63,97,265120,1,0,0:0:0:0:
91,3,265245,1,8,0:0:0:0:
212,30,265307,1,8,0:0:0:0:
418,87,265370,1,8,0:0:0:0:
60,234,265495,1,0,0:0:0:0:
73,285,265620,1,0,0:0:0:0:
262,280,265745,1,8,0:0:0:0:
455,157,265995,1,0,0:0:0:0:
375,283,266120,1,0,0:0:0:0:
186,360,266245,1,8,0:0:0:0:
57,245,266328,1,8,0:0:0:0:
48,323,266411,1,8,0:0:0:0:
121,90,266495,1,0,0:0:0:0:
195,359,266620,1,0,0:0:0:0:
489,295,266745,1,8,0:0:0:0:
380,280,266995,1,0,0:0:0:0:
209,3,267120,1,0,0:0:0:0:
410,293,267245,1,8,0:0:0:0:
172,87,267307,1,0,0:0:0:0:
410,167,267370,1,0,0:0:0:0:
90,5,267495,1,8,0:0:0:0:
151,96,267745,1,8,0:0:0:0:
212,57,267870,1,0,0:0:0:0:
53,247,267932,1,0,0:0:0:0:
131,337,267995,1,8,0:0:0:0:
314,159,268057,1,0,0:0:0:0:
218,344,268120,1,8,0:0:0:0:
385,296,268245,1,0,0:0:0:0:
448,87,268370,1,0,0:0:0:0:
195,5,268432,1,0,0:0:0:0:
323,126,268495,1,8,0:0:0:0:
51,184,268620,1,8,0:0:0:0:
215,118,268745,1,0,0:0:0:0:
102,6,268995,1,8,0:0:0:0:
110,243,269120,1,0,0:0:0:0:
81,257,269245,1,8,0:0:0:0:
45,55,269370,1,8,0:0:0:0:
406,297,269495,1,0,0:0:0:0:
152,348,269557,1,0,0:0:0:0:
313,166,269620,1,8,0:0:0:0:
207,175,269745,1,0,0:0:0:0:
69,179,269870,1,0,0:0:0:0:
188,8,269995,1,8,0:0:0:0:
138,10,270120,1,0,0:0:0:0:
467,85,270370,1,8,0:0:0:0:
48,176,270432,1,0,0:0:0:0:
431,156,270495,1,8,0:0:0:0:
139,250,270557,1,8,0:0:0:0:
68,172,270620,1,0,0:0:0:0:
213,59,270745,1,8,0:0:0:0:
482,297,270995,1,0,0:0:0:0:
399,299,271120,1,0,0:0:0:0:
475,293,271245,1,8,0:0:0:0:
381,269,271370,1,0,0:0:0:0:
182,89,271495,1,8,0:0:0:0:
419,290,271620,1,8,0:0:0:0:
347,46,271745,1,0,0:0:0:0:
172,250,271995,1,8,0:0:0:0:
55,321,272120,1,0,0:0:0:0:
39,33,272182,1,0,0:0:0:0:
330,87,272245,1,8,0:0:0:0:
306,92,272370,1,8,0:0:0:0:
168,11,272495,1,0,0:0:0:0:
143,282,272557,1,0,0:0:0:0:
280,253,272620,1,8,0:0:0:0:
314,97,272682,1,0,0:0:0:0:
208,237,272745,1,8,0:0:0:0:
95,90,272870,1,8,0:0:0:0:
171,357,272995,1,0,0:0:0:0:
417,91,273120,1,8,0:0:0:0:
307,177,273245,1,0,0:0:0:0:
44,97,273307,1,0,0:0:0:0:
507,162,273370,1,0,0:0:0:0:
369,95,273495,1,8,0:0:0:0:
466,158,273557,1,8,0:0:0:0:
133,324,273620,1,8,0:0:0:0:
107,5,273745,1,0,0:0:0:0:
204,248,273995,1,8,0:0:0:0:
134,313,274120,1,0,0:0:0:0:
214,113,274245,1,8,0:0:0:0:
161,357,274328,1,8,0:0:0:0:
51,203,274411,1,8,0:0:0:0:
329,124,274495,1,0,0:0:0:0:
109,9,274620,1,0,0:0:0:0:
53,235,274745,1,8,0:0:0:0:
118,89,274995,1,0,0:0:0:0:
258,280,275057,1,0,0:0:0:0:
208,141,275120,1,0,0:0:0:0:
321,131,275245,1,8,0:0:0:0:
279,256,275328,1,8,0:0:0:0:
120,7,275411,1,8,0:0:0:0:
54,196,275495,1,0,0:0:0:0:
414,89,275745,1,8,0:0:0:0:
430,84,278266,1,8,0:0:0:0:
311,172,280353,1,0,0:0:0:0:
332,120,281961,5,8,0:0:0:0:
209,130,282543,1,0,0:0:0:0:
182,362,283126,1,8,0:0:0:0:
166,359,283708,1,8,0:0:0:0:
98,246,284291,1,0,0:0:0:0:
219,340,284873,1,8,0:0:0:0:
39,37,285456,1,0,0:0:0:0:
62,171,285747,1,0,0:0:0:0:
306,94,286038,1,8,0:0:0:0:
146,87,286329,1,8,0:0:0:0:
137,304,286621,1,0,0:0:0:0:
430,85,287203,1,0,0:0:0:0:
85,247,287753,1,8,0:0:0:0:
29,342,288303,1,0,0:0:0:0:
167,5,288597,1,8,0:0:0:0:
496,155,288891,1,0,0:0:0:0:
208,11,289446,1,8,0:0:0:0:
130,252,290002,1,8,0:0:0:0:
385,290,290602,1,8,0:0:0:0:
209,224,291202,1,0,0:0:0:0:
42,107,291732,1,0,0:0:0:0:
52,196,292015,1,8,0:0:0:0:
218,12,292292,1,8,0:0:0:0:
179,246,292586,1,0,0:0:0:0:
208,39,292880,1,8,0:0:0:0:
130,349,293474,1,0,0:0:0:0:
454,84,294068,1,8,0:0:0:0:
170,92,294641,1,8,0:0:0:0:
317,144,294950,1,8,0:0:0:0:
54,178,295259,1,0,0:0:0:0:
86,258,295890,1,0,0:0:0:0:
82,87,296522,1,8,0:0:0:0:
147,253,297174,1,0,0:0:0:0:
266,272,297905,1,8,0:0:0:0:
209,185,298655,1,8,0:0:0:0:
198,361,299405,1,0,0:0:0:0:
