osu file format v14

[General]
AudioFilename: audio.mp3
AudioLeadIn: 0
PreviewTime: 126245
Countdown: 0
SampleSet: Normal
StackLeniency: 0.2
Mode: 1
LetterboxInBreaks: 0
WidescreenStoryboard: 1

[Editor]
Bookmarks: 80048,102245,169745,266745,281961
DistanceSpacing: 1
BeatDivisor: 16
GridSize: 32
TimelineZoom: 2.4

[Metadata]
Title:13 stairs
TitleUnicode:13階段のすべりだい
Artist:Babuchan
ArtistUnicode:ばぶちゃん
Creator:Alchyr
Version:13
Source:
Tags:piano electronic experimental noise japanese 13 kaidan no suberi dai 死後日記 SHIGO-NIKKI trevor brown SasitamA さしたま 初音ミク Hatsune Miku vocaloid Vomit Shithead ゲボ吐き糞野郎
BeatmapID:3819326
BeatmapSetID:1093671

[Difficulty]
HPDrainRate:4.4
CircleSize:7
OverallDifficulty:8
ApproachRate:0
SliderMultiplier:1.4
SliderTickRate:1

[Events]
//Background and Video events
0,0,"bg.jpg",0,0
//Break Periods
//Storyboard Layer 0 (Background)
//Storyboard Layer 1 (Fail)
//Storyboard Layer 2 (Pass)
//Storyboard Layer 3 (Foreground)
//Storyboard Layer 4 (Overlay)
//Storyboard Sound Samples

[TimingPoints]
979,697.674418604651,4,1,0,40,1,0
979,-90.526315789474,4,1,0,40,0,0
3769,631.578947368421,4,1,0,40,1,0
3769,-100,4,1,0,40,0,0
6295,666.666666666667,4,1,0,40,1,0
6295,-94.736842105263,4,1,0,40,0,0
7628,705.882352941176,4,1,0,40,1,8
7628,-89.473684210526,4,1,0,40,0,8
9039,705.882352941176,4,1,0,40,1,0
9039,-89.473684210526,4,1,0,40,0,0
11770,895.522388059701,4,1,0,40,1,0
11770,-70.526315789474,4,1,0,40,0,0
13561,952.380952380952,4,1,0,40,1,8
13561,-66.315789473684,4,1,0,40,0,8
14515,1034.48275862069,4,1,0,40,1,8
14515,-61.052631578947,4,1,0,40,0,8
15549,689.655172413793,4,1,0,40,1,0
15549,-91.578947368421,4,1,0,40,0,0
17617,750,4,1,0,40,1,8
17617,-84.210526315789,4,1,0,40,0,8
19759,750,4,1,0,40,1,0
19759,-84.210526315789,4,1,0,40,0,0
21717,-22.5225225225225,4,1,0,40,0,0
21913,-84.210526315789,4,1,0,40,0,0
22759,923.076923076923,4,1,0,40,1,0
22759,-68.421052631579,4,1,0,40,0,0
24605,895.522388059701,4,1,0,40,1,8
24605,-70.526315789474,4,1,0,40,0,8
25500,800,4,1,0,40,1,8
25500,-78.947368421053,4,1,0,40,0,8
26300,705.882352941176,4,1,0,40,1,0
26300,-89.473684210526,4,1,0,40,0,0
28417,631.578947368421,4,1,0,40,1,8
28417,-100,4,1,0,40,0,8
29048,571.428571428571,4,1,0,40,1,0
29048,-110.526315789474,4,1,0,40,0,0
30190,705.882352941176,4,1,0,40,1,8
30190,-89.473684210526,4,1,0,40,0,8
31601,779.220779220779,4,1,0,40,1,0
31601,-81.052631578947,4,1,0,40,0,0
37055,705.882352941176,4,1,0,40,1,8
37055,-89.473684210526,4,1,0,40,0,8
37760,722.89156626506,4,1,0,40,1,0
37760,-87.368421052632,4,1,0,40,0,0
40572,800,4,1,0,40,1,0
40572,-78.947368421053,4,1,0,40,0,0
42172,923.076923076923,4,1,0,40,1,8
42172,-68.421052631579,4,1,0,40,0,8
43095,1000,4,1,0,40,1,8
43095,-63.157894736842,4,1,0,40,0,8
44095,1111.11111111111,4,1,0,40,1,0
44095,-56.842105263158,4,1,0,40,0,0
45206,1000,4,1,0,40,1,8
45206,-63.157894736842,4,1,0,40,0,8
45621,-55.5555555555556,4,1,0,40,0,8
46455,-64.2710896175554,4,1,0,40,0,8
47371,-76.2759112681914,4,1,0,40,0,8
48206,1000,4,1,0,40,1,0
48206,-88.5657518260086,4,1,0,40,0,0
49205,-101.65265373825,4,1,0,40,0,0
50206,1071.42857142857,4,1,0,40,1,8
50206,-100,4,1,0,40,0,8
50919,-67.033665795468,4,1,0,40,0,8
51633,-35.2731768913653,4,1,0,40,0,8
52345,689.655172413793,4,1,0,40,1,0
52345,-33.3333311833903,4,1,0,40,0,0
52435,-91.578947368421,4,1,0,40,0,0
59219,769.230769230769,4,1,0,40,1,8
59219,-82.105263157895,4,1,0,40,0,0
60020,800,4,1,0,40,1,8
60020,-78.947368421053,4,1,0,40,0,0
60820,779.220779220779,4,1,0,40,1,0
60820,-81.052631578947,4,1,0,40,0,0
62366,810.810810810811,4,1,0,40,1,8
62366,-77.894736842105,4,1,0,40,0,8
63176,769.230769230769,4,1,0,40,1,0
63176,-82.105263157895,4,1,0,40,0,0
64714,821.917808219178,4,1,0,40,1,8
64714,-76.842105263158,4,1,0,40,0,8
65535,821.917808219178,4,1,0,40,1,0
65535,-76.842105263158,4,1,0,40,0,0
66357,769.230769230769,4,1,0,40,1,8
66357,-82.105263157895,4,1,0,40,0,8
67895,800,4,1,0,40,1,8
67895,-78.947368421053,4,1,0,40,0,8
68695,810.810810810811,4,1,0,40,1,0
68695,-77.894736842105,4,1,0,40,0,0
70316,821.917808219178,4,1,0,40,1,8
70316,-76.842105263158,4,1,0,40,0,8
71959,882.352941176471,4,1,0,40,1,0
71959,-125,4,1,0,40,0,0
72841,-83.3333333333333,4,1,0,35,0,0
73723,937.5,4,1,0,30,1,8
73723,-100,4,1,0,30,0,0
74660,1000,4,1,0,25,1,8
74660,-120.481927710843,4,1,0,25,0,0
75660,1578.94736842105,4,1,0,20,1,0
75660,-100,4,1,0,20,0,0
77227,705.882352941176,4,1,0,40,1,8
77227,-89.473684210526,4,1,0,40,0,0
80048,631.578947368421,4,1,0,40,1,0
80048,-100,4,1,0,40,0,0
97732,800,4,1,0,40,1,0
97732,-78.947368421053,4,1,0,40,0,0
98532,1000,4,1,0,40,1,8
98532,-79.1139240506329,4,1,0,40,0,0
99532,1158.30115830116,4,1,0,35,1,8
99532,-85.3825136612022,4,1,0,35,0,0
100690,779.220779220779,4,1,0,30,1,8
100690,-166.666666666667,4,1,0,30,0,0
102151,-32.0833333333654,4,1,0,70,0,0
102199,-29.9544692068057,4,1,0,70,0,0
102245,250,3,1,0,90,1,1
102245,-87.719298245614,3,1,0,90,0,1
114245,250,3,1,0,90,1,8
114745,250,3,1,0,90,1,1
114745,-96.1538461538461,3,1,0,90,0,1
116213,-92.5925925925926,3,1,0,90,0,1
117713,-89.2857142857143,3,1,0,90,0,1
119213,-86.2068965517241,3,1,0,90,0,1
120713,-88.495575221239,3,1,0,90,0,1
122213,-90.9090909090909,3,1,0,90,0,1
123713,-93.4579439252336,3,1,0,90,0,1
125213,-96.1538461538461,3,1,0,90,0,1
126245,500,3,1,0,40,1,8
127745,500,4,1,0,40,1,0
141495,-100,4,1,0,40,0,0
141620,-98.3680736580135,4,1,0,40,0,0
141745,-96.7885557211715,4,1,0,40,0,0
141870,-95.2589614868019,4,1,0,40,0,0
141995,-93.7770488175183,4,1,0,40,0,0
142120,-92.3404518587671,4,1,0,40,0,0
142245,-90.9472060563563,4,1,0,40,0,0
142370,-89.5953783120052,4,1,0,40,0,0
142495,-88.2831487774108,4,1,0,41,0,0
142620,-87.0088026805672,4,1,0,42,0,0
142745,-85.770722849921,4,1,0,44,0,0
142870,-84.5674543843151,4,1,0,46,0,0
142995,-83.397410343614,4,1,0,48,0,0
143120,-82.2593010591708,4,1,0,50,0,0
143245,-81.1518367095202,4,1,0,52,0,0
143370,-80.0737960104032,4,1,0,54,0,0
143495,-79.0240217221231,4,1,0,56,0,0
143620,-78.0014165057238,4,1,0,58,0,0
143745,-77.0049390967937,4,1,0,60,0,0
158245,-76.9230769230769,4,1,0,59,0,0
158370,-78.4207934302196,4,1,0,58,0,0
158495,-79.9779260923985,4,1,0,57,0,0
158620,-81.5982152838353,4,1,0,55,0,0
158745,-83.2854442029167,4,1,0,53,0,0
158870,-85.0439932577122,4,1,0,51,0,0
158995,-86.8784067195235,4,1,0,49,0,0
159120,-88.7936231971565,4,1,0,47,0,0
159245,-90.7952666611584,4,1,0,45,0,0
159370,-92.8891498041897,4,1,0,43,0,0
159495,-95.0819796828826,4,1,0,42,0,0
159620,-97.3807499681078,4,1,0,41,0,0
159745,-99.7935271922393,4,1,0,40,0,0
161682,-76.9230769230769,4,1,0,66,0,0
162182,-76.9230769230769,4,1,0,5,0,0
162870,-66.6666666666667,4,1,0,66,0,0
163557,-66.6666666666667,4,1,0,5,0,0
164245,-76.9230769230769,4,1,0,66,0,0
164495,-76.9230769230769,4,1,0,5,0,0
165432,-100,4,1,0,66,0,0
165745,-76.9230769230769,4,1,0,40,0,0
167307,-76.9230769230769,4,1,0,55,0,0
167494,-79.835090364534,4,1,0,55,0,0
167619,-82.857341495673,4,1,0,55,0,0
167681,-84.3985592166994,4,1,0,55,0,0
167744,-85.9940034937374,4,1,0,55,0,0
167932,-92.6280486827891,4,1,0,60,0,0
168119,-96.134592279452,4,1,0,62,0,0
168369,-103.550937646596,4,1,0,66,0,0
168494,-107.470980036527,4,1,0,68,0,0
168619,-111.539420236155,4,1,0,70,0,0
168744,-115.761876018895,4,1,0,71,0,0
168869,-120.144177825574,4,1,0,72,0,0
168931,-122.378962729367,4,1,0,73,0,0
168994,-124.692376815206,4,1,0,74,0,0
169244,-134.3118250199,4,1,0,75,0,0
169494,-144.673369783552,4,1,0,80,0,0
169619,-150.15015015015,4,1,0,80,0,0
169745,250,3,1,0,80,1,1
171206,-93.4579439252336,4,1,0,80,0,1
172705,-87.719298245614,4,1,0,80,0,1
173994,-87.719298245614,4,1,0,80,0,1
174035,-89.1223063593496,4,1,0,80,0,1
174077,-90.5828049739297,4,1,0,80,0,1
174119,-92.0672376213049,4,1,0,80,0,1
174181,-94.3031185886619,4,1,0,80,0,1
174218,-85.4700854700855,4,1,0,80,0,1
175714,-89.2857142857143,4,1,0,80,0,1
177186,-96.1538461538461,4,1,0,80,0,1
178702,-102.040816326531,4,1,0,80,0,1
180188,-107.52688172043,4,1,0,80,0,1
181703,-100,3,1,0,85,0,1
181745,250,4,1,0,85,1,0
181745,-76.9230769230769,3,1,0,85,0,0
182120,-66.6666666666667,3,1,0,90,0,0
182745,-66.6666666666667,3,1,0,85,0,0
182786,-66.6666666666667,3,1,0,83,0,0
182828,-66.6666666666667,3,1,0,81,0,0
182870,-66.6666666666667,3,1,0,79,0,0
182911,-66.6666666666667,3,1,0,77,0,0
182953,-66.6666666666667,3,1,0,75,0,0
182995,-66.6666666666667,3,1,0,73,0,0
183036,-66.6666666666667,3,1,0,71,0,0
183078,-66.6666666666667,3,1,0,70,0,0
184245,-83.3333333333333,3,1,0,70,0,0
184369,-88.6669000062719,3,1,0,70,0,0
184494,-94.4816008539604,3,1,0,70,0,0
184619,-100.559208371773,3,1,0,70,0,0
184744,-106.567716017573,3,1,0,70,0,0
184869,-112.062868091336,3,1,0,70,0,0
184994,-116.527765360689,3,1,0,70,0,0
185119,-119.458692585389,3,1,0,70,0,0
185203,-120.481927710843,3,1,0,90,0,0
185327,-114.299061811113,3,1,0,90,0,0
185410,-108.433486906475,3,1,0,90,0,0
185494,-102.803648525108,3,1,0,90,0,0
185577,-97.5279927905881,3,1,0,90,0,0
185660,-92.5230720331674,3,1,0,90,0,0
185745,-87.719298245614,4,1,0,90,0,1
208244,-87.719298245614,4,1,0,90,0,1
208298,-87.7917124351695,4,1,0,90,0,1
208352,-88.0123608650397,4,1,0,90,0,1
208410,-88.3704292752269,4,1,0,90,0,1
208483,-88.8708891534802,4,1,0,90,0,1
208556,-89.48866938387,4,1,0,90,0,1
208619,-90.2313811818232,4,1,0,90,0,1
208681,-91.0603962470755,4,1,0,90,0,1
208744,-91.9839508503234,4,1,0,90,0,1
208806,-92.9515628674036,4,1,0,90,0,1
208869,-93.9698725253089,4,1,0,90,0,1
208931,-94.9799462057227,4,1,0,90,0,1
208994,-95.9851566200661,4,1,0,90,0,1
209056,-96.9238200152844,4,1,0,90,0,1
209119,-97.7956761811013,4,1,0,90,0,1
209181,-98.544289495357,4,1,0,90,0,1
209244,-99.1670219638539,4,1,0,90,0,1
209306,-99.6218394993436,4,1,0,90,0,1
209369,-99.9060564814301,4,1,0,90,0,1
209431,-100,4,1,0,90,0,1
209494,-99.3108619520886,4,1,0,90,0,1
209556,-97.4036963751365,4,1,0,90,0,1
209619,-94.5337031896118,4,1,0,90,0,1
209681,-91.2017302305945,4,1,0,90,0,1
209744,-87.719298245614,4,1,0,90,0,1
217745,500,3,1,0,85,1,0
217745,-43.859649122807,3,1,0,85,0,0
217870,-43.859649122807,3,1,0,70,0,0
218245,-45.9717011803322,3,1,0,70,0,0
218745,-48.1854586546337,3,1,0,70,0,0
219245,-50.5058191483841,3,1,0,70,0,0
220245,-55.4871301769574,3,1,0,70,0,0
220745,-58.1591011069636,3,1,0,70,0,0
221245,-60.9597402277382,3,1,0,70,0,0
221745,-63.8952435285898,3,1,0,70,0,0
222245,-66.9721053653722,3,1,0,70,0,0
223745,-77.1205677477963,3,1,0,70,0,0
223994,-78.9555983584097,3,1,0,70,0,0
224245,-80.8342922541911,3,1,0,70,0,0
224745,-84.7268503728396,3,1,0,70,0,0
225245,-88.8068537982326,3,1,0,70,0,0
226245,-97.5657367882967,3,1,0,70,0,0
226494,-99.8872460663283,3,1,0,70,0,0
226745,-102.263994053208,3,1,0,70,0,0
226994,-104.697295115836,3,1,0,70,0,0
227245,-107.188494895567,3,1,0,70,0,0
227745,-112.350134026635,3,1,0,70,0,0
228245,-117.760330790175,3,1,0,70,0,0
229245,-129.374850550168,3,1,0,70,0,0
229745,-135.604868910128,3,1,0,70,0,0
230245,-142.134892476667,3,1,0,70,0,0
230745,-148.97936793658,3,1,0,70,0,0
231245,-156.153437653787,3,1,0,70,0,0
232245,-171.554610315677,3,1,0,70,0,0
232745,-179.815786019127,3,1,0,70,0,0
232995,-184.094378374615,3,1,0,70,0,0
233245,-188.474776878215,3,1,0,70,0,0
233495,-192.959403936863,3,1,0,70,0,0
233745,-197.550739596992,3,1,0,70,0,0
234245,-207.06375336651,3,1,0,70,0,0
234745,-217.034864286985,3,1,0,70,0,0
235245,-227.486131929107,3,1,0,70,0,0
235745,-238.440678137491,3,1,0,70,0,0
235995,-244.114209284573,3,1,0,70,0,0
236245,-249.922738184254,3,1,0,70,0,0
236745,-261.957714385873,3,1,0,70,0,0
237245,-274.572232301968,3,1,0,70,0,0
237745,-287.794199640305,3,1,0,70,0,0
238245,-301.652867998371,3,1,0,70,0,0
238495,-308.830489516493,3,1,0,70,0,0
238745,-316.178897578098,3,1,0,70,0,0
238995,-323.702155930957,3,1,0,70,0,0
239245,-331.404425016908,3,1,0,70,0,0
239745,-347.36313448515,3,1,0,70,0,0
240245,-364.090332207219,3,1,0,70,0,0
240745,-381.623024571222,3,1,0,70,0,0
241245,-400,3,1,0,70,0,0
241620,-400,3,1,0,90,0,0
241745,500,4,1,0,90,1,0
241745,-33.3333333333333,4,1,0,90,0,0
242245,-50,4,1,0,90,0,0
243245,250,4,1,0,90,1,8
243245,-120.481927710843,4,1,0,90,0,0
243327,-114.299061811113,4,1,0,90,0,0
243410,-108.433486906475,4,1,0,90,0,0
243494,-102.803648525108,4,1,0,90,0,0
243577,-97.5279927905881,4,1,0,90,0,0
243660,-92.5230720331674,4,1,0,90,0,0
243745,250,4,1,0,90,1,1
243745,-87.719298245614,4,1,0,90,0,1
259745,-83.3333333333333,4,1,0,90,0,0
259775,-84.0149105189616,4,1,0,90,0,0
259806,-84.7060728045631,4,1,0,90,0,0
259869,-86.1339844608327,4,1,0,90,0,0
259931,-87.5585132975326,4,1,0,90,0,0
259994,-89.0104721675883,4,1,0,90,0,0
260056,-90.4274240094735,4,1,0,90,0,0
260119,-91.8369822735929,4,1,0,90,0,0
260181,-93.1755604563263,4,1,0,90,0,0
260244,-94.4662926927683,4,1,0,90,0,0
260306,-95.6482342046222,4,1,0,90,0,0
260369,-96.7392977296099,4,1,0,90,0,0
260431,-97.6858373277322,4,1,0,90,0,0
260494,-98.5004203904094,4,1,0,90,0,0
260556,-99.1416720821077,4,1,0,90,0,0
260619,-99.6171767762445,4,1,0,90,0,0
260681,-99.9022444002439,4,1,0,90,0,0
260744,-100,4,1,0,90,0,0
260806,-99.8864028428486,4,1,0,90,0,0
260869,-99.5409635910892,4,1,0,90,0,0
260931,-98.9824923565409,4,1,0,90,0,0
260994,-98.2058853041218,4,1,0,90,0,0
261056,-97.2526036710107,4,1,0,90,0,0
261119,-96.1125091758447,4,1,0,90,0,0
261181,-94.8444484935499,4,1,0,90,0,0
261244,-93.4322393613979,4,1,0,90,0,0
261306,-91.9455724728313,4,1,0,90,0,0
261369,-90.3617334103576,4,1,0,90,0,0
261431,-88.7548824416086,4,1,0,90,0,0
261494,-87.0961803710202,4,1,0,90,0,0
261556,-85.4590327713467,4,1,0,90,0,0
261619,-83.8097693330213,4,1,0,90,0,0
261681,-82.2173489063826,4,1,0,90,0,0
261745,-80.6451612903226,4,1,0,90,0,1
261806,-87.719298245614,4,1,0,90,0,1
274744,-87.719298245614,4,1,0,90,0,1
274785,-87.6937823222147,4,1,0,90,0,1
274827,-87.6149358693245,4,1,0,90,0,1
274869,-87.483372845109,4,1,0,90,0,1
274931,-87.1951243531423,4,1,0,90,0,1
274994,-86.7920489348458,4,1,0,90,0,1
275056,-86.2936809334609,4,1,0,90,0,1
275119,-85.6923830816191,4,1,0,90,0,1
275181,-85.0167611739451,4,1,0,90,0,1
275244,-84.2557288927884,4,1,0,90,0,1
275285,-83.7255347526729,4,1,0,90,0,1
275327,-83.1578895276206,4,1,0,90,0,1
275410,-81.9769603136019,4,1,0,90,0,1
275494,-80.725193104694,4,1,0,90,0,1
275535,-80.1018219683647,4,1,0,90,0,1
275577,-79.4591667594196,4,1,0,90,0,1
275660,-78.1891577135443,4,1,0,90,0,1
275713,-87.719298245614,4,2,0,90,0,1
275745,-76.9230769230769,4,2,0,90,0,0
275807,-87.719298245614,4,2,0,80,0,0
275870,-87.719298245614,4,2,0,70,0,0
275932,-87.719298245614,4,2,0,60,0,0
275995,-87.719298245614,4,2,0,50,0,0
276057,-87.719298245614,4,2,0,40,0,0
276120,-87.719298245614,4,2,0,30,0,0
276745,260.869565217391,4,2,0,30,1,8
277788,521.739130434783,4,2,0,30,1,0
277788,-66.6666666666667,4,2,0,30,0,0
278223,-71.9952821782238,4,2,0,50,0,0
278297,-76.9230769230769,4,2,0,30,0,0
279841,-93.8049776512803,4,2,0,30,0,0
280281,-101.681451764155,4,2,0,35,0,0
280409,-101.681451764155,4,2,0,30,0,0
281701,-100,4,2,0,25,0,0
281961,582.52427184466,3,2,0,25,1,0
281961,-120.481927710843,3,2,0,25,0,0
282542,-123.778552406139,3,2,0,25,0,0
283125,-127.206648794351,3,2,0,25,0,0
283707,-130.761252037331,3,2,0,25,0,0
283708,-130.767477544925,3,2,0,25,0,0
284290,-134.461886022817,3,2,0,25,0,0
284872,-138.303690596001,3,2,0,25,0,0
285455,-142.308316617555,3,2,0,25,0,0
285746,-144.368505955833,3,2,0,25,0,0
286037,-146.471107536183,3,2,0,25,0,0
286328,-148.617367156142,3,2,0,25,0,0
286377,-148.983150748762,3,2,0,25,0,0
286620,-150.816188683107,3,2,0,25,0,0
287203,550.45871559633,3,2,0,25,1,0
287203,-164.388123095487,3,2,0,25,0,0
287752,-169.102574590775,3,2,0,25,0,0
288303,588.235294117647,3,2,0,25,1,8
288303,-162.838771368823,3,2,0,25,0,8
288596,-165.374957000781,3,2,0,25,0,8
288891,555.555555555556,3,2,0,25,1,0
288891,-177.849302867642,3,2,0,25,0,0
289445,-183.207368459986,3,2,0,25,0,0
290002,600,3,2,0,25,1,8
290002,-174.828528484973,3,2,0,25,0,0
290602,600,3,2,0,25,1,0
290602,-180.697439784711,3,2,0,25,0,0
291202,545.454545454546,3,2,0,25,1,8
291202,-205.548086643709,3,2,0,25,0,8
291732,566.037735849057,3,2,0,25,1,8
291732,-204.124694330575,3,2,0,25,0,8
291978,-207.039266102757,3,2,0,25,0,8
292292,588.235294117647,3,2,0,25,1,0
292292,-202.867347198664,3,2,0,25,0,0
292585,-206.37888835749,3,2,0,25,0,0
292880,594.059405940594,3,2,0,25,1,8
292880,-207.92401893548,3,2,0,25,0,8
293473,-215.427021650518,3,2,0,25,0,8
294068,594.059405940594,3,2,0,25,1,0
294068,-223.348729984736,3,2,0,25,0,0
294641,618.556701030928,3,2,0,25,1,8
294641,-222.254533074454,3,2,0,25,0,8
294949,-226.614304853988,3,2,0,25,0,8
295259,631.578947368421,3,2,0,25,1,8
295259,-226.342120333854,3,2,0,25,0,8
295890,631.578947368421,3,2,0,25,1,0
295890,-235.757795496957,3,2,0,25,0,0
296522,652.173913043478,3,2,0,25,1,8
296522,-238.050931211226,3,2,0,25,0,0
297174,731.707317073171,3,2,0,25,1,8
297174,-221.753183706195,3,2,0,25,0,0
297905,750,3,2,0,25,1,0
297905,-227.635649648093,3,2,0,25,0,0
298655,-240.225161466014,3,2,0,25,0,0
299405,952.380952380952,3,2,0,25,1,8
299405,-200.000010684562,3,2,0,25,0,0
300357,1000,3,2,0,15,1,0
300357,-200.000010684562,3,2,0,15,0,0

[HitObjects]
158,138,80048,5,0,0:0:0:0:
478,196,81311,1,8,0:0:0:0:
371,225,82258,1,8,0:0:0:0:
95,364,82574,1,0,0:0:0:0:
160,352,83521,1,0,0:0:0:0:
106,79,83837,1,8,0:0:0:0:
417,106,84784,1,0,0:0:0:0:
73,314,85100,1,0,0:0:0:0:
209,142,86363,1,8,0:0:0:0:
381,236,87626,1,0,0:0:0:0:
304,328,88258,1,0,0:0:0:0:
152,138,88890,1,8,0:0:0:0:
499,124,89521,1,0,0:0:0:0:
493,159,90153,1,8,0:0:0:0:
97,364,90784,1,0,0:0:0:0:
76,103,91416,1,8,0:0:0:0:
155,276,92048,1,8,0:0:0:0:
311,122,92363,1,0,0:0:0:0:
313,315,92679,1,0,0:0:0:0:
476,106,93626,1,0,0:0:0:0:
415,301,93942,1,8,0:0:0:0:
112,141,94890,1,8,0:0:0:0:
166,134,95205,1,0,0:0:0:0:
193,38,96469,1,8,0:0:0:0:
74,325,97732,1,0,0:0:0:0:
481,188,98532,1,0,0:0:0:0:
180,345,99532,1,8,0:0:0:0:
46,123,100690,1,8,0:0:0:0:
362,240,102151,1,0,0:0:0:0:
345,268,102199,1,0,0:0:0:0:
188,346,102245,1,8,0:0:0:0:
364,236,102286,1,0,0:0:0:0:
388,252,102328,1,0,0:0:0:0:
74,171,102370,1,8,0:0:0:0:
68,353,102432,1,0,0:0:0:0:
166,93,102495,1,8,0:0:0:0:
184,139,102557,1,8,0:0:0:0:
284,151,102620,1,0,0:0:0:0:
115,211,102682,1,0,0:0:0:0:
159,16,102745,1,8,0:0:0:0:
107,138,102786,1,8,0:0:0:0:
214,51,102828,1,0,0:0:0:0:
225,229,102870,1,8,0:0:0:0:
221,233,102932,1,8,0:0:0:0:
470,322,102995,1,0,0:0:0:0:
74,186,103057,1,0,0:0:0:0:
70,114,103120,1,8,0:0:0:0:
92,212,103182,1,8,0:0:0:0:
291,145,103245,1,0,0:0:0:0:
223,166,103370,1,8,0:0:0:0:
102,214,103401,1,8,0:0:0:0:
88,217,103432,1,0,0:0:0:0:
400,153,103495,1,8,0:0:0:0:
422,299,103557,1,0,0:0:0:0:
388,248,103620,1,8,0:0:0:0:
491,166,103682,1,0,0:0:0:0:
141,280,103745,1,8,0:0:0:0:
72,101,103786,1,8,0:0:0:0:
48,124,103828,1,0,0:0:0:0:
160,13,103870,1,8,0:0:0:0:
223,224,103932,1,0,0:0:0:0:
461,316,103995,1,8,0:0:0:0:
462,106,104057,1,8,0:0:0:0:
173,140,104120,1,0,0:0:0:0:
76,171,104182,1,0,0:0:0:0:
164,13,104245,1,8,0:0:0:0:
215,265,104286,1,8,0:0:0:0:
224,336,104328,1,8,0:0:0:0:
78,232,104370,1,0,0:0:0:0:
75,367,104432,1,0,0:0:0:0:
119,63,104495,1,8,0:0:0:0:
164,119,104557,1,0,0:0:0:0:
389,191,104620,1,8,0:0:0:0:
296,143,104682,1,8,0:0:0:0:
325,94,104745,1,0,0:0:0:0:
67,362,104870,1,8,0:0:0:0:
72,263,104901,1,8,0:0:0:0:
68,344,104932,1,8,0:0:0:0:
327,66,104995,1,0,0:0:0:0:
76,227,105057,1,0,0:0:0:0:
229,342,105120,1,8,0:0:0:0:
246,82,105151,1,0,0:0:0:0:
478,106,105182,1,0,0:0:0:0:
71,154,105245,1,8,0:0:0:0:
354,266,105286,1,8,0:0:0:0:
411,102,105328,1,8,0:0:0:0:
71,349,105370,1,0,0:0:0:0:
228,62,105432,1,0,0:0:0:0:
197,267,105495,1,8,0:0:0:0:
391,101,105557,1,0,0:0:0:0:
312,316,105620,1,8,0:0:0:0:
202,266,105682,1,8,0:0:0:0:
391,259,105745,1,0,0:0:0:0:
403,151,105807,1,0,0:0:0:0:
168,351,105870,1,8,0:0:0:0:
385,101,105901,1,8,0:0:0:0:
202,340,105995,1,8,0:0:0:0:
38,123,106026,1,8,0:0:0:0:
218,249,106120,1,0,0:0:0:0:
55,367,106151,1,0,0:0:0:0:
225,163,106245,1,8,0:0:0:0:
73,272,106276,1,8,0:0:0:0:
118,139,106307,1,8,0:0:0:0:
406,274,106370,1,0,0:0:0:0:
292,147,106432,1,8,0:0:0:0:
367,100,106495,1,0,0:0:0:0:
319,304,106620,1,0,0:0:0:0:
463,110,106682,1,0,0:0:0:0:
344,278,106745,1,8,0:0:0:0:
202,140,106786,1,8,0:0:0:0:
33,129,106828,1,0,0:0:0:0:
450,318,106870,1,8,0:0:0:0:
288,151,106932,1,8,0:0:0:0:
220,264,106995,1,0,0:0:0:0:
444,106,107057,1,0,0:0:0:0:
69,110,107120,1,8,0:0:0:0:
117,136,107182,1,8,0:0:0:0:
288,154,107245,1,0,0:0:0:0:
190,203,107276,1,0,0:0:0:0:
186,266,107307,1,8,0:0:0:0:
72,317,107370,1,0,0:0:0:0:
67,330,107495,1,8,0:0:0:0:
220,262,107557,1,0,0:0:0:0:
405,160,107620,1,8,0:0:0:0:
223,199,107682,1,0,0:0:0:0:
166,96,107745,1,8,0:0:0:0:
233,359,107807,1,8,0:0:0:0:
72,294,107870,1,8,0:0:0:0:
70,143,107995,1,0,0:0:0:0:
73,167,108057,1,8,0:0:0:0:
204,42,108120,1,0,0:0:0:0:
289,147,108182,1,0,0:0:0:0:
496,127,108245,1,8,0:0:0:0:
350,269,108286,1,8,0:0:0:0:
76,167,108328,1,8,0:0:0:0:
219,265,108370,1,0,0:0:0:0:
177,346,108432,1,0,0:0:0:0:
131,51,108495,1,8,0:0:0:0:
219,155,108557,1,0,0:0:0:0:
368,236,108620,1,0,0:0:0:0:
476,327,108682,1,0,0:0:0:0:
150,352,108745,1,8,0:0:0:0:
112,133,108786,1,8,0:0:0:0:
225,220,108828,1,0,0:0:0:0:
172,18,108870,1,8,0:0:0:0:
68,129,108932,1,8,0:0:0:0:
364,246,108995,1,0,0:0:0:0:
198,271,109036,1,0,0:0:0:0:
302,332,109078,1,0,0:0:0:0:
75,199,109120,1,8,0:0:0:0:
360,101,109182,1,8,0:0:0:0:
250,87,109245,1,0,0:0:0:0:
287,148,109307,1,0,0:0:0:0:
70,129,109370,1,0,0:0:0:0:
491,105,109432,1,0,0:0:0:0:
137,357,109495,1,8,0:0:0:0:
46,376,109536,1,8,0:0:0:0:
76,220,109578,1,0,0:0:0:0:
103,214,109620,1,8,0:0:0:0:
39,374,109682,1,0,0:0:0:0:
442,310,109745,1,8,0:0:0:0:
148,278,109786,1,8,0:0:0:0:
159,138,109828,1,8,0:0:0:0:
95,90,109870,1,0,0:0:0:0:
316,119,109932,1,0,0:0:0:0:
358,249,109995,1,8,0:0:0:0:
161,210,110057,1,0,0:0:0:0:
195,271,110120,1,0,0:0:0:0:
96,215,110182,1,0,0:0:0:0:
75,252,110245,1,8,0:0:0:0:
163,19,110286,1,8,0:0:0:0:
142,37,110328,1,0,0:0:0:0:
342,282,110370,1,8,0:0:0:0:
148,351,110432,1,8,0:0:0:0:
70,279,110495,1,0,0:0:0:0:
389,190,110536,1,0,0:0:0:0:
65,356,110578,1,0,0:0:0:0:
80,287,110620,1,8,0:0:0:0:
108,357,110682,1,0,0:0:0:0:
92,366,110745,1,8,0:0:0:0:
70,356,110807,1,8,0:0:0:0:
73,162,110870,1,8,0:0:0:0:
370,237,110932,1,8,0:0:0:0:
72,191,110995,1,0,0:0:0:0:
93,283,111057,1,0,0:0:0:0:
96,89,111120,1,8,0:0:0:0:
383,209,111182,1,0,0:0:0:0:
70,355,111245,1,8,0:0:0:0:
135,46,111286,1,8,0:0:0:0:
278,163,111328,1,8,0:0:0:0:
330,39,111370,1,0,0:0:0:0:
70,115,111432,1,0,0:0:0:0:
459,108,111495,1,8,0:0:0:0:
114,70,111557,1,8,0:0:0:0:
73,277,111620,1,0,0:0:0:0:
104,360,111745,1,8,0:0:0:0:
52,371,111776,1,8,0:0:0:0:
164,17,111807,1,0,0:0:0:0:
324,63,111870,1,8,0:0:0:0:
148,275,111932,1,8,0:0:0:0:
215,267,111995,1,0,0:0:0:0:
237,66,112057,1,8,0:0:0:0:
406,134,112120,1,0,0:0:0:0:
436,308,112245,1,8,0:0:0:0:
393,176,112276,1,8,0:0:0:0:
200,270,112370,1,0,0:0:0:0:
332,294,112432,1,0,0:0:0:0:
221,251,112495,1,8,0:0:0:0:
366,102,112557,1,0,0:0:0:0:
143,211,112620,1,8,0:0:0:0:
154,138,112651,1,8,0:0:0:0:
317,311,112745,1,0,0:0:0:0:
222,55,112807,1,0,0:0:0:0:
327,47,112870,1,8,0:0:0:0:
165,208,112932,1,0,0:0:0:0:
355,252,112995,1,8,0:0:0:0:
104,83,113057,1,8,0:0:0:0:
147,31,113120,1,0,0:0:0:0:
299,328,113182,1,0,0:0:0:0:
230,343,113245,1,8,0:0:0:0:
24,134,113307,1,0,0:0:0:0:
477,323,113370,1,8,0:0:0:0:
186,142,113495,1,0,0:0:0:0:
407,146,113536,1,0,0:0:0:0:
311,317,113578,1,0,0:0:0:0:
386,201,113620,1,8,0:0:0:0:
75,215,113682,1,0,0:0:0:0:
488,162,113745,1,8,0:0:0:0:
105,358,113870,1,0,0:0:0:0:
277,165,113932,1,0,0:0:0:0:
77,210,113995,1,8,0:0:0:0:
93,287,114057,1,8,0:0:0:0:
488,164,114120,1,8,0:0:0:0:
99,216,114182,1,8,0:0:0:0:
294,146,114245,1,0,0:0:0:0:
280,159,114307,1,0,0:0:0:0:
100,138,114370,1,0,0:0:0:0:
224,155,114432,1,0,0:0:0:0:
422,300,114745,1,12,0:0:0:0:
476,108,114995,1,8,0:0:0:0:
140,278,115057,1,0,0:0:0:0:
194,210,115120,1,8,0:0:0:0:
120,138,115182,1,8,0:0:0:0:
234,355,115245,1,0,0:0:0:0:
328,59,115286,1,0,0:0:0:0:
69,287,115328,1,0,0:0:0:0:
341,103,115370,1,8,0:0:0:0:
500,124,115432,1,0,0:0:0:0:
179,25,115495,1,0,0:0:0:0:
295,137,115557,1,0,0:0:0:0:
451,106,115620,1,8,0:0:0:0:
230,67,115682,1,0,0:0:0:0:
409,287,115745,1,8,0:0:0:0:
385,195,115776,1,8,0:0:0:0:
208,205,115807,1,0,0:0:0:0:
402,278,115870,1,8,0:0:0:0:
228,341,115932,1,8,0:0:0:0:
403,277,115995,1,0,0:0:0:0:
503,127,116120,1,0,0:0:0:0:
282,154,116182,1,0,0:0:0:0:
249,86,116245,1,12,0:0:0:0:
198,140,116370,1,8,0:0:0:0:
102,89,116401,1,8,0:0:0:0:
253,88,116495,1,8,0:0:0:0:
132,138,116526,1,8,0:0:0:0:
405,136,116620,1,8,0:0:0:0:
73,167,116651,1,8,0:0:0:0:
76,204,116745,1,8,0:0:0:0:
328,38,116776,1,8,0:0:0:0:
138,357,116870,1,0,0:0:0:0:
380,104,116932,1,0,0:0:0:0:
232,347,116995,1,8,0:0:0:0:
299,142,117057,1,0,0:0:0:0:
135,276,117120,1,8,0:0:0:0:
395,256,117151,1,8,0:0:0:0:
56,372,117245,1,0,0:0:0:0:
409,131,117307,1,0,0:0:0:0:
156,27,117370,1,8,0:0:0:0:
75,233,117432,1,0,0:0:0:0:
494,171,117495,1,8,0:0:0:0:
377,221,117557,1,8,0:0:0:0:
222,161,117620,1,0,0:0:0:0:
441,103,117682,1,0,0:0:0:0:
138,350,117745,1,12,0:0:0:0:
77,238,117870,1,0,0:0:0:0:
503,120,117932,1,0,0:0:0:0:
310,316,117995,1,8,0:0:0:0:
220,157,118057,1,8,0:0:0:0:
225,178,118120,1,0,0:0:0:0:
227,341,118182,1,0,0:0:0:0:
57,111,118245,1,8,0:0:0:0:
473,110,118286,1,8,0:0:0:0:
205,43,118328,1,8,0:0:0:0:
71,304,118370,1,0,0:0:0:0:
487,108,118432,1,0,0:0:0:0:
342,102,118495,1,8,0:0:0:0:
295,334,118557,1,8,0:0:0:0:
27,132,118620,1,8,0:0:0:0:
78,201,118682,1,0,0:0:0:0:
84,97,118745,1,8,0:0:0:0:
79,98,118776,1,8,0:0:0:0:
294,334,118932,1,0,0:0:0:0:
61,369,118995,1,8,0:0:0:0:
433,306,119026,1,8,0:0:0:0:
70,346,119057,1,0,0:0:0:0:
175,20,119120,1,8,0:0:0:0:
50,118,119182,1,0,0:0:0:0:
125,283,119245,1,12,0:0:0:0:
324,307,119370,1,0,0:0:0:0:
163,272,119411,1,8,0:0:0:0:
146,37,119453,1,8,0:0:0:0:
495,129,119495,1,0,0:0:0:0:
138,354,119557,1,0,0:0:0:0:
49,118,119620,1,8,0:0:0:0:
483,184,119745,1,0,0:0:0:0:
135,47,119776,1,8,0:0:0:0:
211,336,119870,1,0,0:0:0:0:
436,103,119901,1,8,0:0:0:0:
492,164,119995,1,0,0:0:0:0:
70,274,120026,1,0,0:0:0:0:
450,316,120120,1,0,0:0:0:0:
212,263,120151,1,0,0:0:0:0:
187,272,120245,1,0,0:0:0:0:
230,337,120307,1,0,0:0:0:0:
139,45,120370,1,8,0:0:0:0:
222,206,120401,1,8,0:0:0:0:
339,283,120495,1,8,0:0:0:0:
71,117,120526,1,8,0:0:0:0:
317,113,120620,1,0,0:0:0:0:
70,146,120651,1,0,0:0:0:0:
225,329,120745,1,12,0:0:0:0:
118,212,120870,1,0,0:0:0:0:
52,117,120932,1,0,0:0:0:0:
150,348,120995,1,8,0:0:0:0:
499,112,121057,1,0,0:0:0:0:
89,366,121120,1,8,0:0:0:0:
52,368,121161,1,8,0:0:0:0:
68,333,121203,1,0,0:0:0:0:
359,241,121245,1,8,0:0:0:0:
92,285,121307,1,0,0:0:0:0:
74,190,121370,1,8,0:0:0:0:
382,104,121495,1,0,0:0:0:0:
223,184,121557,1,0,0:0:0:0:
326,65,121620,1,8,0:0:0:0:
402,142,121661,1,8,0:0:0:0:
495,141,121703,1,0,0:0:0:0:
383,202,121745,1,8,0:0:0:0:
186,206,121870,1,0,0:0:0:0:
73,275,121932,1,8,0:0:0:0:
55,373,121995,1,0,0:0:0:0:
477,185,122057,1,0,0:0:0:0:
323,72,122120,1,0,0:0:0:0:
224,179,122182,1,0,0:0:0:0:
376,211,122245,1,12,0:0:0:0:
422,303,122370,1,0,0:0:0:0:
148,211,122401,1,0,0:0:0:0:
79,289,122495,1,0,0:0:0:0:
485,110,122526,1,0,0:0:0:0:
73,242,122620,1,0,0:0:0:0:
95,286,122651,1,0,0:0:0:0:
203,41,122745,1,0,0:0:0:0:
196,38,122776,1,8,0:0:0:0:
165,87,122995,1,8,0:0:0:0:
166,96,123026,1,8,0:0:0:0:
329,95,123057,1,0,0:0:0:0:
229,67,123120,1,8,0:0:0:0:
331,292,123182,1,0,0:0:0:0:
92,211,123245,1,8,0:0:0:0:
422,107,123286,1,8,0:0:0:0:
222,205,123328,1,8,0:0:0:0:
66,323,123370,1,0,0:0:0:0:
415,293,123495,1,8,0:0:0:0:
406,104,123620,1,0,0:0:0:0:
212,267,123682,1,0,0:0:0:0:
133,276,123745,1,12,0:0:0:0:
241,357,123870,1,0,0:0:0:0:
346,273,123901,1,0,0:0:0:0:
68,122,123995,1,8,0:0:0:0:
153,28,124026,1,0,0:0:0:0:
223,332,124120,1,8,0:0:0:0:
72,226,124151,1,0,0:0:0:0:
190,343,124245,1,8,0:0:0:0:
104,138,124276,1,8,0:0:0:0:
456,313,124370,1,8,0:0:0:0:
105,84,124401,1,8,0:0:0:0:
433,307,124495,1,0,0:0:0:0:
492,109,124526,1,0,0:0:0:0:
327,65,124620,1,0,0:0:0:0:
56,372,124651,1,0,0:0:0:0:
325,91,124745,1,8,0:0:0:0:
90,284,124786,1,8,0:0:0:0:
359,246,124828,1,8,0:0:0:0:
411,287,124870,1,0,0:0:0:0:
330,293,124932,1,0,0:0:0:0:
502,126,124995,1,8,0:0:0:0:
327,108,125120,1,8,0:0:0:0:
231,349,125182,1,0,0:0:0:0:
330,296,125245,1,12,0:0:0:0:
482,328,125370,1,0,0:0:0:0:
162,17,125411,1,0,0:0:0:0:
231,59,125453,1,8,0:0:0:0:
188,139,125495,1,8,0:0:0:0:
405,132,125620,1,0,0:0:0:0:
502,113,125661,1,0,0:0:0:0:
68,118,125703,1,0,0:0:0:0:
376,212,125745,1,8,0:0:0:0:
159,274,125807,1,0,0:0:0:0:
68,323,125870,1,8,0:0:0:0:
107,136,125932,1,0,0:0:0:0:
317,313,125995,1,8,0:0:0:0:
502,120,126026,1,8,0:0:0:0:
98,84,126057,1,0,0:0:0:0:
105,85,126120,1,8,0:0:0:0:
73,263,126151,1,8,0:0:0:0:
224,332,126182,1,0,0:0:0:0:
388,248,127745,1,8,0:0:0:0:
379,101,127870,1,0,0:0:0:0:
442,306,127995,1,0,0:0:0:0:
402,149,128120,1,8,0:0:0:0:
317,307,128245,1,8,0:0:0:0:
164,91,128370,1,0,0:0:0:0:
329,99,128495,1,0,0:0:0:0:
176,140,128620,1,0,0:0:0:0:
234,348,128745,1,8,0:0:0:0:
147,212,128870,1,0,0:0:0:0:
71,140,128995,1,0,0:0:0:0:
150,276,129120,1,8,0:0:0:0:
382,205,129245,1,8,0:0:0:0:
360,245,129370,1,0,0:0:0:0:
120,356,129495,1,0,0:0:0:0:
440,310,129620,1,0,0:0:0:0:
177,23,129745,1,8,0:0:0:0:
309,124,129870,1,8,0:0:0:0:
154,212,129995,1,0,0:0:0:0:
296,146,130120,1,8,0:0:0:0:
382,106,130245,1,8,0:0:0:0:
72,167,130370,1,0,0:0:0:0:
68,326,130495,1,0,0:0:0:0:
71,165,130620,1,0,0:0:0:0:
454,313,130745,1,8,0:0:0:0:
134,213,130870,1,8,0:0:0:0:
468,321,130995,1,0,0:0:0:0:
373,104,131120,1,8,0:0:0:0:
32,129,131245,1,8,0:0:0:0:
141,210,131370,1,0,0:0:0:0:
121,137,131495,1,0,0:0:0:0:
221,211,131620,1,0,0:0:0:0:
325,92,131745,1,8,0:0:0:0:
392,178,131870,1,0,0:0:0:0:
286,152,131995,1,0,0:0:0:0:
499,135,132120,1,0,0:0:0:0:
156,21,132245,1,8,0:0:0:0:
291,147,132370,1,0,0:0:0:0:
68,320,132495,1,0,0:0:0:0:
329,31,132620,1,0,0:0:0:0:
75,309,132745,1,8,0:0:0:0:
138,139,132870,1,8,0:0:0:0:
502,112,132995,1,0,0:0:0:0:
62,112,133120,1,0,0:0:0:0:
98,134,133245,1,8,0:0:0:0:
292,143,133370,1,0,0:0:0:0:
153,212,133495,1,0,0:0:0:0:
314,119,133620,1,0,0:0:0:0:
205,338,133745,1,8,0:0:0:0:
408,285,133870,1,8,0:0:0:0:
325,107,133995,1,0,0:0:0:0:
71,133,134120,1,0,0:0:0:0:
71,326,134245,1,8,0:0:0:0:
364,239,134370,1,0,0:0:0:0:
208,140,134495,1,0,0:0:0:0:
183,26,134620,1,0,0:0:0:0:
185,27,134745,1,8,0:0:0:0:
82,287,134870,1,8,0:0:0:0:
407,122,134995,1,0,0:0:0:0:
441,106,135120,1,0,0:0:0:0:
220,180,135245,1,8,0:0:0:0:
102,213,135370,1,8,0:0:0:0:
78,366,135495,1,8,0:0:0:0:
59,111,135620,1,0,0:0:0:0:
320,111,135745,1,8,0:0:0:0:
330,56,135870,1,0,0:0:0:0:
159,277,135995,1,0,0:0:0:0:
204,38,136120,1,8,0:0:0:0:
127,58,136245,1,8,0:0:0:0:
241,79,136370,1,0,0:0:0:0:
189,142,136495,1,0,0:0:0:0:
145,280,136620,1,0,0:0:0:0:
374,223,136745,1,8,0:0:0:0:
220,227,136870,1,0,0:0:0:0:
212,139,136995,1,0,0:0:0:0:
307,131,137120,1,8,0:0:0:0:
132,137,137245,1,8,0:0:0:0:
89,215,137370,1,0,0:0:0:0:
75,253,137495,1,0,0:0:0:0:
66,364,137620,1,0,0:0:0:0:
70,317,137745,1,8,0:0:0:0:
458,110,137870,1,8,0:0:0:0:
134,212,137995,1,0,0:0:0:0:
92,134,138120,1,8,0:0:0:0:
475,109,138245,1,8,0:0:0:0:
167,142,138370,1,0,0:0:0:0:
72,259,138495,1,0,0:0:0:0:
41,369,138620,1,0,0:0:0:0:
459,315,138745,1,8,0:0:0:0:
172,14,138870,1,8,0:0:0:0:
464,322,138995,1,0,0:0:0:0:
489,107,139120,1,8,0:0:0:0:
346,102,139245,1,8,0:0:0:0:
68,356,139370,1,0,0:0:0:0:
470,323,139495,1,0,0:0:0:0:
176,205,139620,1,0,0:0:0:0:
93,91,139745,1,8,0:0:0:0:
29,135,139995,1,0,0:0:0:0:
189,141,140120,1,8,0:0:0:0:
310,320,140245,1,8,0:0:0:0:
368,102,140495,1,0,0:0:0:0:
141,43,140620,1,0,0:0:0:0:
352,261,140745,1,8,0:0:0:0:
376,220,140995,1,0,0:0:0:0:
411,114,141120,1,8,0:0:0:0:
493,153,141245,1,8,0:0:0:0:
405,142,141495,1,0,0:0:0:0:
125,278,141620,1,0,0:0:0:0:
166,108,141745,1,8,0:0:0:0:
190,205,141870,1,0,0:0:0:0:
317,117,141995,1,0,0:0:0:0:
223,163,142120,1,8,0:0:0:0:
66,108,142245,1,8,0:0:0:0:
166,94,142370,1,0,0:0:0:0:
324,67,142495,1,0,0:0:0:0:
223,157,142620,1,8,0:0:0:0:
221,206,142745,1,8,0:0:0:0:
398,265,142870,1,0,0:0:0:0:
432,110,142995,1,8,0:0:0:0:
71,293,143120,1,8,0:0:0:0:
70,360,143245,1,8,0:0:0:0:
163,136,143370,1,0,0:0:0:0:
130,281,143495,1,0,0:0:0:0:
77,212,143620,1,8,0:0:0:0:
343,281,143745,1,8,0:0:0:0:
33,372,143870,1,0,0:0:0:0:
475,325,143995,1,8,0:0:0:0:
53,117,144120,1,0,0:0:0:0:
214,140,144245,1,8,0:0:0:0:
223,327,144370,1,8,0:0:0:0:
406,148,144495,1,0,0:0:0:0:
314,120,144620,1,0,0:0:0:0:
71,107,144745,1,8,0:0:0:0:
412,286,144870,1,0,0:0:0:0:
70,312,144995,1,0,0:0:0:0:
384,103,145120,1,8,0:0:0:0:
226,178,145245,1,8,0:0:0:0:
37,128,145370,1,0,0:0:0:0:
398,262,145495,1,8,0:0:0:0:
391,188,145620,1,0,0:0:0:0:
73,295,145745,1,8,0:0:0:0:
485,173,145870,1,8,0:0:0:0:
222,190,145995,1,0,0:0:0:0:
332,98,146120,1,8,0:0:0:0:
325,296,146245,1,8,0:0:0:0:
50,369,146370,1,0,0:0:0:0:
183,139,146495,1,8,0:0:0:0:
327,65,146620,1,0,0:0:0:0:
77,253,146745,1,8,0:0:0:0:
477,321,146870,1,8,0:0:0:0:
485,110,146995,1,0,0:0:0:0:
90,215,147120,1,8,0:0:0:0:
299,326,147245,1,8,0:0:0:0:
328,38,147370,1,0,0:0:0:0:
173,20,147495,1,0,0:0:0:0:
385,99,147620,1,0,0:0:0:0:
220,183,147745,1,8,0:0:0:0:
305,329,148120,1,8,0:0:0:0:
220,262,148245,1,0,0:0:0:0:
213,263,148620,1,0,0:0:0:0:
75,205,148745,1,8,0:0:0:0:
316,115,149120,1,0,0:0:0:0:
323,108,149245,1,8,0:0:0:0:
31,372,149620,1,8,0:0:0:0:
76,207,149745,1,8,0:0:0:0:
69,327,149870,1,0,0:0:0:0:
75,105,149995,1,0,0:0:0:0:
155,274,150120,1,0,0:0:0:0:
155,23,150245,1,8,0:0:0:0:
245,368,150370,1,0,0:0:0:0:
160,273,150495,1,0,0:0:0:0:
495,136,150620,1,0,0:0:0:0:
122,358,150745,1,8,0:0:0:0:
160,140,150870,1,8,0:0:0:0:
403,141,150995,1,0,0:0:0:0:
110,212,151120,1,0,0:0:0:0:
33,132,151245,1,8,0:0:0:0:
324,110,151370,1,8,0:0:0:0:
85,363,151495,1,8,0:0:0:0:
408,286,151620,1,0,0:0:0:0:
468,323,151745,1,8,0:0:0:0:
181,341,151870,1,0,0:0:0:0:
102,283,151995,1,0,0:0:0:0:
218,222,152120,1,8,0:0:0:0:
37,372,152245,1,8,0:0:0:0:
182,29,152370,1,0,0:0:0:0:
74,316,152495,1,0,0:0:0:0:
219,264,152620,1,0,0:0:0:0:
167,119,152745,1,8,0:0:0:0:
453,107,152870,1,0,0:0:0:0:
184,28,152995,1,0,0:0:0:0:
448,312,153120,1,8,0:0:0:0:
340,95,153245,1,8,0:0:0:0:
307,317,153370,1,0,0:0:0:0:
97,87,153495,1,8,0:0:0:0:
419,104,153620,1,0,0:0:0:0:
386,200,153745,1,8,0:0:0:0:
166,140,153870,1,8,0:0:0:0:
363,240,153995,1,0,0:0:0:0:
72,187,154120,1,8,0:0:0:0:
70,369,154245,1,8,0:0:0:0:
333,102,154370,1,0,0:0:0:0:
209,267,154495,1,8,0:0:0:0:
194,344,154620,1,0,0:0:0:0:
166,108,154745,1,8,0:0:0:0:
77,218,154870,1,8,0:0:0:0:
483,110,154995,1,0,0:0:0:0:
319,111,155120,1,8,0:0:0:0:
78,228,155245,1,8,0:0:0:0:
116,69,155370,1,0,0:0:0:0:
234,72,155495,1,0,0:0:0:0:
448,313,155620,1,0,0:0:0:0:
324,303,155745,1,8,0:0:0:0:
165,136,155995,1,0,0:0:0:0:
400,269,156120,1,8,0:0:0:0:
479,196,156245,1,8,0:0:0:0:
305,328,156495,1,0,0:0:0:0:
153,137,156620,1,0,0:0:0:0:
208,44,156745,1,8,0:0:0:0:
79,216,156995,1,0,0:0:0:0:
417,295,157120,1,8,0:0:0:0:
421,300,157245,1,8,0:0:0:0:
74,272,157495,1,8,0:0:0:0:
194,139,157620,1,0,0:0:0:0:
165,274,157745,1,8,0:0:0:0:
71,140,157870,1,8,0:0:0:0:
163,210,157995,1,0,0:0:0:0:
108,74,158120,1,0,0:0:0:0:
419,298,158245,1,8,0:0:0:0:
48,122,158370,1,0,0:0:0:0:
219,53,158495,1,0,0:0:0:0:
325,106,158620,1,0,0:0:0:0:
476,325,158745,1,8,0:0:0:0:
328,108,158870,1,0,0:0:0:0:
72,145,158995,1,0,0:0:0:0:
326,57,159120,1,0,0:0:0:0:
326,56,159245,1,8,0:0:0:0:
30,132,159370,1,0,0:0:0:0:
68,146,159495,1,0,0:0:0:0:
300,335,159620,1,0,0:0:0:0:
354,257,159745,1,8,0:0:0:0:
71,303,161745,1,0,0:0:0:0:
200,36,161870,1,8,0:0:0:0:
102,280,161963,1,0,0:0:0:0:
219,263,161995,1,8,0:0:0:0:
178,345,162120,1,0,0:0:0:0:
152,348,162932,1,0,0:0:0:0:
101,360,163057,1,8,0:0:0:0:
185,26,163088,1,0,0:0:0:0:
213,338,163182,1,0,0:0:0:0:
373,101,163276,1,0,0:0:0:0:
295,332,163307,1,8,0:0:0:0:
201,42,163495,1,8,0:0:0:0:
75,178,164307,1,8,0:0:0:0:
107,138,164432,1,0,0:0:0:0:
74,180,165526,1,8,0:0:0:0:
223,217,165651,1,0,0:0:0:0:
132,53,167370,1,8,0:0:0:0:
85,215,167495,1,8,0:0:0:0:
395,182,167620,1,8,0:0:0:0:
196,267,167682,1,8,0:0:0:0:
398,101,167745,1,0,0:0:0:0:
464,320,167995,1,8,0:0:0:0:
82,285,168120,1,8,0:0:0:0:
74,177,168370,1,8,0:0:0:0:
222,206,168495,1,0,0:0:0:0:
74,227,168620,1,8,0:0:0:0:
178,22,168745,1,8,0:0:0:0:
490,157,168870,1,0,0:0:0:0:
158,137,168932,1,0,0:0:0:0:
315,119,168995,1,0,0:0:0:0:
222,201,169245,1,0,0:0:0:0:
68,365,169495,1,8,0:0:0:0:
500,109,169620,1,0,0:0:0:0:
385,205,169745,1,12,0:0:0:0:
334,296,169870,1,0,0:0:0:0:
67,312,169932,1,0,0:0:0:0:
498,111,169995,1,8,0:0:0:0:
396,184,170120,1,0,0:0:0:0:
101,364,170245,1,8,0:0:0:0:
76,367,170307,1,8,0:0:0:0:
71,325,170370,1,0,0:0:0:0:
322,90,170495,1,8,0:0:0:0:
105,140,170557,1,8,0:0:0:0:
73,249,170620,1,0,0:0:0:0:
467,319,170682,1,8,0:0:0:0:
406,282,170745,1,0,0:0:0:0:
178,343,170776,1,0,0:0:0:0:
90,216,170870,1,0,0:0:0:0:
477,191,170901,1,0,0:0:0:0:
234,350,170995,1,8,0:0:0:0:
171,92,171026,1,8,0:0:0:0:
154,349,171120,1,0,0:0:0:0:
477,330,171151,1,0,0:0:0:0:
95,361,171245,1,12,0:0:0:0:
105,85,171370,1,0,0:0:0:0:
223,209,171432,1,0,0:0:0:0:
71,340,171495,1,8,0:0:0:0:
202,36,171536,1,8,0:0:0:0:
405,146,171578,1,0,0:0:0:0:
323,80,171620,1,8,0:0:0:0:
434,305,171682,1,8,0:0:0:0:
409,108,171745,1,0,0:0:0:0:
326,103,171870,1,8,0:0:0:0:
91,287,171995,1,0,0:0:0:0:
221,229,172036,1,8,0:0:0:0:
445,103,172120,1,0,0:0:0:0:
149,31,172245,1,8,0:0:0:0:
160,276,172307,1,8,0:0:0:0:
355,264,172370,1,0,0:0:0:0:
188,345,172411,1,0,0:0:0:0:
185,203,172495,1,0,0:0:0:0:
122,67,172620,1,8,0:0:0:0:
167,90,172745,1,12,0:0:0:0:
445,313,172870,1,0,0:0:0:0:
220,54,172995,1,8,0:0:0:0:
290,342,173036,1,0,0:0:0:0:
204,341,173078,1,0,0:0:0:0:
422,300,173120,1,8,0:0:0:0:
222,217,173182,1,8,0:0:0:0:
443,107,173245,1,0,0:0:0:0:
480,190,173370,1,8,0:0:0:0:
410,101,173432,1,8,0:0:0:0:
409,115,173495,1,0,0:0:0:0:
304,320,173536,1,0,0:0:0:0:
303,131,173578,1,0,0:0:0:0:
74,253,173620,1,8,0:0:0:0:
226,191,173745,1,0,0:0:0:0:
95,285,173870,1,0,0:0:0:0:
150,30,173995,1,8,0:0:0:0:
470,107,174036,1,8,0:0:0:0:
199,35,174078,1,8,0:0:0:0:
70,289,174120,1,0,0:0:0:0:
70,152,174182,1,0,0:0:0:0:
364,104,174245,1,12,0:0:0:0:
279,163,174370,1,0,0:0:0:0:
219,227,174495,1,8,0:0:0:0:
58,115,174557,1,8,0:0:0:0:
188,273,174620,1,0,0:0:0:0:
153,30,174682,1,0,0:0:0:0:
480,190,174745,1,8,0:0:0:0:
242,365,174870,1,0,0:0:0:0:
137,275,174932,1,8,0:0:0:0:
365,103,174995,1,0,0:0:0:0:
283,152,175057,1,0,0:0:0:0:
400,163,175120,1,8,0:0:0:0:
487,180,175245,1,0,0:0:0:0:
197,141,175307,1,0,0:0:0:0:
71,159,175370,1,8,0:0:0:0:
174,274,175432,1,0,0:0:0:0:
110,214,175495,1,8,0:0:0:0:
329,87,175620,1,0,0:0:0:0:
504,123,175745,1,12,0:0:0:0:
312,125,175870,1,0,0:0:0:0:
297,329,175932,1,0,0:0:0:0:
317,121,175995,1,8,0:0:0:0:
167,91,176120,1,0,0:0:0:0:
80,362,176182,1,0,0:0:0:0:
93,139,176245,1,0,0:0:0:0:
101,283,176307,1,8,0:0:0:0:
58,117,176370,1,0,0:0:0:0:
119,137,176495,1,8,0:0:0:0:
238,73,176557,1,8,0:0:0:0:
224,144,176620,1,0,0:0:0:0:
291,149,176661,1,0,0:0:0:0:
151,139,176745,1,8,0:0:0:0:
488,176,176807,1,8,0:0:0:0:
335,98,176870,1,0,0:0:0:0:
361,250,176995,1,8,0:0:0:0:
224,164,177120,1,0,0:0:0:0:
196,207,177245,1,12,0:0:0:0:
220,240,177370,1,0,0:0:0:0:
232,65,177432,1,8,0:0:0:0:
494,155,177495,1,0,0:0:0:0:
69,159,177526,1,0,0:0:0:0:
193,37,177682,1,0,0:0:0:0:
184,28,177713,1,0,0:0:0:0:
223,172,177745,1,8,0:0:0:0:
74,220,177995,1,8,0:0:0:0:
109,212,178036,1,0,0:0:0:0:
133,354,178078,1,0,0:0:0:0:
223,162,178120,1,8,0:0:0:0:
144,348,178182,1,0,0:0:0:0:
292,144,178245,1,8,0:0:0:0:
73,308,178307,1,8,0:0:0:0:
107,283,178370,1,0,0:0:0:0:
172,343,178495,1,8,0:0:0:0:
71,171,178557,1,8,0:0:0:0:
383,194,178620,1,0,0:0:0:0:
411,100,178745,1,12,0:0:0:0:
74,330,178870,1,0,0:0:0:0:
202,209,178932,1,0,0:0:0:0:
402,272,178995,1,8,0:0:0:0:
68,135,179057,1,0,0:0:0:0:
111,73,179120,1,8,0:0:0:0:
329,296,179161,1,0,0:0:0:0:
406,118,179203,1,0,0:0:0:0:
327,301,179245,1,8,0:0:0:0:
245,83,179307,1,8,0:0:0:0:
455,314,179370,1,0,0:0:0:0:
195,140,179495,1,8,0:0:0:0:
298,335,179557,1,0,0:0:0:0:
83,368,179620,1,8,0:0:0:0:
51,370,179682,1,8,0:0:0:0:
354,261,179745,1,0,0:0:0:0:
225,174,179786,1,0,0:0:0:0:
117,66,179828,1,0,0:0:0:0:
226,161,179870,1,8,0:0:0:0:
327,49,179995,1,0,0:0:0:0:
204,140,180120,1,8,0:0:0:0:
166,104,180245,1,12,0:0:0:0:
296,140,180370,1,0,0:0:0:0:
416,300,180432,1,0,0:0:0:0:
46,125,180495,1,8,0:0:0:0:
481,328,180557,1,0,0:0:0:0:
72,161,180620,1,8,0:0:0:0:
220,237,180682,1,8,0:0:0:0:
195,36,180745,1,0,0:0:0:0:
104,135,180870,1,0,0:0:0:0:
146,351,180932,1,0,0:0:0:0:
95,287,180995,1,8,0:0:0:0:
167,96,181245,1,8,0:0:0:0:
499,133,181328,1,0,0:0:0:0:
163,125,181411,1,0,0:0:0:0:
408,102,181495,1,8,0:0:0:0:
388,190,181536,1,8,0:0:0:0:
425,108,181578,1,0,0:0:0:0:
39,127,181620,1,0,0:0:0:0:
224,172,181745,1,8,0:0:0:0:
68,362,181807,1,8,0:0:0:0:
236,352,181870,1,8,0:0:0:0:
76,270,181932,1,8,0:0:0:0:
197,38,182245,1,8,0:0:0:0:
203,266,182307,1,8,0:0:0:0:
131,278,182370,1,8,0:0:0:0:
408,284,182432,1,8,0:0:0:0:
116,137,182495,1,8,0:0:0:0:
56,116,182557,1,8,0:0:0:0:
71,237,182620,1,8,0:0:0:0:
334,292,182682,1,8,0:0:0:0:
222,238,182745,2,0,B|318:299|318:299|350:203|350:203|88:275|88:275|80:302|80:302|120:82|120:82|227:227|227:227|320:112,1,1050.00004005432
219,223,184245,1,0,0:0:0:0:
213,264,184370,1,0,0:0:0:0:
410,110,184495,1,8,0:0:0:0:
484,188,184620,1,8,0:0:0:0:
230,59,184745,1,0,0:0:0:0:
365,102,184870,1,0,0:0:0:0:
210,339,184995,1,0,0:0:0:0:
324,71,185120,1,0,0:0:0:0:
72,249,185245,1,8,0:0:0:0:
456,108,185328,1,8,0:0:0:0:
500,136,185411,1,0,0:0:0:0:
73,133,185495,1,8,0:0:0:0:
325,81,185578,1,8,0:0:0:0:
76,187,185661,1,0,0:0:0:0:
200,341,185745,1,12,0:0:0:0:
145,277,185870,1,0,0:0:0:0:
172,141,185932,1,0,0:0:0:0:
488,156,185995,1,8,0:0:0:0:
91,89,186057,1,0,0:0:0:0:
388,253,186120,1,8,0:0:0:0:
255,92,186182,1,0,0:0:0:0:
393,180,186245,1,8,0:0:0:0:
290,149,186286,1,8,0:0:0:0:
477,323,186328,1,8,0:0:0:0:
369,226,186370,1,0,0:0:0:0:
462,108,186432,1,0,0:0:0:0:
441,310,186495,1,8,0:0:0:0:
49,371,186557,1,0,0:0:0:0:
297,139,186620,1,8,0:0:0:0:
31,132,186682,1,8,0:0:0:0:
194,270,186745,1,0,0:0:0:0:
322,75,186870,1,8,0:0:0:0:
216,264,186932,1,8,0:0:0:0:
402,158,186995,1,0,0:0:0:0:
442,105,187057,1,8,0:0:0:0:
222,55,187120,1,0,0:0:0:0:
86,366,187182,1,0,0:0:0:0:
406,136,187245,1,8,0:0:0:0:
80,213,187286,1,8,0:0:0:0:
171,90,187328,1,0,0:0:0:0:
134,140,187370,1,8,0:0:0:0:
474,325,187432,1,0,0:0:0:0:
378,206,187495,1,8,0:0:0:0:
92,364,187557,1,8,0:0:0:0:
170,142,187620,1,0,0:0:0:0:
485,110,187682,1,0,0:0:0:0:
464,324,187745,1,8,0:0:0:0:
74,185,187786,1,8,0:0:0:0:
166,100,187828,1,8,0:0:0:0:
222,229,187870,1,0,0:0:0:0:
323,111,187995,1,8,0:0:0:0:
75,178,188057,1,0,0:0:0:0:
153,346,188120,1,8,0:0:0:0:
434,306,188151,1,8,0:0:0:0:
294,146,188245,1,0,0:0:0:0:
224,208,188307,1,0,0:0:0:0:
83,93,188370,1,8,0:0:0:0:
224,339,188432,1,0,0:0:0:0:
343,281,188495,1,8,0:0:0:0:
33,377,188526,1,8,0:0:0:0:
497,132,188620,1,0,0:0:0:0:
149,208,188745,1,8,0:0:0:0:
131,212,188786,1,8,0:0:0:0:
76,174,188828,1,0,0:0:0:0:
363,235,188870,1,8,0:0:0:0:
361,101,188932,1,8,0:0:0:0:
332,30,188995,1,0,0:0:0:0:
74,154,189120,1,8,0:0:0:0:
433,106,189161,1,0,0:0:0:0:
146,140,189203,1,0,0:0:0:0:
162,140,189245,1,8,0:0:0:0:
165,273,189307,1,8,0:0:0:0:
222,239,189370,1,0,0:0:0:0:
471,110,189432,1,8,0:0:0:0:
188,27,189495,1,0,0:0:0:0:
62,368,189536,1,0,0:0:0:0:
279,159,189578,1,8,0:0:0:0:
405,276,189620,1,8,0:0:0:0:
113,212,189745,1,0,0:0:0:0:
354,98,189807,1,0,0:0:0:0:
328,298,189870,1,8,0:0:0:0:
329,35,189932,1,0,0:0:0:0:
297,137,189995,1,8,0:0:0:0:
193,271,190120,1,8,0:0:0:0:
133,281,190151,1,8,0:0:0:0:
70,278,190182,1,0,0:0:0:0:
292,147,190245,1,8,0:0:0:0:
67,353,190307,1,8,0:0:0:0:
98,363,190370,1,0,0:0:0:0:
326,32,190432,1,0,0:0:0:0:
132,55,190495,1,8,0:0:0:0:
69,353,190557,1,0,0:0:0:0:
108,359,190620,1,8,0:0:0:0:
123,59,190745,1,8,0:0:0:0:
184,28,190786,1,8,0:0:0:0:
74,156,190828,1,8,0:0:0:0:
75,137,190870,1,0,0:0:0:0:
89,286,190932,1,0,0:0:0:0:
433,106,190995,1,8,0:0:0:0:
204,268,191026,1,8,0:0:0:0:
180,342,191057,1,0,0:0:0:0:
390,190,191120,1,0,0:0:0:0:
161,140,191182,1,8,0:0:0:0:
148,273,191307,1,0,0:0:0:0:
480,192,191370,1,0,0:0:0:0:
71,143,191432,1,0,0:0:0:0:
153,276,191495,1,8,0:0:0:0:
344,98,191557,1,0,0:0:0:0:
116,68,191620,1,8,0:0:0:0:
146,35,191745,1,0,0:0:0:0:
224,168,191786,1,0,0:0:0:0:
501,113,191828,1,0,0:0:0:0:
92,366,191870,1,8,0:0:0:0:
72,122,191932,1,8,0:0:0:0:
142,349,191995,1,0,0:0:0:0:
208,141,192057,1,0,0:0:0:0:
411,288,192120,1,8,0:0:0:0:
325,83,192161,1,8,0:0:0:0:
295,140,192203,1,0,0:0:0:0:
212,338,192245,1,8,0:0:0:0:
234,351,192307,1,8,0:0:0:0:
115,207,192370,1,0,0:0:0:0:
70,346,192432,1,0,0:0:0:0:
374,100,192495,1,8,0:0:0:0:
442,104,192557,1,8,0:0:0:0:
434,103,192620,1,8,0:0:0:0:
310,124,192682,1,8,0:0:0:0:
120,282,192745,1,0,0:0:0:0:
339,103,192870,1,0,0:0:0:0:
391,183,192932,1,0,0:0:0:0:
405,141,192995,1,8,0:0:0:0:
113,211,193120,1,0,0:0:0:0:
322,78,193245,1,8,0:0:0:0:
61,109,193370,1,0,0:0:0:0:
470,110,193401,1,0,0:0:0:0:
99,84,193432,1,0,0:0:0:0:
223,225,193495,1,8,0:0:0:0:
74,220,193557,1,8,0:0:0:0:
171,270,193620,1,0,0:0:0:0:
68,132,193745,1,8,0:0:0:0:
71,334,193786,1,8,0:0:0:0:
362,244,193828,1,0,0:0:0:0:
201,269,193870,1,8,0:0:0:0:
165,120,193932,1,8,0:0:0:0:
440,309,193995,1,0,0:0:0:0:
47,370,194036,1,8,0:0:0:0:
328,294,194078,1,8,0:0:0:0:
196,38,194120,1,0,0:0:0:0:
70,137,194182,1,0,0:0:0:0:
173,19,194245,1,8,0:0:0:0:
337,286,194370,1,0,0:0:0:0:
155,347,194432,1,0,0:0:0:0:
100,140,194495,1,8,0:0:0:0:
491,148,194557,1,8,0:0:0:0:
73,158,194620,1,0,0:0:0:0:
400,103,194745,1,0,0:0:0:0:
389,102,194786,1,0,0:0:0:0:
150,137,194828,1,0,0:0:0:0:
153,33,194870,1,8,0:0:0:0:
181,142,194932,1,8,0:0:0:0:
141,42,194995,1,0,0:0:0:0:
167,209,195057,1,8,0:0:0:0:
112,75,195120,1,0,0:0:0:0:
71,309,195182,1,0,0:0:0:0:
221,214,195245,1,8,0:0:0:0:
102,85,195276,1,8,0:0:0:0:
473,323,195370,1,8,0:0:0:0:
219,50,195495,1,8,0:0:0:0:
414,296,195526,1,8,0:0:0:0:
296,138,195620,1,8,0:0:0:0:
102,136,195745,1,0,0:0:0:0:
76,216,195786,1,0,0:0:0:0:
244,83,195828,1,0,0:0:0:0:
455,109,195870,1,8,0:0:0:0:
82,97,195932,1,8,0:0:0:0:
99,85,195995,1,0,0:0:0:0:
73,238,196057,1,0,0:0:0:0:
145,208,196120,1,0,0:0:0:0:
70,312,196182,1,0,0:0:0:0:
64,369,196245,1,8,0:0:0:0:
422,103,196370,1,8,0:0:0:0:
89,92,196411,1,8,0:0:0:0:
321,106,196453,1,8,0:0:0:0:
336,287,196495,1,0,0:0:0:0:
69,336,196557,1,0,0:0:0:0:
329,49,196620,1,8,0:0:0:0:
404,280,196745,1,0,0:0:0:0:
68,115,196786,1,0,0:0:0:0:
69,132,196828,1,0,0:0:0:0:
138,43,196870,1,0,0:0:0:0:
495,152,196995,1,8,0:0:0:0:
67,317,197026,1,8,0:0:0:0:
115,66,197120,1,0,0:0:0:0:
75,223,197182,1,0,0:0:0:0:
400,267,197245,1,8,0:0:0:0:
373,102,197276,1,8,0:0:0:0:
163,207,197370,1,0,0:0:0:0:
179,207,197432,1,0,0:0:0:0:
107,137,197495,1,8,0:0:0:0:
391,249,197526,1,8,0:0:0:0:
394,181,197620,1,0,0:0:0:0:
71,165,197682,1,8,0:0:0:0:
225,227,197713,1,8,0:0:0:0:
311,122,197745,1,0,0:0:0:0:
173,140,197870,1,8,0:0:0:0:
124,58,197932,1,0,0:0:0:0:
373,104,197995,1,8,0:0:0:0:
81,100,198057,1,0,0:0:0:0:
49,373,198120,1,8,0:0:0:0:
440,307,198182,1,8,0:0:0:0:
354,99,198245,1,0,0:0:0:0:
484,185,198276,1,0,0:0:0:0:
396,174,198307,1,8,0:0:0:0:
167,116,198370,1,0,0:0:0:0:
105,362,198432,1,0,0:0:0:0:
404,276,198495,1,8,0:0:0:0:
475,197,198557,1,0,0:0:0:0:
57,117,198620,1,8,0:0:0:0:
71,367,198682,1,8,0:0:0:0:
390,196,198745,1,0,0:0:0:0:
390,249,198807,1,0,0:0:0:0:
346,101,198870,1,0,0:0:0:0:
294,147,198932,1,0,0:0:0:0:
189,271,198995,1,8,0:0:0:0:
169,103,199036,1,8,0:0:0:0:
130,55,199078,1,0,0:0:0:0:
278,156,199120,1,8,0:0:0:0:
225,146,199245,1,8,0:0:0:0:
75,275,199276,1,8,0:0:0:0:
436,308,199370,1,8,0:0:0:0:
378,239,199401,1,8,0:0:0:0:
143,39,199495,1,8,0:0:0:0:
500,131,199557,1,8,0:0:0:0:
500,117,199620,1,8,0:0:0:0:
166,274,199682,1,8,0:0:0:0:
114,138,199745,1,0,0:0:0:0:
404,145,199870,1,0,0:0:0:0:
54,114,199911,1,0,0:0:0:0:
289,150,199953,1,0,0:0:0:0:
89,213,199995,1,8,0:0:0:0:
372,223,200057,1,8,0:0:0:0:
450,317,200120,1,0,0:0:0:0:
226,216,200182,1,0,0:0:0:0:
357,247,200245,1,8,0:0:0:0:
222,200,200265,1,8,0:0:0:0:
76,248,200370,1,0,0:0:0:0:
223,193,200432,1,8,0:0:0:0:
396,177,200495,1,0,0:0:0:0:
220,54,200557,1,0,0:0:0:0:
491,158,200620,1,8,0:0:0:0:
99,358,200682,1,0,0:0:0:0:
67,124,200745,1,8,0:0:0:0:
78,202,200870,1,0,0:0:0:0:
27,137,200932,1,0,0:0:0:0:
337,285,200995,1,8,0:0:0:0:
116,138,201057,1,0,0:0:0:0:
340,99,201120,1,0,0:0:0:0:
386,251,201182,1,0,0:0:0:0:
77,136,201245,1,8,0:0:0:0:
287,150,201276,1,8,0:0:0:0:
209,44,201370,1,0,0:0:0:0:
200,267,201432,1,0,0:0:0:0:
201,208,201495,1,0,0:0:0:0:
391,189,201620,1,0,0:0:0:0:
391,249,201682,1,0,0:0:0:0:
73,313,201745,1,8,0:0:0:0:
332,101,201786,1,0,0:0:0:0:
69,333,201828,1,0,0:0:0:0:
150,277,201870,1,8,0:0:0:0:
207,342,201932,1,0,0:0:0:0:
221,186,201995,1,8,0:0:0:0:
150,28,202057,1,8,0:0:0:0:
93,95,202120,1,0,0:0:0:0:
298,322,202182,1,0,0:0:0:0:
202,208,202245,1,8,0:0:0:0:
406,141,202286,1,8,0:0:0:0:
495,139,202328,1,8,0:0:0:0:
78,366,202370,1,0,0:0:0:0:
95,363,202432,1,8,0:0:0:0:
186,269,202495,1,8,0:0:0:0:
403,153,202557,1,0,0:0:0:0:
129,54,202620,1,8,0:0:0:0:
226,153,202745,1,0,0:0:0:0:
326,297,202786,1,0,0:0:0:0:
409,288,202828,1,0,0:0:0:0:
284,155,202870,1,8,0:0:0:0:
75,256,202932,1,8,0:0:0:0:
51,375,202995,1,0,0:0:0:0:
348,100,203120,1,8,0:0:0:0:
101,139,203151,1,8,0:0:0:0:
215,339,203245,1,0,0:0:0:0:
136,139,203307,1,8,0:0:0:0:
334,98,203370,1,0,0:0:0:0:
239,74,203432,1,0,0:0:0:0:
169,343,203495,1,8,0:0:0:0:
410,283,203526,1,8,0:0:0:0:
496,148,203620,1,0,0:0:0:0:
115,137,203682,1,0,0:0:0:0:
473,201,203745,1,8,0:0:0:0:
239,357,203776,1,8,0:0:0:0:
71,247,203870,1,0,0:0:0:0:
65,368,203932,1,0,0:0:0:0:
227,150,203995,1,8,0:0:0:0:
406,120,204036,1,0,0:0:0:0:
74,332,204078,1,0,0:0:0:0:
301,325,204120,1,8,0:0:0:0:
400,150,204182,1,8,0:0:0:0:
211,335,204245,1,0,0:0:0:0:
189,143,204286,1,0,0:0:0:0:
327,36,204328,1,0,0:0:0:0:
184,31,204370,1,8,0:0:0:0:
165,96,204495,1,0,0:0:0:0:
70,359,204557,1,0,0:0:0:0:
224,234,204620,1,8,0:0:0:0:
326,303,204682,1,8,0:0:0:0:
224,154,204745,1,0,0:0:0:0:
386,199,204786,1,8,0:0:0:0:
378,204,204828,1,8,0:0:0:0:
94,362,204870,1,0,0:0:0:0:
468,110,204932,1,0,0:0:0:0:
45,373,204995,1,8,0:0:0:0:
123,278,205120,1,0,0:0:0:0:
502,119,205151,1,0,0:0:0:0:
64,365,205182,1,8,0:0:0:0:
118,135,205245,1,0,0:0:0:0:
93,365,205370,1,0,0:0:0:0:
140,353,205401,1,8,0:0:0:0:
212,341,205432,1,8,0:0:0:0:
404,285,205495,1,0,0:0:0:0:
74,287,205620,1,8,0:0:0:0:
136,213,205682,1,8,0:0:0:0:
201,340,205745,1,0,0:0:0:0:
118,281,205786,1,0,0:0:0:0:
191,140,205828,1,0,0:0:0:0:
135,48,205870,1,8,0:0:0:0:
84,138,205932,1,0,0:0:0:0:
235,346,205995,1,8,0:0:0:0:
388,249,206026,1,8,0:0:0:0:
390,106,206057,1,0,0:0:0:0:
200,40,206120,1,8,0:0:0:0:
101,287,206182,1,8,0:0:0:0:
164,113,206245,1,0,0:0:0:0:
238,356,206286,1,8,0:0:0:0:
350,102,206370,1,0,0:0:0:0:
162,276,206495,1,0,0:0:0:0:
500,128,206557,1,0,0:0:0:0:
68,318,206620,1,8,0:0:0:0:
242,74,206682,1,8,0:0:0:0:
89,362,206745,1,0,0:0:0:0:
127,54,206786,1,0,0:0:0:0:
222,264,206828,1,0,0:0:0:0:
175,268,206870,1,8,0:0:0:0:
250,89,206932,1,0,0:0:0:0:
159,206,206995,1,8,0:0:0:0:
393,182,207026,1,8,0:0:0:0:
131,277,207120,1,0,0:0:0:0:
327,92,207182,1,0,0:0:0:0:
388,102,207245,1,8,0:0:0:0:
351,100,207307,1,0,0:0:0:0:
138,351,207370,1,8,0:0:0:0:
361,249,207411,1,8,0:0:0:0:
167,211,207453,1,8,0:0:0:0:
149,212,207495,1,0,0:0:0:0:
297,337,207557,1,8,0:1:0:0:
208,337,207620,1,8,0:0:0:0:
346,279,207745,1,0,0:0:0:0:
174,208,207786,1,0,0:0:0:0:
230,341,207828,1,0,0:0:0:0:
102,361,207870,1,8,0:0:0:0:
66,346,207932,1,8,0:0:0:0:
70,342,207995,1,0,0:0:0:0:
73,289,208057,1,0,0:0:0:0:
138,137,208120,1,8,0:0:0:0:
414,295,208245,1,0,0:0:0:0:
164,138,208307,1,8,0:0:0:0:
164,20,208370,1,8,0:0:0:0:
284,157,208432,1,8,0:0:0:0:
163,207,208495,1,0,0:0:0:0:
76,207,208557,1,0,0:0:0:0:
227,335,208620,1,8,0:0:0:0:
327,46,208682,1,8,0:0:0:0:
114,356,208745,1,0,0:0:0:0:
316,312,208807,1,0,0:0:0:0:
323,89,208870,1,0,0:0:0:0:
200,339,208932,1,0,0:0:0:0:
471,106,208995,1,0,0:0:0:0:
109,75,209057,1,0,0:0:0:0:
165,18,209120,1,0,0:0:0:0:
398,265,209182,1,0,0:0:0:0:
71,290,209245,1,8,0:0:0:0:
68,110,209307,1,8,0:0:0:0:
319,116,209370,1,0,0:0:0:0:
85,97,209432,1,0,0:0:0:0:
141,278,209495,1,0,0:0:0:0:
475,191,209557,1,0,0:0:0:0:
72,256,209620,1,0,0:0:0:0:
327,67,209682,1,0,0:0:0:0:
98,282,209745,1,8,0:0:0:0:
367,100,209870,1,8,0:0:0:0:
122,138,209932,1,8,0:0:0:0:
330,39,209995,1,0,0:0:0:0:
386,193,210120,1,8,0:0:0:0:
336,96,210182,1,0,0:0:0:0:
112,141,210245,1,8,0:0:0:0:
62,370,210286,1,8,0:0:0:0:
141,209,210328,1,8,0:0:0:0:
100,83,210370,1,0,0:0:0:0:
92,136,210495,1,8,0:0:0:0:
357,257,210557,1,0,0:0:0:0:
246,85,210620,1,8,0:0:0:0:
476,204,210682,1,8,0:0:0:0:
220,233,210745,1,0,0:0:0:0:
323,77,210786,1,0,0:0:0:0:
56,368,210828,1,0,0:0:0:0:
403,171,210870,1,8,0:0:0:0:
118,136,210932,1,0,0:0:0:0:
394,172,210995,1,8,0:0:0:0:
142,210,211036,1,8,0:0:0:0:
71,317,211078,1,8,0:0:0:0:
416,101,211120,1,0,0:0:0:0:
105,280,211182,1,0,0:0:0:0:
71,186,211245,1,8,0:0:0:0:
152,139,211307,1,0,0:0:0:0:
334,291,211370,1,8,0:0:0:0:
241,75,211432,1,0,0:0:0:0:
222,209,211495,1,8,0:0:0:0:
217,46,211557,1,0,0:0:0:0:
403,151,211620,1,8,0:0:0:0:
391,105,211682,1,0,0:0:0:0:
74,251,211745,1,0,0:0:0:0:
462,319,211870,1,8,0:0:0:0:
375,221,211932,1,0,0:0:0:0:
225,175,211995,1,8,0:0:0:0:
177,343,212057,1,8,0:0:0:0:
121,211,212120,1,0,0:0:0:0:
56,115,212161,1,8,0:0:0:0:
487,108,212203,1,8,0:0:0:0:
332,99,212245,1,0,0:0:0:0:
111,70,212276,1,0,0:0:0:0:
73,169,212370,1,8,0:0:0:0:
222,173,212495,1,0,0:0:0:0:
195,206,212557,1,0,0:0:0:0:
102,360,212620,1,0,0:0:0:0:
424,302,212745,1,8,0:0:0:0:
223,254,212786,1,0,0:0:0:0:
170,85,212828,1,0,0:0:0:0:
186,27,212870,1,8,0:0:0:0:
435,305,212932,1,0,0:0:0:0:
448,311,212995,1,8,0:0:0:0:
303,322,213057,1,8,0:0:0:0:
130,137,213120,1,0,0:0:0:0:
245,82,213245,1,8,0:0:0:0:
161,136,213307,1,0,0:0:0:0:
372,220,213370,1,8,0:0:0:0:
160,274,213495,1,0,0:0:0:0:
278,165,213557,1,0,0:0:0:0:
225,58,213620,1,8,0:0:0:0:
221,178,213745,1,0,0:0:0:0:
222,333,213786,1,0,0:0:0:0:
211,51,213828,1,0,0:0:0:0:
127,54,213870,1,8,0:0:0:0:
39,129,213932,1,0,0:0:0:0:
479,184,213995,1,8,0:0:0:0:
180,20,214026,1,8,0:0:0:0:
505,112,214057,1,0,0:0:0:0:
326,51,214120,1,8,0:0:0:0:
403,138,214182,1,8,0:0:0:0:
75,220,214245,1,0,0:0:0:0:
301,322,214370,1,8,0:0:0:0:
210,46,214432,1,0,0:0:0:0:
484,327,214495,1,8,0:0:0:0:
225,175,214557,1,0,0:0:0:0:
79,232,214620,1,8,0:0:0:0:
497,126,214682,1,8,0:0:0:0:
389,256,214745,1,0,0:0:0:0:
193,271,214786,1,0,0:0:0:0:
157,26,214828,1,0,0:0:0:0:
312,120,214870,1,8,0:0:0:0:
405,117,214932,1,0,0:0:0:0:
113,140,214995,1,8,0:0:0:0:
176,270,215057,1,8,0:0:0:0:
391,190,215120,1,0,0:0:0:0:
163,121,215182,1,0,0:0:0:0:
220,217,215245,1,8,0:0:0:0:
54,373,215286,1,8,0:0:0:0:
312,125,215328,1,0,0:0:0:0:
496,142,215370,1,8,0:0:0:0:
339,100,215432,1,0,0:0:0:0:
87,362,215495,1,8,0:0:0:0:
194,30,215557,1,8,0:0:0:0:
69,107,215620,1,8,0:0:0:0:
199,341,215745,1,0,0:0:0:0:
75,197,215776,1,0,0:0:0:0:
68,284,215807,1,0,0:0:0:0:
153,210,215870,1,8,0:0:0:0:
223,331,215901,1,8,0:0:0:0:
110,212,215995,1,8,0:0:0:0:
386,249,216026,1,8,0:0:0:0:
77,101,216120,1,8,0:0:0:0:
215,334,216182,1,8,0:0:0:0:
156,210,216245,1,0,0:0:0:0:
448,312,216276,1,0,0:0:0:0:
71,238,216370,1,8,0:0:0:0:
230,338,216432,1,8,0:0:0:0:
166,113,216495,1,8,0:0:0:0:
75,217,216557,1,8,0:0:0:0:
155,274,216620,1,8,0:0:0:0:
390,253,216682,1,8,0:0:0:0:
178,138,216745,1,0,0:0:0:0:
108,357,216786,1,0,0:0:0:0:
91,91,216828,1,0,0:0:0:0:
71,260,216870,1,8,0:0:0:0:
481,326,216932,1,8,0:0:0:0:
406,283,216995,1,0,0:0:0:0:
94,212,217057,1,0,0:0:0:0:
397,269,217120,1,0,0:0:0:0:
359,254,217182,1,0,0:0:0:0:
500,129,217245,1,8,0:0:0:0:
500,129,217286,1,8,0:0:0:0:
132,354,217328,1,8,0:0:0:0:
86,215,217370,1,0,0:0:0:0:
73,297,217432,1,0,0:0:0:0:
381,103,217495,1,8,0:0:0:0:
142,210,217526,1,8,0:0:0:0:
75,194,217557,1,0,0:0:0:0:
494,148,217620,1,8,0:0:0:0:
193,203,217745,1,0,0:0:0:0:
495,127,218245,1,0,0:0:0:0:
392,184,218745,1,8,0:0:0:0:
397,181,219245,1,8,0:0:0:0:
231,340,220245,1,0,0:0:0:0:
220,216,220745,1,8,0:0:0:0:
458,108,221245,1,0,0:0:0:0:
404,284,221745,1,8,0:0:0:0:
76,101,222245,1,8,0:0:0:0:
245,81,223745,1,8,0:0:0:0:
74,224,223995,1,0,0:0:0:0:
70,137,224245,1,8,0:0:0:0:
312,123,224745,1,0,0:0:0:0:
177,274,225245,1,8,0:0:0:0:
288,153,226245,1,8,0:0:0:0:
343,101,226495,1,8,0:0:0:0:
317,310,226745,1,0,0:0:0:0:
65,339,226995,1,0,0:0:0:0:
424,107,227245,1,8,0:0:0:0:
350,100,227745,1,8,0:0:0:0:
84,98,228245,1,0,0:0:0:0:
254,93,229745,1,0,0:0:0:0:
331,293,230245,1,8,0:0:0:0:
84,98,230745,1,8,0:0:0:0:
74,99,231245,1,0,0:0:0:0:
234,352,232245,1,8,0:0:0:0:
85,136,232745,1,0,0:0:0:0:
359,246,232995,1,0,0:0:0:0:
56,372,233245,1,8,0:0:0:0:
173,348,233495,1,0,0:0:0:0:
176,22,233745,1,8,0:0:0:0:
150,209,234245,1,0,0:0:0:0:
237,351,234745,1,8,0:0:0:0:
376,211,235245,1,8,0:0:0:0:
149,140,235745,1,0,0:0:0:0:
96,360,235995,1,0,0:0:0:0:
146,207,236245,1,8,0:0:0:0:
235,351,236745,1,8,0:0:0:0:
162,138,237245,1,0,0:0:0:0:
110,280,237745,1,8,0:0:0:0:
104,214,238245,1,8,0:0:0:0:
161,210,238495,1,8,0:0:0:0:
365,98,238745,1,0,0:0:0:0:
60,364,238995,1,0,0:0:0:0:
78,228,239245,1,8,0:0:0:0:
439,106,239745,1,8,0:0:0:0:
77,137,240245,1,0,0:0:0:0:
50,119,240745,1,8,0:0:0:0:
409,289,241245,1,8,0:0:0:0:
487,172,241745,1,12,0:0:0:0:
165,273,243245,1,0,0:0:0:0:
196,268,243328,1,0,0:0:0:0:
100,285,243411,1,0,0:0:0:0:
176,139,243495,1,0,0:0:0:0:
85,137,243578,1,0,0:0:0:0:
344,96,243661,1,0,0:0:0:0:
125,210,243745,1,12,0:0:0:0:
225,55,243870,1,0,0:0:0:0:
200,337,243932,1,0,0:0:0:0:
147,209,243995,1,8,0:0:0:0:
70,322,244057,1,0,0:0:0:0:
129,357,244120,1,8,0:0:0:0:
169,102,244245,1,8,0:0:0:0:
433,309,244286,1,8,0:0:0:0:
78,367,244328,1,8,0:0:0:0:
163,129,244370,1,0,0:0:0:0:
75,254,244432,1,0,0:0:0:0:
222,168,244495,1,8,0:0:0:0:
491,150,244557,1,0,0:0:0:0:
329,64,244620,1,8,0:0:0:0:
130,355,244661,1,0,0:0:0:0:
389,194,244703,1,0,0:0:0:0:
164,86,244745,1,8,0:0:0:0:
193,35,244807,1,8,0:0:0:0:
75,190,244870,1,0,0:0:0:0:
167,15,244932,1,0,0:0:0:0:
37,373,244995,1,8,0:0:0:0:
41,123,245057,1,0,0:0:0:0:
71,334,245120,1,8,0:0:0:0:
279,162,245245,1,8,0:0:0:0:
235,345,245286,1,8,0:0:0:0:
199,268,245328,1,8,0:0:0:0:
145,138,245370,1,0,0:0:0:0:
75,290,245432,1,0,0:0:0:0:
477,191,245495,1,8,0:0:0:0:
194,31,245536,1,8,0:0:0:0:
415,106,245578,1,0,0:0:0:0:
330,51,245620,1,8,0:0:0:0:
166,90,245745,1,0,0:0:0:0:
379,206,245807,1,0,0:0:0:0:
413,102,245870,1,0,0:0:0:0:
494,168,245932,1,0,0:0:0:0:
409,289,245995,1,8,0:0:0:0:
221,204,246057,1,0,0:0:0:0:
404,129,246120,1,8,0:0:0:0:
75,279,246182,1,8,0:0:0:0:
476,326,246245,1,0,0:0:0:0:
234,349,246307,1,0,0:0:0:0:
323,301,246370,1,0,0:0:0:0:
340,284,246432,1,0,0:0:0:0:
75,176,246495,1,8,0:0:0:0:
151,276,246526,1,8,0:0:0:0:
172,343,246557,1,0,0:0:0:0:
396,262,246620,1,8,0:0:0:0:
179,23,246745,1,0,0:0:0:0:
396,260,246786,1,0,0:0:0:0:
80,206,246828,1,0,0:0:0:0:
303,327,246870,1,8,0:0:0:0:
73,107,247120,1,8,0:0:0:0:
148,209,247182,1,8,0:0:0:0:
365,97,247245,1,8,0:0:0:0:
94,365,247307,1,8,0:0:0:0:
222,335,247370,1,8,0:0:0:0:
51,120,247432,1,8,0:0:0:0:
317,314,247495,1,8,0:0:0:0:
88,95,247557,1,8,0:0:0:0:
217,52,247620,1,0,0:0:0:0:
365,231,247682,1,0,0:0:0:0:
459,316,247745,1,8,0:0:0:0:
329,53,247786,1,8,0:0:0:0:
144,353,247828,1,8,0:0:0:0:
76,261,247870,1,0,0:0:0:0:
222,230,247932,1,0,0:0:0:0:
218,242,247995,1,8,0:0:0:0:
329,88,248026,1,8,0:0:0:0:
468,106,248057,1,0,0:0:0:0:
101,216,248120,1,8,0:0:0:0:
446,309,248182,1,8,0:0:0:0:
48,121,248245,1,0,0:0:0:0:
143,208,248307,1,0,0:0:0:0:
365,104,248370,1,8,0:0:0:0:
72,144,248401,1,8,0:0:0:0:
88,362,248432,1,8,0:0:0:0:
487,173,248495,1,0,0:0:0:0:
305,130,248620,1,8,0:0:0:0:
380,102,248661,1,8,0:0:0:0:
110,362,248703,1,8,0:0:0:0:
135,45,248745,1,0,0:0:0:0:
137,275,248807,1,8,0:0:0:0:
224,218,248870,1,0,0:0:0:0:
316,310,248932,1,0,0:0:0:0:
381,208,248995,1,8,0:0:0:0:
121,355,249120,1,0,0:0:0:0:
316,114,249182,1,0,0:0:0:0:
234,351,249245,1,8,0:0:0:0:
481,112,249276,1,8,0:0:0:0:
232,342,249307,1,0,0:0:0:0:
471,110,249370,1,8,0:0:0:0:
230,67,249495,1,0,0:0:0:0:
239,365,249526,1,0,0:0:0:0:
474,202,249557,1,8,0:0:0:0:
377,220,249620,1,0,0:0:0:0:
419,302,249745,1,8,0:0:0:0:
475,323,249786,1,8,0:0:0:0:
55,370,249828,1,8,0:0:0:0:
166,13,249870,1,0,0:0:0:0:
145,136,249932,1,0,0:0:0:0:
344,100,249995,1,8,0:0:0:0:
213,335,250057,1,0,0:0:0:0:
487,109,250120,1,8,0:0:0:0:
155,276,250182,1,8,0:0:0:0:
382,243,250245,1,8,0:0:0:0:
74,184,250323,1,8,0:0:0:0:
422,104,250401,1,8,0:0:0:0:
66,366,250479,1,8,0:0:0:0:
71,216,250557,1,8,0:0:0:0:
183,139,250620,1,8,0:0:0:0:
362,251,250745,1,0,0:0:0:0:
111,359,250870,1,0,0:0:0:0:
223,250,250932,1,0,0:0:0:0:
178,22,250995,1,8,0:0:0:0:
418,104,251057,1,8,0:0:0:0:
112,212,251120,1,0,0:0:0:0:
77,290,251245,1,8,0:0:0:0:
479,327,251286,1,8,0:0:0:0:
224,158,251328,1,8,0:0:0:0:
169,349,251370,1,0,0:0:0:0:
129,355,251495,1,8,0:0:0:0:
66,357,251536,1,8,0:0:0:0:
181,23,251578,1,8,0:0:0:0:
300,133,251620,1,0,0:0:0:0:
329,295,251745,1,8,0:0:0:0:
506,105,251807,1,8,0:0:0:0:
204,267,251870,1,8,0:0:0:0:
231,336,251932,1,8,0:0:0:0:
284,158,251995,1,0,0:0:0:0:
69,354,252057,1,0,0:0:0:0:
85,95,252120,1,0,0:0:0:0:
205,263,252182,1,0,0:0:0:0:
239,360,252245,1,8,0:0:0:0:
311,320,252370,1,0,0:0:0:0:
498,128,252432,1,0,0:0:0:0:
338,279,252495,1,8,0:0:0:0:
76,103,252557,1,8,0:0:0:0:
76,212,252620,1,0,0:0:0:0:
137,47,252651,1,0,0:0:0:0:
222,193,252682,1,8,0:0:0:0:
326,92,252745,1,0,0:0:0:0:
141,278,252807,1,0,0:0:0:0:
211,139,252870,1,8,0:0:0:0:
107,210,252932,1,0,0:0:0:0:
37,127,252995,1,8,0:0:0:0:
115,140,253120,1,0,0:0:0:0:
74,173,253182,1,0,0:0:0:0:
325,72,253245,1,8,0:0:0:0:
50,114,253276,1,8,0:0:0:0:
433,306,253370,1,8,0:0:0:0:
95,216,253401,1,8,0:0:0:0:
96,284,253495,1,8,0:0:0:0:
121,209,253526,1,8,0:0:0:0:
323,92,253620,1,0,0:0:0:0:
226,56,253745,1,8,0:0:0:0:
223,332,253786,1,8,0:0:0:0:
143,142,253828,1,8,0:0:0:0:
328,53,253870,1,0,0:0:0:0:
176,345,253932,1,0,0:0:0:0:
154,24,253995,1,8,0:0:0:0:
77,256,254057,1,0,0:0:0:0:
180,140,254120,1,8,0:0:0:0:
334,288,254245,1,0,0:0:0:0:
53,370,254307,1,0,0:0:0:0:
195,209,254370,1,8,0:0:0:0:
169,209,254401,1,8,0:0:0:0:
312,118,254495,1,0,0:0:0:0:
73,286,254557,1,0,0:0:0:0:
201,337,254620,1,8,0:0:0:0:
346,275,254682,1,8,0:0:0:0:
331,57,254745,1,0,0:0:0:0:
77,213,254786,1,0,0:0:0:0:
395,261,254828,1,0,0:0:0:0:
96,136,254870,1,0,0:0:0:0:
170,273,254995,1,8,0:0:0:0:
115,136,255026,1,8,0:0:0:0:
163,275,255120,1,8,0:0:0:0:
298,327,255245,1,0,0:0:0:0:
292,336,255370,1,0,0:0:0:0:
182,340,255495,1,8,0:0:0:0:
310,122,255536,1,0,0:0:0:0:
75,195,255578,1,0,0:0:0:0:
73,324,255620,1,8,0:0:0:0:
96,135,255745,1,0,0:0:0:0:
431,303,255786,1,0,0:0:0:0:
326,74,255828,1,0,0:0:0:0:
490,175,255870,1,8,0:0:0:0:
94,212,255932,1,0,0:0:0:0:
189,204,255995,1,8,0:0:0:0:
221,246,256026,1,8,0:0:0:0:
332,288,256057,1,0,0:0:0:0:
351,100,256120,1,8,0:0:0:0:
452,310,256182,1,8,0:0:0:0:
73,229,256245,1,0,0:0:0:0:
221,171,256370,1,8,0:0:0:0:
219,259,256411,1,8,0:0:0:0:
412,288,256453,1,8,0:0:0:0:
205,42,256495,1,0,0:0:0:0:
407,143,256557,1,0,0:0:0:0:
86,366,256620,1,0,0:0:0:0:
94,88,256661,1,8,0:0:0:0:
329,43,256703,1,8,0:0:0:0:
80,97,256745,1,0,0:0:0:0:
161,141,256807,1,0,0:0:0:0:
497,133,256870,1,8,0:0:0:0:
65,349,256932,1,0,0:0:0:0:
291,146,256995,1,8,0:0:0:0:
145,36,257120,1,8,0:0:0:0:
414,287,257182,1,8,0:0:0:0:
324,108,257245,1,0,0:0:0:0:
171,92,257276,1,0,0:0:0:0:
302,129,257307,1,0,0:0:0:0:
328,296,257370,1,8,0:0:0:0:
128,139,257495,1,8,0:0:0:0:
496,133,257526,1,8,0:0:0:0:
205,142,257557,1,0,0:0:0:0:
318,111,257620,1,8,0:0:0:0:
222,228,257745,1,0,0:0:0:0:
210,50,257786,1,0,0:0:0:0:
100,79,257828,1,0,0:0:0:0:
327,51,257870,1,8,0:0:0:0:
393,183,257932,1,8,0:0:0:0:
216,141,257995,1,0,0:0:0:0:
464,317,258057,1,0,0:0:0:0:
162,133,258120,1,8,0:0:0:0:
364,238,258182,1,8,0:0:0:0:
236,357,258245,1,8,0:0:0:0:
503,115,258323,1,8,0:0:0:0:
76,217,258401,1,8,0:0:0:0:
149,27,258479,1,8,0:0:0:0:
376,210,258557,1,8,0:0:0:0:
158,23,258620,1,8,0:0:0:0:
482,192,258745,1,0,0:0:0:0:
139,135,258786,1,0,0:0:0:0:
72,122,258828,1,0,0:0:0:0:
96,285,258870,1,8,0:0:0:0:
405,105,258932,1,0,0:0:0:0:
476,106,258995,1,8,0:0:0:0:
400,107,259057,1,8,0:0:0:0:
145,37,259120,1,0,0:0:0:0:
371,103,259245,1,8,0:0:0:0:
223,162,259307,1,8,0:0:0:0:
86,99,259370,1,0,0:0:0:0:
246,83,259432,1,0,0:0:0:0:
75,175,259495,1,8,0:0:0:0:
165,348,259526,1,8,0:0:0:0:
491,170,259557,1,0,0:0:0:0:
70,133,259620,1,8,0:0:0:0:
203,141,259745,1,0,0:0:0:0:
73,173,259807,1,8,0:0:0:0:
481,190,259870,1,0,0:0:0:0:
115,214,259932,1,0,0:0:0:0:
285,155,259995,1,8,0:0:0:0:
403,141,260057,1,8,0:0:0:0:
403,151,260120,1,0,0:0:0:0:
91,212,260182,1,8,0:0:0:0:
50,372,260245,1,0,0:0:0:0:
77,190,260307,1,8,0:0:0:0:
313,117,260370,1,8,0:0:0:0:
67,110,260432,1,8,0:0:0:0:
453,313,260495,1,0,0:0:0:0:
204,204,260557,1,8,0:0:0:0:
333,291,260620,1,0,0:0:0:0:
392,262,260682,1,0,0:0:0:0:
205,271,260745,1,8,0:0:0:0:
144,210,260807,1,0,0:0:0:0:
331,297,260870,1,0,0:0:0:0:
89,97,260932,1,8,0:0:0:0:
496,133,260995,1,0,0:0:0:0:
308,130,261057,1,8,0:0:0:0:
328,75,261120,1,8,0:0:0:0:
486,110,261182,1,0,0:0:0:0:
73,182,261245,1,0,0:0:0:0:
72,290,261307,1,8,0:0:0:0:
452,111,261370,1,8,0:0:0:0:
201,41,261432,1,0,0:0:0:0:
149,273,261495,1,8,0:0:0:0:
233,350,261557,1,0,0:0:0:0:
234,69,261620,1,0,0:0:0:0:
74,268,261682,1,0,0:0:0:0:
222,224,261745,1,12,0:0:0:0:
350,267,261870,1,0,0:0:0:0:
404,153,261932,1,0,0:0:0:0:
162,138,261995,1,8,0:0:0:0:
413,105,262057,1,0,0:0:0:0:
167,103,262120,1,8,0:0:0:0:
358,244,262182,1,0,0:0:0:0:
153,350,262245,1,8,0:0:0:0:
95,91,262286,1,8,0:0:0:0:
327,63,262328,1,8,0:0:0:0:
210,202,262370,1,0,0:0:0:0:
69,370,262432,1,0,0:0:0:0:
209,266,262495,1,8,0:0:0:0:
220,208,262557,1,0,0:0:0:0:
223,243,262620,1,8,0:0:0:0:
71,126,262745,1,0,0:0:0:0:
398,173,262786,1,0,0:0:0:0:
447,105,262828,1,0,0:0:0:0:
52,369,262870,1,0,0:0:0:0:
200,37,263120,1,8,0:0:0:0:
447,309,263182,1,8,0:0:0:0:
164,208,263245,1,8,0:0:0:0:
327,62,263307,1,8,0:0:0:0:
374,217,263370,1,8,0:0:0:0:
296,329,263432,1,8,0:0:0:0:
409,118,263495,1,0,0:0:0:0:
327,63,263557,1,8,0:0:0:0:
74,152,263620,1,0,0:0:0:0:
162,139,263682,1,8,0:0:0:0:
372,222,263745,1,0,0:0:0:0:
117,70,263870,1,0,0:0:0:0:
364,238,263932,1,0,0:0:0:0:
404,268,263995,1,8,0:0:0:0:
325,79,264026,1,8,0:0:0:0:
133,211,264057,1,0,0:0:0:0:
221,229,264120,1,8,0:0:0:0:
75,103,264182,1,0,0:0:0:0:
205,142,264245,1,8,0:0:0:0:
486,110,264286,1,8,0:0:0:0:
467,109,264370,1,0,0:0:0:0:
417,104,264411,1,0,0:0:0:0:
158,23,264495,1,8,0:0:0:0:
164,276,264557,1,0,0:0:0:0:
71,110,264620,1,8,0:0:0:0:
424,301,264682,1,8,0:0:0:0:
69,362,264745,1,0,0:0:0:0:
62,366,264807,1,0,0:0:0:0:
370,224,264870,1,8,0:0:0:0:
394,260,264932,1,0,0:0:0:0:
194,271,264995,1,8,0:0:0:0:
70,140,265120,1,0,0:0:0:0:
226,58,265182,1,0,0:0:0:0:
225,182,265245,1,8,0:0:0:0:
78,291,265276,1,0,0:0:0:0:
119,69,265307,1,0,0:0:0:0:
115,140,265370,1,8,0:0:0:0:
167,111,265495,1,8,0:0:0:0:
71,278,265526,1,8,0:0:0:0:
325,57,265557,1,0,0:0:0:0:
463,317,265620,1,8,0:0:0:0:
172,92,265745,1,8,0:0:0:0:
70,144,265786,1,8,0:0:0:0:
71,116,265828,1,8,0:0:0:0:
433,309,265870,1,0,0:0:0:0:
120,58,265932,1,0,0:0:0:0:
489,172,265995,1,8,0:0:0:0:
472,207,266057,1,0,0:0:0:0:
200,207,266120,1,8,0:0:0:0:
148,210,266182,1,8,0:0:0:0:
209,266,266245,1,8,0:0:0:0:
389,195,266323,1,8,0:0:0:0:
406,281,266401,1,8,0:0:0:0:
224,193,266479,1,8,0:0:0:0:
99,361,266557,1,8,0:0:0:0:
404,275,266620,1,8,0:0:0:0:
225,253,266745,1,0,0:0:0:0:
184,140,266870,1,8,0:0:0:0:
385,245,266932,1,8,0:0:0:0:
485,113,266995,1,0,0:0:0:0:
500,116,267057,1,8,0:0:0:0:
163,113,267120,1,0,0:0:0:0:
68,357,267245,1,8,0:0:0:0:
322,307,267286,1,8,0:0:0:0:
403,144,267328,1,8,0:0:0:0:
236,351,267370,1,0,0:0:0:0:
349,270,267495,1,8,0:0:0:0:
373,217,267536,1,8,0:0:0:0:
477,193,267578,1,8,0:0:0:0:
206,206,267620,1,0,0:0:0:0:
78,99,267745,1,8,0:0:0:0:
467,318,267807,1,8,0:0:0:0:
226,333,267870,1,8,0:0:0:0:
221,233,267932,1,8,0:0:0:0:
154,28,267995,1,0,0:0:0:0:
102,215,268057,1,0,0:0:0:0:
357,253,268120,1,0,0:0:0:0:
229,343,268182,1,0,0:0:0:0:
475,195,268245,1,8,0:0:0:0:
222,180,268286,1,8,0:0:0:0:
187,205,268328,1,8,0:0:0:0:
404,145,268370,1,0,0:0:0:0:
413,104,268432,1,0,0:0:0:0:
76,159,268495,1,8,0:0:0:0:
193,39,268557,1,8,0:0:0:0:
166,345,268620,1,0,0:0:0:0:
45,120,268651,1,8,0:0:0:0:
213,45,268682,1,8,0:0:0:0:
73,365,268745,1,0,0:0:0:0:
331,57,268807,1,0,0:0:0:0:
207,45,268870,1,0,0:0:0:0:
490,149,268995,1,8,0:0:0:0:
138,41,269120,1,0,0:0:0:0:
72,300,269182,1,0,0:0:0:0:
132,137,269245,1,8,0:0:0:0:
73,271,269276,1,8,0:0:0:0:
146,208,269307,1,0,0:0:0:0:
196,204,269370,1,8,0:0:0:0:
166,96,269495,1,0,0:0:0:0:
216,338,269526,1,0,0:0:0:0:
166,271,269557,1,0,0:0:0:0:
118,63,269620,1,8,0:0:0:0:
219,213,269745,1,8,0:0:0:0:
140,139,269786,1,8,0:0:0:0:
296,139,269828,1,8,0:0:0:0:
411,291,269870,1,0,0:0:0:0:
221,211,269932,1,8,0:0:0:0:
106,285,269995,1,0,0:0:0:0:
206,49,270057,1,8,0:0:0:0:
329,43,270120,1,0,0:0:0:0:
452,314,270245,1,8,0:0:0:0:
326,58,270370,1,0,0:0:0:0:
166,117,270432,1,8,0:0:0:0:
223,191,270495,1,0,0:0:0:0:
122,63,270557,1,0,0:0:0:0:
186,347,270620,1,8,0:0:0:0:
354,258,270745,1,8,0:0:0:0:
359,250,270786,1,8,0:0:0:0:
99,361,270828,1,0,0:0:0:0:
129,56,270870,1,0,0:0:0:0:
227,58,270995,1,8,0:0:0:0:
240,363,271026,1,8,0:0:0:0:
474,195,271120,1,8,0:0:0:0:
132,282,271245,1,0,0:0:0:0:
122,284,271370,1,8,0:0:0:0:
281,159,271495,1,0,0:0:0:0:
367,102,271557,1,0,0:0:0:0:
497,141,271620,1,8,0:0:0:0:
152,31,271745,1,0,0:0:0:0:
73,171,271786,1,0,0:0:0:0:
236,354,271828,1,0,0:0:0:0:
408,107,271870,1,8,0:0:0:0:
80,285,271932,1,0,0:0:0:0:
389,190,271995,1,8,0:0:0:0:
30,374,272057,1,0,0:0:0:0:
100,211,272120,1,8,0:0:0:0:
106,284,272182,1,8,0:0:0:0:
190,33,272245,1,0,0:0:0:0:
407,117,272370,1,8,0:0:0:0:
33,371,272411,1,8,0:0:0:0:
448,313,272453,1,8,0:0:0:0:
75,282,272495,1,0,0:0:0:0:
358,253,272557,1,0,0:0:0:0:
227,60,272620,1,8,0:0:0:0:
423,305,272651,1,8,0:0:0:0:
293,141,272682,1,0,0:0:0:0:
421,108,272745,1,8,0:0:0:0:
165,19,272870,1,0,0:0:0:0:
72,352,272932,1,0,0:0:0:0:
477,195,272995,1,8,0:0:0:0:
51,122,273120,1,8,0:0:0:0:
321,307,273182,1,0,0:0:0:0:
80,206,273245,1,8,0:0:0:0:
201,37,273276,1,8,0:0:0:0:
74,172,273370,1,8,0:0:0:0:
166,118,273401,1,8,0:0:0:0:
96,137,273495,1,0,0:0:0:0:
112,138,273526,1,0,0:0:0:0:
122,140,273620,1,0,0:0:0:0:
83,137,273651,1,0,0:0:0:0:
166,100,273745,1,8,0:0:0:0:
334,291,273786,1,8,0:0:0:0:
220,252,273828,1,8,0:0:0:0:
73,137,273870,1,0,0:0:0:0:
385,197,273932,1,0,0:0:0:0:
191,271,273995,1,8,0:0:0:0:
169,210,274057,1,0,0:0:0:0:
161,348,274120,1,8,0:0:0:0:
199,268,274182,1,8,0:0:0:0:
131,51,274245,1,8,0:0:0:0:
222,180,274323,1,8,0:0:0:0:
26,136,274401,1,8,0:0:0:0:
403,133,274479,1,8,0:0:0:0:
482,183,274557,1,8,0:0:0:0:
135,356,274620,1,8,0:0:0:0:
502,117,274745,1,0,0:0:0:0:
71,167,274786,1,0,0:0:0:0:
347,275,274828,1,0,0:0:0:0:
148,33,274870,1,8,0:0:0:0:
165,128,274932,1,0,0:0:0:0:
378,105,274995,1,8,0:0:0:0:
182,206,275057,1,0,0:0:0:0:
74,178,275120,1,8,0:0:0:0:
295,140,275182,1,8,0:0:0:0:
306,319,275245,1,0,0:0:0:0:
451,109,275286,1,0,0:0:0:0:
469,104,275328,1,8,0:0:0:0:
177,23,275411,1,8,0:0:0:0:
30,134,275495,1,0,0:0:0:0:
282,162,275536,1,0,0:0:0:0:
217,139,275578,1,0,0:0:0:0:
37,375,275661,1,0,0:0:0:0:
164,131,275745,1,8,0:0:0:0:
216,266,278266,1,8,0:0:0:0:
449,314,280353,1,0,0:0:0:0:
384,201,281961,5,8,0:0:0:0:
93,215,282543,1,0,0:0:0:0:
447,107,283126,1,8,0:0:0:0:
143,276,283708,1,8,0:0:0:0:
207,262,284291,1,0,0:0:0:0:
223,248,284873,1,8,0:0:0:0:
131,211,285456,1,0,0:0:0:0:
149,141,285747,1,0,0:0:0:0:
322,112,286038,1,8,0:0:0:0:
350,274,286329,1,0,0:0:0:0:
73,317,286378,1,8,0:0:0:0:
389,195,286621,1,8,0:0:0:0:
437,309,287203,1,0,0:0:0:0:
221,227,287753,1,8,0:0:0:0:
393,182,288303,1,0,0:0:0:0:
67,367,288597,1,8,0:0:0:0:
330,29,288891,1,0,0:0:0:0:
52,118,289446,1,8,0:0:0:0:
112,281,290002,1,8,0:0:0:0:
192,34,290602,1,8,0:0:0:0:
168,139,291202,1,0,0:0:0:0:
326,82,291732,1,0,0:0:0:0:
487,330,291979,1,8,0:0:0:0:
209,267,292292,1,8,0:0:0:0:
71,104,292586,1,0,0:0:0:0:
71,244,292880,1,8,0:0:0:0:
501,115,293474,1,0,0:0:0:0:
359,98,294068,1,8,0:0:0:0:
169,347,294641,1,8,0:0:0:0:
229,61,294950,1,8,0:0:0:0:
231,342,295259,1,0,0:0:0:0:
181,24,295890,1,0,0:0:0:0:
327,36,296522,1,8,0:0:0:0:
456,107,297174,1,0,0:0:0:0:
200,139,297905,1,8,0:0:0:0:
180,343,298655,1,8,0:0:0:0:
321,79,299405,1,0,0:0:0:0:
