osu file format v14

[General]
AudioFilename: audio.mp3
AudioLeadIn: 0
PreviewTime: 103933
Countdown: 0
SampleSet: Soft
StackLeniency: 0.3
Mode: 0
LetterboxInBreaks: 0
WidescreenStoryboard: 0

[Editor]
Bookmarks: 150,20906,41663,52041,62420,83177,103933,114312,124690,135068,140258,145447,176582,186960,207717,218095,228474,238852,249231,259609,269987,280366,290744,301122,311501,328366
DistanceSpacing: 3
BeatDivisor: 4
GridSize: 16
TimelineZoom: 1.540003

[Metadata]
Title:Snow Crystal 185
TitleUnicode:Snow Crystal 185
Artist:Babalos
ArtistUnicode:Babalos
Creator:K4L1
Version:OLD Crystalphoria
Source:
Tags:Kalindraz Heatwave Maemi no Yume psytrance psychedelic trance hi-tech Lindsey Stirling Crystallize Eletronic English Instrumental
BeatmapID:2026708
BeatmapSetID:825267

[Difficulty]
HPDrainRate:5.5
CircleSize:4
OverallDifficulty:9
ApproachRate:9.7
SliderMultiplier:1.4
SliderTickRate:1

[Events]
//Background and Video events
0,0,"violin.jpg",0,0
//Break Periods
//Storyboard Layer 0 (Background)
//Storyboard Layer 1 (Fail)
//Storyboard Layer 2 (Pass)
//Storyboard Layer 3 (Foreground)
//Storyboard Layer 4 (Overlay)
//Storyboard Sound Samples

[TimingPoints]
150,324.324324324324,4,2,2,5,1,0
10528,-133.333333333333,4,2,2,10,0,0
13041,-133.333333333333,4,2,2,5,0,0
13122,-133.333333333333,4,2,3,10,0,0
15636,-133.333333333333,4,2,2,5,0,0
15717,-133.333333333333,4,2,4,10,0,0
18231,-133.333333333333,4,2,2,5,0,0
18312,-133.333333333333,4,2,5,10,0,0
20825,-133.333333333333,4,2,2,5,0,0
20906,-133.333333333333,4,1,2,20,0,0
41663,-100,4,2,2,5,0,0
42636,-76.9230769230769,4,2,2,5,0,0
42960,-166.666666666667,4,2,2,5,0,0
45474,-166.666666666667,4,2,2,5,0,0
45555,-142.857142857143,4,2,2,5,0,0
45798,-142.857142857143,4,2,2,5,0,0
45879,-117.647058823529,4,2,2,5,0,0
46122,-117.647058823529,4,2,2,5,0,0
46204,-100,4,2,2,5,0,0
46447,-100,4,2,2,5,0,0
46528,-86.9565217391304,4,2,2,5,0,0
46771,-86.9565217391304,4,2,2,5,0,0
46852,-142.857142857143,4,2,2,5,0,0
48312,-142.857142857143,4,2,2,5,0,0
48433,-86.9565217391304,4,2,2,5,0,0
48798,-76.9230769230769,4,2,2,5,0,0
49041,-76.9230769230769,4,2,2,5,0,0
49122,-86.9565217391304,4,2,2,5,0,0
49366,-86.9565217391304,4,2,2,5,0,0
49447,-142.857142857143,4,2,2,5,0,0
50258,-142.857142857143,4,2,2,5,0,0
50420,-86.9565217391304,4,2,2,5,0,0
50663,-86.9565217391304,4,2,2,5,0,0
50744,-86.9565217391304,4,2,2,5,0,0
50987,-86.9565217391304,4,2,2,5,0,0
51068,-86.9565217391304,4,2,2,5,0,0
51312,-86.9565217391304,4,2,2,5,0,0
51393,-86.9565217391304,4,2,2,5,0,0
51636,-86.9565217391304,4,2,2,5,0,0
51717,-86.9565217391304,4,2,2,5,0,0
51960,-86.9565217391304,4,2,2,5,0,0
52041,-100,4,2,2,10,0,0
53339,-86.9565217391304,4,2,2,15,0,0
54636,-76.9230769230769,4,2,2,20,0,0
55933,-68.9655172413793,4,2,2,25,0,0
57231,-62.5,4,2,2,30,0,0
58528,-57.1428571428571,4,2,2,35,0,0
59825,-52.6315789473684,4,2,2,40,0,0
61122,-66.6666666666667,4,2,2,50,0,0
62420,-100,4,2,2,70,0,0
62501,-100,4,2,2,45,0,0
62582,-100,4,2,2,70,0,0
62825,-100,4,2,2,45,0,0
62906,-100,4,2,2,70,0,0
63149,-100,4,2,2,45,0,0
63231,-100,4,2,2,70,0,0
63474,-100,4,2,2,45,0,0
63555,-100,4,2,2,70,0,0
63798,-100,4,2,2,45,0,0
63879,-100,4,2,2,70,0,0
64122,-100,4,2,2,45,0,0
64204,-100,4,2,2,70,0,0
64447,-100,4,2,2,45,0,0
64528,-100,4,2,2,70,0,0
64771,-100,4,2,2,45,0,0
64852,-100,4,2,2,70,0,0
65014,-100,4,2,3,70,0,0
65095,-100,4,2,3,45,0,0
65177,-100,4,2,3,70,0,0
65420,-100,4,2,3,45,0,0
65501,-100,4,2,3,70,0,0
65744,-100,4,2,3,45,0,0
65825,-100,4,2,3,70,0,0
66068,-100,4,2,3,45,0,0
66149,-100,4,2,3,70,0,0
66393,-100,4,2,3,45,0,0
66474,-100,4,2,3,70,0,0
66717,-100,4,2,3,45,0,0
66798,-100,4,2,3,70,0,0
67041,-100,4,2,3,45,0,0
67122,-100,4,2,3,70,0,0
67366,-100,4,2,3,45,0,0
67447,-100,4,2,3,70,0,0
67609,-100,4,2,4,70,0,0
67690,-100,4,2,4,45,0,0
67771,-100,4,2,4,70,0,0
68014,-100,4,2,4,45,0,0
68095,-100,4,2,4,70,0,0
68339,-100,4,2,4,45,0,0
68420,-100,4,2,4,70,0,0
68663,-100,4,2,4,45,0,0
68744,-100,4,2,4,70,0,0
68987,-100,4,2,4,45,0,0
69068,-100,4,2,4,70,0,0
69312,-100,4,2,4,45,0,0
69393,-100,4,2,4,70,0,0
69636,-100,4,2,4,45,0,0
69717,-100,4,2,4,70,0,0
69960,-100,4,2,4,45,0,0
70041,-100,4,2,4,70,0,0
70204,-100,4,2,5,70,0,0
70285,-100,4,2,5,45,0,0
70366,-100,4,2,5,70,0,0
70609,-100,4,2,5,45,0,0
70690,-100,4,2,5,70,0,0
70933,-100,4,2,5,45,0,0
71014,-100,4,2,5,70,0,0
71258,-100,4,2,5,45,0,0
71339,-100,4,2,5,70,0,0
71582,-100,4,2,5,45,0,0
71663,-100,4,2,5,70,0,0
71906,-100,4,2,5,45,0,0
71987,-100,4,2,5,70,0,0
72231,-100,4,2,5,45,0,0
72312,-100,4,2,5,70,0,0
72555,-100,4,2,5,45,0,0
72636,-100,4,2,5,70,0,0
72798,-80,4,2,2,70,0,0
72879,-80,4,2,2,45,0,0
72960,-80,4,2,2,70,0,0
73204,-80,4,2,2,45,0,0
73285,-80,4,2,2,70,0,0
73528,-80,4,2,2,45,0,0
73609,-80,4,2,2,70,0,0
73852,-80,4,2,2,45,0,0
73933,-80,4,2,2,70,0,0
74177,-80,4,2,2,45,0,0
74258,-80,4,2,2,70,0,0
74501,-80,4,2,2,45,0,0
74582,-80,4,2,2,70,0,0
74825,-80,4,2,2,45,0,0
74906,-80,4,2,2,70,0,0
75149,-80,4,2,2,45,0,0
75231,-80,4,2,2,70,0,0
75393,-80,4,2,3,70,0,0
75474,-80,4,2,3,45,0,0
75555,-80,4,2,3,70,0,0
75798,-80,4,2,3,45,0,0
75879,-80,4,2,3,70,0,0
76122,-80,4,2,3,45,0,0
76204,-80,4,2,3,70,0,0
76447,-80,4,2,3,45,0,0
76528,-80,4,2,3,70,0,0
76771,-80,4,2,3,45,0,0
76852,-80,4,2,3,70,0,0
77095,-80,4,2,3,45,0,0
77177,-80,4,2,3,70,0,0
77420,-80,4,2,3,45,0,0
77501,-80,4,2,3,70,0,0
77744,-80,4,2,3,45,0,0
77825,-80,4,2,3,70,0,0
77987,-80,4,2,4,70,0,0
78068,-80,4,2,4,45,0,0
78149,-80,4,2,4,70,0,0
78393,-80,4,2,4,45,0,0
78474,-80,4,2,4,70,0,0
78717,-80,4,2,4,45,0,0
78798,-80,4,2,4,70,0,0
79041,-80,4,2,4,45,0,0
79122,-80,4,2,4,70,0,0
79366,-80,4,2,4,45,0,0
79447,-80,4,2,4,70,0,0
79690,-80,4,2,4,45,0,0
79771,-80,4,2,4,70,0,0
80014,-80,4,2,4,45,0,0
80095,-80,4,2,4,70,0,0
80339,-80,4,2,4,45,0,0
80420,-80,4,2,4,70,0,0
80582,-80,4,2,5,70,0,0
80663,-80,4,2,5,45,0,0
80744,-80,4,2,5,70,0,0
80987,-80,4,2,5,45,0,0
81068,-80,4,2,5,70,0,0
81312,-80,4,2,5,45,0,0
81393,-80,4,2,5,70,0,0
81636,-80,4,2,5,45,0,0
81717,-80,4,2,5,70,0,0
81960,-80,4,2,5,45,0,0
82041,-80,4,2,5,70,0,0
82285,-80,4,2,5,45,0,0
82366,-80,4,2,5,70,0,0
82609,-80,4,2,5,45,0,0
82690,-80,4,2,5,70,0,0
82933,-80,4,2,5,45,0,0
83014,-80,4,2,5,70,0,0
83177,-80,4,2,2,70,0,0
83258,-80,4,2,2,45,0,0
83339,-80,4,2,2,70,0,0
83582,-80,4,2,2,45,0,0
83663,-80,4,2,2,70,0,0
83866,-80,4,2,2,70,0,0
83906,-80,4,2,2,45,0,0
83987,-80,4,2,2,70,0,0
84028,-80,4,2,2,70,0,0
84149,-80,4,2,2,70,0,0
84231,-80,4,2,2,45,0,0
84312,-80,4,2,2,70,0,0
84555,-80,4,2,2,45,0,0
84636,-80,4,2,2,70,0,0
84879,-80,4,2,2,45,0,0
84960,-80,4,2,2,70,0,0
85204,-80,4,2,2,45,0,0
85285,-80,4,2,2,70,0,0
85528,-80,4,2,2,45,0,0
85609,-80,4,2,2,70,0,0
85771,-80,4,2,3,70,0,0
85852,-80,4,2,3,45,0,0
85933,-80,4,2,3,70,0,0
86177,-80,4,2,3,45,0,0
86258,-80,4,2,3,70,0,0
86501,-80,4,2,3,45,0,0
86582,-80,4,2,3,70,0,0
86825,-80,4,2,3,45,0,0
86906,-80,4,2,3,70,0,0
87149,-80,4,2,3,45,0,0
87231,-80,4,2,3,70,0,0
87474,-80,4,2,3,45,0,0
87555,-80,4,2,3,70,0,0
87798,-80,4,2,3,45,0,0
87879,-80,4,2,3,70,0,0
88122,-80,4,2,3,45,0,0
88204,-80,4,2,3,70,0,0
88366,-80,4,2,4,70,0,0
88447,-80,4,2,4,45,0,0
88528,-80,4,2,4,70,0,0
88771,-80,4,2,4,45,0,0
88852,-80,4,2,4,70,0,0
89095,-80,4,2,4,45,0,0
89177,-80,4,2,4,70,0,0
89420,-80,4,2,4,45,0,0
89501,-80,4,2,4,70,0,0
89744,-80,4,2,4,45,0,0
89825,-80,4,2,4,70,0,0
90068,-80,4,2,4,45,0,0
90149,-80,4,2,4,70,0,0
90393,-80,4,2,4,45,0,0
90474,-80,4,2,4,70,0,0
90717,-80,4,2,4,45,0,0
90798,-80,4,2,4,70,0,0
90960,-80,4,2,5,70,0,0
91041,-80,4,2,5,45,0,0
91122,-80,4,2,5,70,0,0
91366,-80,4,2,5,45,0,0
91447,-80,4,2,5,70,0,0
91690,-80,4,2,5,45,0,0
91771,-80,4,2,5,70,0,0
92014,-80,4,2,5,45,0,0
92095,-80,4,2,5,70,0,0
92339,-80,4,2,5,45,0,0
92420,-80,4,2,5,70,0,0
92663,-80,4,2,5,45,0,0
92744,-80,4,2,5,70,0,0
92987,-80,4,2,5,45,0,0
93068,-80,4,2,5,70,0,0
93312,-80,4,2,5,45,0,0
93393,-80,4,2,5,70,0,0
93555,-80,4,2,2,70,0,0
93636,-80,4,2,2,45,0,0
93717,-80,4,2,2,70,0,0
93960,-80,4,2,2,45,0,0
94041,-80,4,2,2,70,0,0
94244,-80,4,2,2,70,0,0
94285,-80,4,2,2,45,0,0
94366,-80,4,2,2,70,0,0
94406,-80,4,2,2,70,0,0
94528,-80,4,2,2,70,0,0
94609,-80,4,2,2,45,0,0
94690,-80,4,2,2,70,0,0
94933,-80,4,2,2,45,0,0
95014,-80,4,2,2,70,0,0
95258,-80,4,2,2,45,0,0
95339,-80,4,2,2,70,0,0
95582,-80,4,2,2,45,0,0
95663,-80,4,2,2,70,0,0
95906,-80,4,2,2,45,0,0
95987,-80,4,2,2,70,0,0
96149,-80,4,2,3,70,0,0
96231,-80,4,2,3,45,0,0
96312,-80,4,2,3,70,0,0
96555,-80,4,2,3,45,0,0
96636,-80,4,2,3,70,0,0
96879,-80,4,2,3,45,0,0
96960,-80,4,2,3,70,0,0
97204,-80,4,2,3,45,0,0
97285,-80,4,2,3,70,0,0
97528,-80,4,2,3,45,0,0
97609,-80,4,2,3,70,0,0
97852,-80,4,2,3,45,0,0
97933,-80,4,2,3,70,0,0
98177,-80,4,2,3,45,0,0
98258,-80,4,2,3,70,0,0
98501,-80,4,2,3,45,0,0
98582,-80,4,2,3,70,0,0
98744,-71.4285714285714,4,2,4,70,0,0
98825,-71.4285714285714,4,2,4,45,0,0
98906,-71.4285714285714,4,2,4,70,0,0
99149,-71.4285714285714,4,2,4,45,0,0
99231,-71.4285714285714,4,2,4,70,0,0
99393,-71.4285714285714,4,2,4,70,0,0
99474,-71.4285714285714,4,2,4,45,0,0
99555,-71.4285714285714,4,2,4,70,0,0
99798,-71.4285714285714,4,2,4,45,0,0
99879,-71.4285714285714,4,2,4,70,0,0
100041,-71.4285714285714,4,2,4,70,0,0
100122,-71.4285714285714,4,2,4,45,0,0
100204,-71.4285714285714,4,2,4,70,0,0
100447,-71.4285714285714,4,2,4,45,0,0
100528,-71.4285714285714,4,2,4,70,0,0
100690,-71.4285714285714,4,2,4,70,0,0
100771,-71.4285714285714,4,2,4,45,0,0
100852,-71.4285714285714,4,2,4,70,0,0
101095,-71.4285714285714,4,2,4,45,0,0
101177,-71.4285714285714,4,2,4,70,0,0
101339,-66.6666666666667,4,2,5,75,0,0
101987,-58.8235294117647,4,2,5,75,0,0
102636,-55.5555555555556,4,2,5,80,0,0
102960,-52.6315789473684,4,2,5,80,0,0
103122,-50,4,2,5,80,0,0
103285,-45.4545454545455,4,2,5,80,0,0
103447,-41.6666666666667,4,2,5,80,0,0
103933,-50,4,2,2,80,0,1
104582,-40,4,2,12,80,0,1
104906,-50,4,2,2,80,0,1
105879,-40,4,2,12,80,0,1
106204,-50,4,2,2,80,0,1
106528,-50,4,2,3,80,0,1
107177,-40,4,2,13,80,0,1
107501,-50,4,2,3,80,0,1
108474,-40,4,2,13,80,0,1
108798,-50,4,2,3,80,0,1
109122,-50,4,2,4,80,0,1
109771,-40,4,2,14,80,0,1
110095,-50,4,2,4,80,0,1
111068,-40,4,2,14,80,0,1
111393,-50,4,2,4,80,0,1
111717,-50,4,2,5,80,0,1
112366,-40,4,2,15,80,0,1
112690,-50,4,2,5,80,0,1
113663,-40,4,2,15,80,0,1
113987,-50,4,2,5,80,0,1
114312,-50,4,2,2,80,0,1
114960,-40,4,2,12,80,0,1
115285,-50,4,2,2,80,0,1
116258,-40,4,2,12,80,0,1
116582,-50,4,2,2,80,0,1
116906,-50,4,2,3,80,0,1
117555,-40,4,2,13,80,0,1
117879,-50,4,2,3,80,0,1
118852,-40,4,2,13,80,0,1
119177,-50,4,2,3,80,0,1
119501,-50,4,2,4,80,0,1
120149,-40,4,2,14,80,0,1
120474,-50,4,2,4,80,0,1
121447,-40,4,2,14,80,0,1
121771,-50,4,2,4,80,0,1
122095,-50,4,2,5,80,0,1
122744,-40,4,2,15,80,0,1
123068,-50,4,2,5,80,0,1
124041,-40,4,2,15,80,0,1
124366,-50,4,2,5,80,0,1
124690,-50,4,2,2,80,0,1
125339,-40,4,2,12,80,0,1
125663,-50,4,2,2,80,0,1
126636,-40,4,2,12,80,0,1
126960,-50,4,2,2,80,0,1
127285,-50,4,2,3,80,0,1
127933,-40,4,2,13,80,0,1
128258,-50,4,2,3,80,0,1
129231,-40,4,2,13,80,0,1
129555,-50,4,2,3,80,0,1
129879,-50,4,2,4,80,0,1
130528,-40,4,2,14,80,0,1
130852,-50,4,2,4,80,0,1
131825,-40,4,2,14,80,0,1
132149,-50,4,2,4,80,0,1
132474,-50,4,2,5,80,0,1
133122,-40,4,2,15,80,0,1
133447,-50,4,2,5,80,0,1
134420,-40,4,2,15,80,0,1
134744,-50,4,2,5,80,0,1
135068,-50,4,2,2,80,0,1
135717,-40,4,2,12,80,0,1
136041,-50,4,2,2,80,0,1
137014,-40,4,2,12,80,0,1
137339,-50,4,2,2,80,0,1
137663,-50,4,2,3,80,0,1
138312,-40,4,2,13,80,0,1
138636,-50,4,2,3,80,0,1
139609,-40,4,2,13,80,0,1
139933,-50,4,2,3,80,0,1
140258,-50,4,2,4,80,0,1
140906,-40,4,2,14,80,0,1
141231,-50,4,2,4,80,0,1
141555,-50,4,2,4,80,0,1
142204,-50,4,2,14,80,0,1
142528,-50,4,2,4,80,0,1
142852,-50,4,2,5,85,0,1
143501,-50,4,2,15,85,0,1
143825,-50,4,2,5,85,0,1
144149,-50,4,2,5,90,0,1
144798,-33.3333333333333,4,2,15,90,0,1
145122,-40,4,2,5,90,0,1
145447,-200,4,2,2,5,0,0
153231,-215.05376344086,4,2,2,5,0,0
176582,-200,4,2,2,5,0,0
207717,-100,4,2,2,20,0,0
208690,-76.9230769230769,4,2,2,20,0,0
209014,-166.666666666667,4,2,2,20,0,0
211528,-166.666666666667,4,2,2,20,0,0
211609,-142.857142857143,4,2,2,20,0,0
211852,-142.857142857143,4,2,2,20,0,0
211933,-117.647058823529,4,2,2,20,0,0
212177,-117.647058823529,4,2,2,20,0,0
212258,-100,4,2,2,20,0,0
212501,-100,4,2,2,20,0,0
212582,-86.9565217391304,4,2,2,20,0,0
212825,-86.9565217391304,4,2,2,20,0,0
212906,-142.857142857143,4,2,2,20,0,0
214366,-142.857142857143,4,2,2,20,0,0
214487,-86.9565217391304,4,2,2,20,0,0
214852,-76.9230769230769,4,2,2,20,0,0
215095,-76.9230769230769,4,2,2,20,0,0
215177,-86.9565217391304,4,2,2,20,0,0
215420,-86.9565217391304,4,2,2,20,0,0
215501,-142.857142857143,4,2,2,20,0,0
216312,-142.857142857143,4,2,2,20,0,0
216474,-86.9565217391304,4,2,2,20,0,0
216717,-86.9565217391304,4,2,2,20,0,0
216798,-86.9565217391304,4,2,2,20,0,0
217041,-86.9565217391304,4,2,2,20,0,0
217122,-86.9565217391304,4,2,2,20,0,0
217366,-86.9565217391304,4,2,2,20,0,0
217447,-86.9565217391304,4,2,2,20,0,0
217690,-86.9565217391304,4,2,2,20,0,0
217771,-86.9565217391304,4,2,2,20,0,0
218014,-86.9565217391304,4,2,2,20,0,0
218095,-100,4,2,2,10,0,0
219393,-86.9565217391304,4,2,2,10,0,0
220690,-76.9230769230769,4,2,3,20,0,0
221987,-68.9655172413793,4,2,3,20,0,0
223285,-62.5,4,2,4,30,0,0
224582,-57.1428571428571,4,2,4,30,0,0
225879,-52.6315789473684,4,2,5,40,0,0
227177,-33.3333333333333,4,2,2,40,0,0
228474,-40,4,2,2,60,0,0
231068,-40,4,2,3,60,0,0
233663,-40,4,2,4,60,0,0
236258,-40,4,2,5,60,0,0
238852,-28.5714285714286,4,2,2,60,0,0
239177,-40,4,2,2,60,0,0
239501,-33.3333333333333,4,2,2,60,0,0
239663,-40,4,2,2,60,0,0
240798,-33.3333333333333,4,2,2,60,0,0
240960,-40,4,2,2,60,0,0
241447,-40,4,2,3,60,0,0
242095,-33.3333333333333,4,2,3,60,0,0
242258,-40,4,2,3,60,0,0
243393,-33.3333333333333,4,2,3,60,0,0
243555,-40,4,2,3,60,0,0
244041,-40,4,2,4,60,0,0
244690,-33.3333333333333,4,2,4,60,0,0
244852,-40,4,2,4,60,0,0
245987,-33.3333333333333,4,2,4,60,0,0
246149,-40,4,2,4,60,0,0
246636,-40,4,2,5,60,0,0
247285,-33.3333333333333,4,2,5,60,0,0
247447,-40,4,2,5,60,0,0
248582,-33.3333333333333,4,2,5,60,0,0
248744,-40,4,2,5,60,0,0
249231,-36.3636363636364,4,2,2,60,0,0
251501,-57.1428571428571,4,2,2,60,0,0
251825,-36.3636363636364,4,2,3,60,0,0
253447,-57.1428571428571,4,2,3,60,0,0
253771,-36.3636363636364,4,2,3,60,0,0
254420,-36.3636363636364,4,2,4,60,0,0
256690,-57.1428571428571,4,2,4,60,0,0
257014,-36.3636363636364,4,2,5,60,0,0
258636,-57.1428571428571,4,2,5,60,0,0
258960,-36.3636363636364,4,2,5,60,0,0
259609,-40,4,2,2,60,0,0
260258,-33.3333333333333,4,2,2,60,0,0
260420,-40,4,2,2,60,0,0
261555,-33.3333333333333,4,2,2,60,0,0
261717,-40,4,2,2,60,0,0
262204,-40,4,2,3,60,0,0
264798,-40,4,2,4,60,0,0
266095,-40,4,2,4,60,0,0
266744,-40,4,2,4,60,0,0
267393,-40,4,2,5,60,0,0
268041,-40,4,2,5,60,0,0
268690,-40,4,2,5,60,0,0
269663,-40,4,2,5,60,0,0
269987,-50,4,2,2,80,0,1
270636,-40,4,2,12,80,0,1
270960,-50,4,2,2,80,0,1
271933,-40,4,2,12,80,0,1
272258,-50,4,2,2,80,0,1
272582,-50,4,2,3,80,0,1
273231,-40,4,2,13,80,0,1
273555,-50,4,2,3,80,0,1
274528,-40,4,2,13,80,0,1
274852,-50,4,2,3,80,0,1
275176,-50,4,2,4,80,0,1
275825,-40,4,2,14,80,0,1
276149,-50,4,2,4,80,0,1
277122,-40,4,2,14,80,0,1
277447,-50,4,2,4,80,0,1
277771,-50,4,2,5,80,0,1
278420,-40,4,2,15,80,0,1
278744,-50,4,2,5,80,0,1
279717,-40,4,2,15,80,0,1
280041,-50,4,2,5,80,0,1
280366,-50,4,2,2,80,0,1
281014,-40,4,2,12,80,0,1
281339,-50,4,2,2,80,0,1
282312,-40,4,2,12,80,0,1
282636,-50,4,2,2,80,0,1
282960,-50,4,2,3,80,0,1
283609,-40,4,2,13,80,0,1
283933,-50,4,2,3,80,0,1
284906,-40,4,2,13,80,0,1
285231,-50,4,2,3,80,0,1
285555,-50,4,2,4,80,0,1
286203,-40,4,2,14,80,0,1
286528,-50,4,2,4,80,0,1
287501,-40,4,2,14,80,0,1
287825,-50,4,2,4,80,0,1
288149,-50,4,2,5,80,0,1
288798,-40,4,2,15,80,0,1
289122,-50,4,2,5,80,0,1
290095,-40,4,2,15,80,0,1
290420,-50,4,2,5,80,0,1
290744,-50,4,2,2,80,0,1
291393,-40,4,2,12,80,0,1
291717,-50,4,2,2,80,0,1
292690,-40,4,2,12,80,0,1
293014,-50,4,2,2,80,0,1
293339,-50,4,2,3,80,0,1
293987,-40,4,2,13,80,0,1
294312,-50,4,2,3,80,0,1
295285,-40,4,2,13,80,0,1
295609,-50,4,2,3,80,0,1
295933,-50,4,2,4,80,0,1
296582,-40,4,2,14,80,0,1
296906,-50,4,2,4,80,0,1
297879,-40,4,2,14,80,0,1
298203,-50,4,2,4,80,0,1
298528,-50,4,2,5,80,0,1
299176,-40,4,2,15,80,0,1
299501,-50,4,2,5,80,0,1
300474,-40,4,2,15,80,0,1
300798,-50,4,2,5,80,0,1
301122,-33.3333333333333,4,2,2,80,0,1
301771,-33.3333333333333,4,2,12,80,0,1
302095,-33.3333333333333,4,2,2,80,0,1
303068,-33.3333333333333,4,2,12,80,0,1
303393,-33.3333333333333,4,2,2,80,0,1
303717,-33.3333333333333,4,2,3,80,0,1
304366,-33.3333333333333,4,2,13,80,0,1
304690,-33.3333333333333,4,2,3,80,0,1
305663,-33.3333333333333,4,2,13,80,0,1
305987,-33.3333333333333,4,2,3,80,0,1
306312,-33.3333333333333,4,2,4,80,0,1
306960,-33.3333333333333,4,2,14,80,0,1
307285,-33.3333333333333,4,2,4,80,0,1
307609,-33.3333333333333,4,2,4,80,0,1
308258,-33.3333333333333,4,2,14,80,0,1
308582,-33.3333333333333,4,2,4,80,0,1
308906,-33.3333333333333,4,2,5,85,0,1
309555,-33.3333333333333,4,2,15,85,0,1
309879,-33.3333333333333,4,2,5,85,0,1
310203,-33.3333333333333,4,2,5,90,0,1
310204,-33.3333333333333,4,2,5,90,0,1
310852,-33.3333333333333,4,2,15,90,0,1
311176,-33.3333333333333,4,2,5,90,0,1
311177,-40,4,2,5,90,0,1
311501,-50,4,2,2,60,0,0

[Colours]
Combo1 : 134,63,19
Combo2 : 217,39,237
Combo3 : 6,255,69
Combo4 : 33,222,222
Combo5 : 254,242,22

[HitObjects]
446,303,10528,6,0,B|362:369|254:278|298:180|298:180|347:83|492:151|423:300|302:261|302:261|233:249|163:290,1,735.000028038026,10|0,0:0|0:0,0:0:0:0:
11,130,13122,6,0,B|43:117|61:88|61:88|66:166|186:181|215:62|141:27|141:27|231:55|306:35|306:35|300:70|300:70|375:40|457:67|484:145,1,735.000028038026,10|0,0:0|0:0,0:0:0:0:
244,133,15717,6,0,B|219:194|155:236|66:209|66:209|73:272|35:324|35:324|145:290|213:314|213:314|250:288|250:288|338:333|415:274,1,735.000028038026,10|0,0:0|0:0,0:0:0:0:
256,192,18312,12,0,20582,0:0:0:0:
129,340,20906,6,0,L|23:323,1,105.000004005432,0|0,0:0|0:0,0:0:0:0:
203,354,21555,6,0,L|227:360,8,13.125000500679,0|0|0|0|0|0|0|0|0,0:0|0:0|0:0|0:0|0:0|0:0|0:0|0:0|0:0,0:0:0:0:
131,245,22041,1,0,0:0:0:0:
303,340,22204,2,0,L|409:323,1,105.000004005432,0|0,0:0|0:0,0:0:0:0:
438,281,22852,6,0,L|403:326,1,52.5000020027161,0|0,0:0|0:0,0:0:0:0:
332,232,23177,1,0,0:0:0:0:
293,220,23258,1,0,0:0:0:0:
255,232,23339,1,0,0:0:0:0:
216,220,23420,1,0,0:0:0:0:
179,232,23501,2,0,L|75:248,1,105.000004005432,0|0,0:0|0:0,0:0:0:0:
19,121,24149,5,0,0:0:0:0:
95,132,24311,1,0,0:0:0:0:
175,142,24473,1,0,0:0:0:0:
254,151,24636,1,0,0:0:0:0:
95,132,24798,1,0,0:0:0:0:
294,73,25122,5,0,0:0:0:0:
325,48,25204,1,0,0:0:0:0:
364,44,25285,1,0,0:0:0:0:
400,59,25366,1,0,0:0:0:0:
421,91,25447,2,0,L|435:150,1,52.5000020027161,0|0,0:0|0:0,0:0:0:0:
408,281,25771,1,0,0:0:0:0:
486,274,25933,1,0,0:0:0:0:
353,211,26095,2,0,P|321:256|323:306,1,105.000004005432,0|0,0:0|0:0,0:0:0:0:
438,208,26744,6,0,L|452:192,8,13.125000500679,0|0|0|0|0|0|0|0|0,0:0|0:0|0:0|0:0|0:0|0:0|0:0|0:0|0:0,0:0:0:0:
486,274,27231,1,0,0:0:0:0:
353,211,27393,2,0,P|316:174|307:123,1,105.000004005432,0|0,0:0|0:0,0:0:0:0:
459,82,28041,5,0,0:0:0:0:
398,133,28204,1,0,0:0:0:0:
383,55,28366,1,0,0:0:0:0:
347,37,28447,1,0,0:0:0:0:
307,32,28528,1,0,0:0:0:0:
267,35,28609,1,0,0:0:0:0:
231,51,28690,2,0,P|186:76|129:87,1,105.000004005432,0|0,0:0|0:0,0:0:0:0:
11,190,29339,5,0,0:0:0:0:
77,231,29501,1,0,0:0:0:0:
147,195,29663,1,0,0:0:0:0:
80,153,29825,1,0,0:0:0:0:
145,273,29987,1,0,0:0:0:0:
151,116,30312,5,0,0:0:0:0:
186,98,30393,1,0,0:0:0:0:
220,116,30474,1,0,0:0:0:0:
255,98,30555,1,0,0:0:0:0:
289,116,30636,2,0,L|320:175,1,52.5000020027161,0|0,0:0|0:0,0:0:0:0:
350,231,30960,1,0,0:0:0:0:
391,163,31122,1,0,0:0:0:0:
312,300,31285,2,0,L|208:316,1,105.000004005432,0|0,0:0|0:0,0:0:0:0:
71,239,31933,6,0,L|75:263,8,13.125000500679,0|0|0|0|0|0|0|0|0,0:0|0:0|0:0|0:0|0:0|0:0|0:0|0:0|0:0,0:0:0:0:
88,346,32420,1,0,0:0:0:0:
194,214,32582,2,0,L|297:197,1,105.000004005432,0|0,0:0|0:0,0:0:0:0:
122,228,33231,6,0,L|69:240,1,52.5000020027161,0|0,0:0|0:0,0:0:0:0:
260,294,33555,1,0,0:0:0:0:
290,318,33636,1,0,0:0:0:0:
327,328,33717,1,0,0:0:0:0:
365,326,33798,1,0,0:0:0:0:
400,307,33879,2,0,P|447:289|498:300,1,105.000004005432,0|0,0:0|0:0,0:0:0:0:
484,92,34528,5,0,0:0:0:0:
405,99,34690,1,0,0:0:0:0:
372,170,34852,1,0,0:0:0:0:
450,164,35014,1,0,0:0:0:0:
326,105,35177,1,0,0:0:0:0:
416,233,35501,5,0,0:0:0:0:
397,267,35582,1,0,0:0:0:0:
368,294,35663,1,0,0:0:0:0:
332,311,35744,1,0,0:0:0:0:
293,320,35825,2,0,L|236:314,1,52.5000020027161,0|0,0:0|0:0,0:0:0:0:
199,247,36149,1,0,0:0:0:0:
163,317,36312,1,0,0:0:0:0:
276,213,36474,2,0,P|241:175|188:163,1,105.000004005432,0|0,0:0|0:0,0:0:0:0:
97,257,37122,6,0,L|84:273,8,13.125000500679,0|0|0|0|0|0|0|0|0,0:0|0:0|0:0|0:0|0:0|0:0|0:0|0:0|0:0,0:0:0:0:
163,317,37609,1,0,0:0:0:0:
217,155,37771,2,0,P|255:121|306:110,1,105.000004005432,0|0,0:0|0:0,0:0:0:0:
317,291,38420,5,0,0:0:0:0:
301,213,38582,1,0,0:0:0:0:
289,332,38744,1,0,0:0:0:0:
251,342,38825,1,0,0:0:0:0:
214,328,38906,1,0,0:0:0:0:
190,296,38987,1,0,0:0:0:0:
174,259,39068,2,0,P|144:210|105:184,1,105.000004005432,0|0,0:0|0:0,0:0:0:0:
258,264,39717,5,0,0:0:0:0:
324,222,39879,1,0,0:0:0:0:
392,180,40041,1,0,0:0:0:0:
462,141,40204,1,0,0:0:0:0:
324,222,40366,1,0,0:0:0:0:
490,45,40690,5,0,0:0:0:0:
450,41,40771,1,0,0:0:0:0:
415,60,40852,1,0,0:0:0:0:
390,90,40933,1,0,0:0:0:0:
382,128,41014,2,0,L|392:181,1,52.5000020027161,0|0,0:0|0:0,0:0:0:0:
462,141,41339,1,0,0:0:0:0:
258,264,41501,1,0,0:0:0:0:
326,24,41663,6,0,B|273:41|247:98|247:98|208:52|179:69|179:69|148:60|148:60|96:98|52:70|52:70|6:75,1,350,0|0,1:2|0:0,0:0:0:0:
265,177,42636,6,0,P|298:162|318:136,1,68.2499968757631,0|0,1:2|0:0,0:0:0:0:
171,172,42960,6,0,B|171:232|216:272|272:269|272:269|236:346|236:346|287:315|287:315|336:357|392:335|392:335|462:367|516:338|516:338|502:297|443:264,1,650.999980133057,0|0,1:2|0:0,0:0:0:0:
350,261,45555,6,0,P|360:224|384:193,1,73.4999977569581,0|0,1:2|0:0,0:0:0:0:
467,93,45879,2,0,P|482:134|471:177,1,89.2500017023087,0|0,1:2|0:0,0:0:0:0:
283,112,46204,2,0,P|332:99|388:112,1,105,0|0,1:2|0:0,0:0:0:0:
219,223,46528,2,0,B|202:187|202:187|212:171|212:171|191:147|191:113,1,120.750002303124,0|0,1:2|0:0,0:0:0:0:
242,35,46852,6,0,B|167:2|119:56|119:56|72:35|72:35|37:76|62:141|62:141|28:185|28:185|54:217|48:269,1,440.999986541748,0|0,1:2|0:0,0:0:0:0:
65,344,48433,6,0,P|108:328|131:301,1,80.5000015354157,0|0,0:0|0:0,0:0:0:0:
194,103,48798,2,0,B|181:146|181:146|190:158|190:158|173:197|192:234,1,136.499993751526,0|0,1:2|0:0,0:0:0:0:
260,195,49122,2,0,P|297:146|317:89,1,120.750002303124,0|0,1:2|0:0,0:0:0:0:
397,132,49447,6,0,B|380:191|413:245|413:245|395:266|395:266|446:308|428:372,1,244.999992523194,0|0,1:2|0:0,0:0:0:0:
336,344,50420,6,0,P|282:313|224:304,1,120.750002303124,0|0,1:2|0:0,0:0:0:0:
136,315,50744,2,0,P|148:256|139:197,1,120.750002303124,0|0,1:2|0:0,0:0:0:0:
101,116,51068,2,0,P|163:109|216:82,1,120.750002303124,0|0,1:2|0:0,0:0:0:0:
280,22,51393,2,0,P|304:76|346:119,1,120.750002303124,0|0,1:2|0:0,0:0:0:0:
425,162,51717,2,0,P|379:204|352:257,1,120.750002303124,0|0,1:2|0:0,0:0:0:0:
157,177,52041,6,0,L|86:152,1,70,8|0,0:0|0:0,0:0:0:0:
352,255,52366,2,0,L|402:306,1,70,8|0,0:0|0:0,0:0:0:0:
195,119,52690,2,0,L|151:48,1,70,8|0,0:0|0:0,0:0:0:0:
303,297,53014,2,0,L|326:374,1,70,8|0,0:0|0:0,0:0:0:0:
234,68,53339,6,0,P|264:42|302:29,1,80.5000015354157,8|0,0:0|0:0,0:0:0:0:
241,308,53663,2,0,P|211:334|173:347,1,80.5000015354157,8|0,0:0|0:0,0:0:0:0:
319,100,53987,2,0,P|359:103|395:121,1,80.5000015354157,8|0,0:0|0:0,0:0:0:0:
155,275,54311,2,0,P|115:272|79:254,1,80.5000015354157,8|0,0:0|0:0,0:0:0:0:
332,199,54636,6,0,L|400:267,1,90.9999958343508,8|0,0:0|0:0,0:0:0:0:
140,175,54960,2,0,L|71:106,1,90.9999958343508,8|0,0:0|0:0,0:0:0:0:
299,271,55285,2,0,L|299:379,1,90.9999958343508,8|0,0:0|0:0,0:0:0:0:
167,101,55609,2,0,L|167:-6,1,90.9999958343508,8|0,0:0|0:0,0:0:0:0:
388,317,55933,6,0,P|431:302|471:257,1,101.500003097534,8|0,0:0|0:0,0:0:0:0:
80,58,56258,2,0,P|36:72|-3:117,1,101.500003097534,8|0,0:0|0:0,0:0:0:0:
434,170,56582,2,0,P|454:129|451:69,1,101.500003097534,8|0,0:0|0:0,0:0:0:0:
33,204,56907,2,0,P|13:245|16:305,1,101.500003097534,8|0,0:0|0:0,0:0:0:0:
254,29,57231,6,0,L|366:29,1,112,8|0,0:0|0:0,0:0:0:0:
258,355,57555,2,0,L|146:355,1,112,8|0,0:0|0:0,0:0:0:0:
101,105,57879,2,0,L|162:0,1,112,8|0,0:0|0:0,0:0:0:0:
410,278,58203,2,0,L|349:383,1,112,8|0,0:0|0:0,0:0:0:0:
50,174,58528,6,0,P|19:115|32:60,1,122.500001168251,8|0,0:0|0:0,0:0:0:0:
462,210,58852,2,0,P|493:269|480:324,1,122.500001168251,8|0,0:0|0:0,0:0:0:0:
30,321,59177,2,0,P|19:261|50:210,1,122.500001168251,8|0,0:0|0:0,0:0:0:0:
481,62,59501,2,0,P|492:122|462:174,1,122.500001168251,8|0,0:0|0:0,0:0:0:0:
168,28,59825,6,0,L|197:91,3,66.4999982242585,8|0|0|0,0:0|0:0|0:0|0:0,0:0:0:0:
317,89,60149,2,0,L|283:152,3,66.4999982242585,8|0|0|0,0:0|0:0|0:0|0:0,0:0:0:0:
115,147,60474,2,0,L|144:210,3,66.4999982242585,8|0|0|0,0:0|0:0|0:0|0:0,0:0:0:0:
356,207,60798,2,0,L|322:270,3,66.4999982242585,8|0|0|0,0:0|0:0|0:0|0:0,0:0:0:0:
62,213,61122,5,8,0:0:0:0:
129,31,61284,1,0,3:2:0:0:
446,213,61447,5,8,0:0:0:0:
379,31,61609,1,0,3:2:0:0:
254,335,61771,5,8,0:0:0:0:
254,169,61933,1,0,3:2:0:0:
254,169,62095,1,8,0:0:0:0:
129,31,62420,5,8,0:0:0:0:
109,59,62501,1,2,0:0:0:0:
93,91,62582,1,2,0:0:0:0:
83,124,62663,1,2,0:0:0:0:
78,165,62744,1,8,0:0:0:0:
78,207,62825,1,2,0:0:0:0:
85,247,62906,1,2,0:0:0:0:
100,287,62987,1,2,0:0:0:0:
121,322,63068,6,8,L|141:353,3,35,8|2|2|2,0:0|0:0|0:0|0:0,0:0:0:0:
176,195,63393,2,8,L|159:164,3,35,8|2|2|2,0:0|0:0|0:0|0:0,0:0:0:0:
252,269,63717,5,8,0:0:0:0:
283,283,63798,1,2,0:0:0:0:
309,306,63879,1,2,0:0:0:0:
327,336,63960,1,2,0:0:0:0:
334,370,64041,5,8,0:0:0:0:
358,345,64122,1,2,0:0:0:0:
388,327,64203,1,2,0:0:0:0:
422,320,64284,1,2,0:0:0:0:
458,325,64366,5,8,0:0:0:0:
440,294,64447,1,2,0:0:0:0:
433,260,64528,1,2,0:0:0:0:
437,226,64609,1,2,0:0:0:0:
451,194,64690,5,8,0:0:0:0:
417,201,64771,1,2,0:0:0:0:
383,197,64852,1,2,0:0:0:0:
351,183,64933,1,2,0:0:0:0:
325,160,65014,5,8,0:0:0:0:
322,194,65095,1,2,0:0:0:0:
308,226,65176,1,2,0:0:0:0:
284,252,65257,1,2,0:0:0:0:
250,278,65339,1,8,0:0:0:0:
208,287,65420,1,2,0:0:0:0:
168,282,65501,1,2,0:0:0:0:
129,265,65582,1,2,0:0:0:0:
99,235,65663,6,8,L|74:207,3,35,8|2|2|2,0:0|0:0|0:0|0:0,0:0:0:0:
63,324,65987,2,8,L|42:355,3,35,8|2|2|2,0:0|0:0|0:0|0:0,0:0:0:0:
181,361,66312,5,8,0:0:0:0:
220,371,66393,1,2,0:0:0:0:
262,373,66474,1,2,0:0:0:0:
303,363,66555,1,2,0:0:0:0:
347,342,66636,1,8,0:0:0:0:
385,312,66717,1,2,0:0:0:0:
416,273,66798,1,2,0:0:0:0:
435,228,66879,1,2,0:0:0:0:
441,193,66960,1,8,0:0:0:0:
439,158,67041,1,2,0:0:0:0:
432,130,67122,1,2,0:0:0:0:
422,103,67203,1,2,0:0:0:0:
408,78,67284,5,8,0:0:0:0:
379,98,67366,1,2,0:0:0:0:
347,110,67447,1,2,0:0:0:0:
312,113,67528,1,2,0:0:0:0:
278,104,67609,5,8,0:0:0:0:
282,69,67690,1,2,0:0:0:0:
278,35,67771,1,2,1:2:0:0:
255,9,67852,1,2,0:0:0:0:
222,0,67933,1,8,0:0:0:0:
190,12,68014,1,2,0:0:0:0:
170,40,68095,1,2,1:2:0:0:
169,75,68176,1,2,0:0:0:0:
182,107,68258,6,4,L|195:140,3,35,8|2|2|2,0:0|0:0|1:2|0:0,0:0:0:0:
79,72,68582,2,4,L|70:107,3,35,8|2|2|2,0:0|0:0|1:2|0:0,0:0:0:0:
117,214,68906,5,8,0:0:0:0:
112,257,68987,1,2,0:0:0:0:
122,304,69068,1,2,1:2:0:0:
149,342,69149,1,2,0:0:0:0:
186,374,69230,5,8,0:0:0:0:
224,342,69312,1,2,0:0:0:0:
253,310,69393,5,2,1:2:0:0:
285,334,69474,1,2,0:0:0:0:
316,363,69555,5,8,0:0:0:0:
352,343,69636,1,2,0:0:0:0:
383,313,69717,1,2,1:2:0:0:
402,276,69798,1,2,0:0:0:0:
408,234,69879,5,8,0:0:0:0:
376,206,69960,1,2,0:0:0:0:
344,179,70041,5,2,1:2:0:0:
368,147,70122,1,2,0:0:0:0:
395,114,70203,5,8,0:0:0:0:
362,128,70285,1,2,0:0:0:0:
328,134,70366,1,2,1:2:0:0:
293,134,70447,1,2,0:0:0:0:
258,129,70528,1,8,0:0:0:0:
225,118,70609,1,2,0:0:0:0:
194,103,70690,1,2,1:2:0:0:
165,82,70771,1,2,0:0:0:0:
142,57,70852,6,4,L|115:24,3,35,8|2|2|2,0:0|0:0|1:2|0:0,0:0:0:0:
111,135,71177,2,4,L|89:161,3,35,8|2|2|2,0:0|0:0|1:2|0:0,0:0:0:0:
51,64,71501,5,8,0:0:0:0:
25,88,71582,1,2,0:0:0:0:
10,118,71663,1,2,1:2:0:0:
0,153,71744,1,2,0:0:0:0:
5,187,71825,1,8,0:0:0:0:
21,217,71906,1,2,0:0:0:0:
46,242,71987,1,2,1:2:0:0:
77,256,72068,1,2,0:0:0:0:
104,260,72149,1,8,0:0:0:0:
131,256,72230,1,2,0:0:0:0:
156,243,72311,1,2,1:2:0:0:
178,225,72392,1,2,0:0:0:0:
192,200,72474,2,12,L|206:162,3,35,8|2|2|2,0:0|0:0|1:2|0:0,0:0:0:0:
318,335,72798,5,8,0:0:0:0:
360,326,72879,1,2,0:0:0:0:
399,306,72960,1,2,1:2:0:0:
429,274,73041,1,2,0:0:0:0:
449,236,73122,2,8,L|458:190,3,43.75,8|2|2|2,0:0|0:0|1:2|0:0,0:0:0:0:
459,60,73447,5,12,0:0:0:0:
428,91,73528,1,2,0:0:0:0:
398,123,73609,5,2,1:2:0:0:
354,123,73690,1,2,0:0:0:0:
310,124,73771,5,8,0:0:0:0:
279,155,73852,1,2,0:0:0:0:
249,187,73933,5,2,1:2:0:0:
205,188,74014,1,2,0:0:0:0:
161,189,74095,5,8,0:0:0:0:
193,217,74176,1,2,0:0:0:0:
215,255,74257,1,2,1:2:0:0:
223,298,74338,1,2,0:0:0:0:
217,341,74420,5,8,0:0:0:0:
254,318,74501,1,2,0:0:0:0:
296,309,74582,1,2,1:2:0:0:
340,315,74663,1,2,0:0:0:0:
379,334,74744,5,12,0:0:0:0:
369,291,74825,1,2,0:0:0:0:
373,248,74906,1,2,1:2:0:0:
392,208,74987,1,2,0:0:0:0:
422,177,75068,5,8,0:0:0:0:
378,173,75149,1,2,0:0:0:0:
338,155,75230,1,2,1:2:0:0:
307,125,75311,1,2,0:0:0:0:
287,85,75393,5,8,0:0:0:0:
238,102,75474,1,2,0:0:0:0:
198,131,75555,1,2,1:2:0:0:
165,170,75636,1,2,0:0:0:0:
143,215,75717,2,8,L|127:271,3,43.75,8|2|2|2,0:0|0:0|1:2|0:0,0:0:0:0:
386,86,76041,5,12,0:0:0:0:
382,128,76122,1,2,0:0:0:0:
378,173,76203,5,2,1:2:0:0:
343,200,76284,1,2,0:0:0:0:
309,229,76365,5,8,0:0:0:0:
306,273,76446,1,2,0:0:0:0:
302,317,76527,5,2,1:2:0:0:
268,345,76608,1,2,0:0:0:0:
229,369,76690,5,8,0:0:0:0:
228,308,76771,1,2,0:0:0:0:
209,253,76852,1,2,1:2:0:0:
168,210,76933,1,2,0:0:0:0:
114,178,77014,2,8,L|47:158,3,43.75,8|2|2|2,0:0|0:0|1:2|0:0,0:0:0:0:
282,9,77339,5,12,0:0:0:0:
287,55,77420,1,2,0:0:0:0:
309,99,77501,1,2,1:2:0:0:
344,133,77582,1,2,0:0:0:0:
381,151,77663,5,8,0:0:0:0:
410,180,77744,1,2,0:0:0:0:
406,222,77825,1,2,1:2:0:0:
369,244,77906,1,2,0:0:0:0:
329,229,77987,5,8,0:0:0:0:
300,197,78068,1,2,0:0:0:0:
261,175,78149,1,2,1:2:0:0:
219,167,78230,1,2,0:0:0:0:
175,171,78312,2,8,L|133:184,3,43.75,8|2|2|2,0:0|0:0|1:2|0:0,0:0:0:0:
65,53,78636,5,12,0:0:0:0:
41,89,78717,1,2,0:0:0:0:
28,131,78798,1,2,1:2:0:0:
27,175,78879,1,2,0:0:0:0:
36,217,78960,1,8,0:0:0:0:
56,256,79041,1,2,0:0:0:0:
86,288,79122,1,2,1:2:0:0:
123,311,79203,1,2,0:0:0:0:
162,325,79284,1,8,0:0:0:0:
217,327,79365,1,2,0:0:0:0:
273,316,79446,1,2,1:2:0:0:
321,291,79527,1,2,0:0:0:0:
360,251,79609,5,8,0:0:0:0:
335,208,79690,1,2,0:0:0:0:
312,166,79771,5,2,1:2:0:0:
357,149,79852,1,2,0:0:0:0:
401,131,79933,5,12,0:0:0:0:
393,84,80014,1,2,0:0:0:0:
369,43,80095,1,2,1:2:0:0:
332,14,80176,1,2,0:0:0:0:
285,3,80257,5,8,0:0:0:0:
260,42,80339,1,2,0:0:0:0:
234,82,80420,5,2,1:2:0:0:
196,51,80501,1,2,0:0:0:0:
159,22,80582,5,8,0:0:0:0:
168,86,80663,1,2,0:0:0:0:
166,129,80744,1,2,1:2:0:0:
153,171,80825,1,2,0:0:0:0:
133,210,80906,2,8,L|108:247,3,43.75,8|2|2|2,0:0|0:0|1:2|0:0,0:0:0:0:
308,70,81230,5,12,0:0:0:0:
351,62,81312,1,2,0:0:0:0:
393,72,81393,1,2,1:2:0:0:
431,92,81474,1,2,0:0:0:0:
461,123,81555,1,8,0:0:0:0:
480,162,81636,1,2,0:0:0:0:
488,204,81717,1,2,1:2:0:0:
475,244,81798,1,2,0:0:0:0:
448,279,81879,1,8,0:0:0:0:
409,298,81960,1,2,0:0:0:0:
366,304,82041,1,2,1:2:0:0:
322,295,82122,1,2,0:0:0:0:
285,274,82203,1,8,0:0:0:0:
236,248,82285,1,2,0:0:0:0:
185,232,82366,1,2,1:2:0:0:
130,235,82447,1,2,0:0:0:0:
82,259,82528,2,8,L|35:290,3,43.75,12|2|2|2,0:0|0:0|1:2|0:0,0:0:0:0:
223,122,82852,6,4,L|237:163,1,43.75,12|6,0:0|0:0,0:0:0:0:
201,351,83014,2,4,L|187:309,1,43.75,6|6,1:2|0:0,0:0:0:0:
247,75,83177,5,8,0:0:0:0:
277,44,83258,1,2,0:0:0:0:
318,28,83339,1,2,1:2:0:0:
361,29,83420,1,2,0:0:0:0:
403,49,83501,1,8,0:0:0:0:
434,84,83582,1,2,0:0:0:0:
449,129,83663,2,0,L|463:180,1,43.75,2|2,1:2|0:0,0:0:0:0:
341,115,83825,6,4,L|330:134,6,21.875,12|0|2|0|2|0|2,1:2|1:2|1:2|1:2|1:2|1:2|1:2,0:0:0:0:
223,122,84149,6,12,L|188:89,1,43.75,8|2,0:0|0:0,0:0:0:0:
323,224,84312,2,12,L|354:259,1,43.75,2|2,1:2|0:0,0:0:0:0:
203,237,84474,5,8,0:0:0:0:
171,257,84555,1,2,0:0:0:0:
157,296,84636,1,2,1:2:0:0:
167,333,84717,1,2,0:0:0:0:
198,359,84798,1,8,0:0:0:0:
237,363,84879,1,2,0:0:0:0:
275,361,84960,2,0,L|317:351,1,43.75,2|2,1:2|0:0,0:0:0:0:
445,188,85122,5,12,0:0:0:0:
428,147,85203,1,2,0:0:0:0:
398,115,85284,1,2,1:2:0:0:
359,96,85365,1,2,0:0:0:0:
315,93,85446,1,8,1:2:0:0:
274,105,85527,1,2,0:0:0:0:
239,132,85608,1,2,0:0:0:0:
217,169,85690,1,2,0:0:0:0:
211,212,85771,1,8,0:0:0:0:
196,238,85852,1,2,0:0:0:0:
171,257,85933,1,2,1:2:0:0:
142,267,86014,1,2,0:0:0:0:
110,264,86095,1,8,0:0:0:0:
81,251,86176,1,2,0:0:0:0:
54,237,86258,2,0,L|17:212,1,43.75,2|2,1:2|0:0,0:0:0:0:
232,346,86420,5,12,0:0:0:0:
262,340,86501,1,2,0:0:0:0:
293,331,86582,1,2,1:2:0:0:
321,318,86663,1,2,0:0:0:0:
349,301,86744,1,8,0:0:0:0:
380,276,86825,1,2,0:0:0:0:
404,249,86906,1,2,1:2:0:0:
423,218,86987,1,2,0:0:0:0:
429,178,87068,5,8,0:0:0:0:
394,152,87149,1,2,0:0:0:0:
364,121,87230,1,2,1:2:0:0:
340,84,87311,1,2,0:0:0:0:
331,38,87392,5,8,1:2:0:0:
292,65,87474,1,2,1:2:0:0:
249,85,87555,1,2,1:2:0:0:
204,98,87636,1,2,1:2:0:0:
154,102,87717,5,12,0:0:0:0:
174,155,87798,1,2,0:0:0:0:
183,212,87879,1,2,1:2:0:0:
182,270,87960,1,2,0:0:0:0:
171,326,88041,5,8,0:0:0:0:
227,323,88122,1,2,0:0:0:0:
283,330,88203,1,2,1:2:0:0:
338,351,88284,1,2,0:0:0:0:
383,374,88365,5,8,0:0:0:0:
396,332,88447,1,2,0:0:0:0:
393,291,88528,1,2,1:2:0:0:
381,253,88609,1,2,0:0:0:0:
361,219,88690,1,8,0:0:0:0:
333,188,88771,1,2,0:0:0:0:
298,168,88852,2,0,L|256:154,1,43.75,2|2,1:2|0:0,0:0:0:0:
277,334,89014,5,12,1:2:0:0:
235,342,89095,1,2,1:2:0:0:
191,336,89176,1,2,1:2:0:0:
152,318,89257,1,2,1:2:0:0:
120,288,89338,1,8,0:0:0:0:
98,251,89419,1,2,0:0:0:0:
88,208,89501,1,2,1:2:0:0:
91,165,89582,1,2,0:0:0:0:
101,121,89662,1,8,0:0:0:0:
133,82,89743,1,2,0:0:0:0:
175,55,89824,1,2,1:2:0:0:
224,40,89905,1,2,0:0:0:0:
277,40,89987,5,8,0:0:0:0:
261,96,90068,1,2,0:0:0:0:
256,154,90149,1,2,1:2:0:0:
305,155,90230,1,2,0:0:0:0:
356,147,90311,5,12,0:0:0:0:
324,192,90393,1,2,0:0:0:0:
299,242,90474,1,2,1:2:0:0:
289,297,90555,1,2,0:0:0:0:
294,352,90636,5,8,1:2:0:0:
345,330,90717,1,2,1:2:0:0:
400,322,90798,1,2,1:2:0:0:
455,330,90879,1,2,1:2:0:0:
499,360,90960,5,8,0:0:0:0:
509,321,91042,1,2,0:0:0:0:
509,280,91123,1,2,1:2:0:0:
499,241,91204,1,2,0:0:0:0:
478,205,91285,1,8,0:0:0:0:
451,175,91366,1,2,0:0:0:0:
420,151,91447,2,0,L|384:125,1,43.75,2|2,1:2|0:0,0:0:0:0:
168,148,91608,5,12,0:0:0:0:
125,158,91689,1,2,0:0:0:0:
88,181,91770,1,2,1:2:0:0:
63,217,91851,1,2,0:0:0:0:
47,257,91932,5,8,0:0:0:0:
87,274,92013,1,2,0:0:0:0:
128,265,92095,1,2,1:2:0:0:
162,238,92176,1,2,0:0:0:0:
179,198,92257,5,8,0:0:0:0:
194,238,92338,1,2,0:0:0:0:
221,272,92419,1,2,1:2:0:0:
249,305,92500,1,2,0:0:0:0:
283,332,92581,5,8,1:2:0:0:
315,292,92662,1,2,1:2:0:0:
340,248,92743,1,2,1:2:0:0:
354,199,92824,1,2,1:2:0:0:
343,134,92905,5,12,1:2:0:0:
394,175,92986,1,2,0:0:0:0:
431,229,93068,1,6,0:0:0:0:
450,292,93149,1,2,0:0:0:0:
448,357,93230,5,12,1:2:0:0:
494,282,93311,1,6,0:0:0:0:
508,195,93392,1,6,0:0:0:0:
492,109,93473,1,6,0:0:0:0:
444,33,93555,5,8,0:0:0:0:
403,60,93636,1,2,0:0:0:0:
372,90,93717,1,2,1:2:0:0:
345,124,93798,1,2,0:0:0:0:
324,162,93879,1,8,0:0:0:0:
311,203,93960,1,2,0:0:0:0:
302,245,94041,2,0,L|297:293,1,43.75,2|2,1:2|0:0,0:0:0:0:
229,186,94204,6,0,L|211:174,6,21.875,12|0|2|0|2|0|2,1:2|1:2|1:2|1:2|1:2|1:2|1:2,0:0:0:0:
206,68,94528,6,0,L|234:32,1,43.75,8|2,0:0|0:0,0:0:0:0:
119,178,94691,2,0,L|91:215,1,43.75,2|2,1:2|0:0,0:0:0:0:
322,32,94852,5,8,0:0:0:0:
332,75,94933,1,2,0:0:0:0:
351,114,95014,1,2,1:2:0:0:
377,149,95095,1,2,0:0:0:0:
409,179,95176,5,8,0:0:0:0:
373,202,95258,1,2,0:0:0:0:
341,232,95339,1,2,1:2:0:0:
315,267,95420,1,2,0:0:0:0:
297,307,95501,5,12,0:0:0:0:
264,279,95582,1,2,0:0:0:0:
226,257,95663,1,2,1:2:0:0:
184,244,95744,1,2,0:0:0:0:
141,239,95825,5,8,1:2:0:0:
158,198,95906,1,2,1:2:0:0:
166,155,95987,1,2,1:2:0:0:
166,111,96068,1,2,1:2:0:0:
157,68,96149,5,8,0:0:0:0:
199,56,96230,1,2,0:0:0:0:
243,54,96311,1,2,1:2:0:0:
286,62,96392,1,2,0:0:0:0:
326,79,96473,1,8,0:0:0:0:
361,105,96554,1,2,0:0:0:0:
389,138,96636,2,0,L|412:182,1,43.75,2|2,1:2|0:0,0:0:0:0:
308,351,96798,5,12,0:0:0:0:
263,354,96879,1,2,0:0:0:0:
220,356,96960,5,2,1:2:0:0:
200,316,97041,1,2,0:0:0:0:
180,276,97122,5,8,0:0:0:0:
142,297,97203,1,2,0:0:0:0:
105,318,97284,5,2,1:2:0:0:
73,287,97365,1,2,0:0:0:0:
45,249,97447,5,8,0:0:0:0:
95,240,97528,1,2,0:0:0:0:
135,210,97609,1,2,1:2:0:0:
160,169,97690,1,2,0:0:0:0:
167,116,97771,1,8,1:2:0:0:
153,64,97852,1,2,1:2:0:0:
115,23,97933,2,0,L|65:-5,1,43.75,2|2,1:2|1:2,0:0:0:0:
330,88,98095,5,12,0:0:0:0:
365,113,98176,1,2,0:0:0:0:
388,150,98257,1,2,1:2:0:0:
399,192,98338,1,2,0:0:0:0:
397,236,98420,5,8,0:0:0:0:
352,239,98501,1,2,0:0:0:0:
313,256,98582,1,2,1:2:0:0:
280,285,98663,1,2,0:0:0:0:
260,324,98744,5,8,0:0:0:0:
263,275,98825,1,2,0:0:0:0:
245,230,98906,1,2,1:2:0:0:
210,195,98987,1,2,0:0:0:0:
164,180,99068,1,8,0:0:0:0:
115,184,99149,1,2,0:0:0:0:
74,209,99231,2,0,L|40:252,1,48.9999985046387,2|2,1:2|0:0,0:0:0:0:
194,9,99392,5,12,1:2:0:0:
237,34,99473,1,2,0:0:0:0:
265,76,99554,1,2,0:0:0:0:
274,124,99635,1,2,0:0:0:0:
269,174,99716,1,8,0:0:0:0:
244,216,99798,1,2,0:0:0:0:
231,263,99879,1,2,1:2:0:0:
243,311,99960,1,2,0:0:0:0:
270,353,100041,1,8,0:0:0:0:
311,378,100122,1,2,0:0:0:0:
360,384,100203,1,2,1:2:0:0:
405,366,100284,1,2,0:0:0:0:
440,329,100366,5,8,0:0:0:0:
392,316,100447,1,2,0:0:0:0:
345,308,100528,5,2,1:2:0:0:
357,260,100609,1,2,0:0:0:0:
369,214,100690,5,12,0:0:0:0:
326,233,100771,1,2,0:0:0:0:
283,256,100852,1,2,1:2:0:0:
240,277,100933,1,2,0:0:0:0:
197,301,101014,5,8,1:2:0:0:
200,252,101095,1,2,1:2:0:0:
208,204,101176,5,2,1:2:0:0:
161,188,101258,1,2,0:0:0:0:
112,173,101339,5,8,0:0:0:0:
132,127,101420,1,2,0:0:0:0:
168,90,101501,1,2,1:2:0:0:
216,67,101582,1,2,0:0:0:0:
268,65,101663,1,8,0:0:0:0:
317,83,101744,1,2,0:0:0:0:
356,117,101825,2,0,L|400:158,1,52.5000020027161,2|2,1:2|0:0,0:0:0:0:
182,342,101987,5,12,0:0:0:0:
122,329,102068,1,2,0:0:0:0:
76,291,102149,1,2,1:2:0:0:
49,240,102230,1,2,0:0:0:0:
47,180,102311,1,8,0:0:0:0:
70,126,102392,1,2,0:0:0:0:
114,87,102473,1,2,1:2:0:0:
171,71,102554,1,2,0:0:0:0:
229,79,102636,1,8,0:0:0:0:
282,112,102717,1,2,0:0:0:0:
307,167,102798,1,2,1:2:0:0:
307,231,102879,1,2,0:0:0:0:
304,297,102960,1,8,1:2:0:0:
343,350,103041,1,2,1:2:0:0:
412,357,103122,1,2,1:2:0:0:
467,314,103203,1,2,1:2:0:0:
484,238,103285,1,12,0:0:0:0:
465,163,103366,1,2,0:0:0:0:
421,90,103447,1,2,0:0:0:0:
347,49,103528,1,2,0:0:0:0:
264,35,103609,6,0,P|219:27|178:27,1,83.9999974365235,14|4,0:0|0:0,0:0:0:0:
418,6,103771,2,0,P|460:12|502:12,1,83.9999974365235,4|4,0:0|0:0,0:0:0:0:
33,175,103933,5,8,0:0:0:0:
42,244,104014,1,2,0:0:0:0:
89,295,104095,1,2,0:0:0:0:
160,301,104177,2,0,P|197:296|232:285,1,70,2|8,0:0|0:0,0:0:0:0:
253,220,104339,1,2,0:0:0:0:
280,158,104420,1,2,0:0:0:0:
341,128,104501,1,2,0:0:0:0:
408,146,104582,6,0,P|446:168|478:198,1,87.5,14|0,0:0|0:0,0:0:0:0:
279,83,104744,2,0,P|241:61|209:31,1,87.5,2|0,0:0|0:0,0:0:0:0:
309,281,104906,6,0,L|319:350,1,70,8|2,0:0|0:0,0:0:0:0:
141,170,105068,2,0,L|130:100,1,70,2|2,0:0|0:0,0:0:0:0:
218,321,105231,6,0,L|163:364,1,70,8|2,0:0|0:0,0:0:0:0:
228,125,105393,2,0,L|282:81,1,70,2|2,0:0|0:0,0:0:0:0:
136,269,105555,6,0,L|70:243,1,70,8|2,0:0|0:0,0:0:0:0:
310,178,105717,2,0,L|375:203,1,70,2|2,0:0|0:0,0:0:0:0:
61,39,105879,6,0,P|43:78|40:122,1,87.5,14|0,0:0|0:0,0:0:0:0:
0,313,106041,2,0,P|17:273|20:229,1,87.5,2|0,0:0|0:0,0:0:0:0:
130,100,106204,6,0,L|141:170,1,70,8|2,0:0|0:0,0:0:0:0:
319,350,106366,2,0,L|309:281,1,70,2|2,0:0|0:0,0:0:0:0:
384,79,106528,5,8,0:0:0:0:
321,43,106609,1,2,0:0:0:0:
252,35,106690,1,2,0:0:0:0:
185,57,106771,2,0,L|129:101,1,70,2|8,0:0|0:0,0:0:0:0:
103,166,106933,1,2,0:0:0:0:
103,237,107014,1,2,0:0:0:0:
130,300,107095,1,2,0:0:0:0:
179,349,107177,6,0,P|221:364|264:373,1,87.5,14|0,0:0|0:0,0:0:0:0:
392,305,107339,2,0,P|349:289|306:280,1,87.5,2|0,0:0|0:0,0:0:0:0:
179,204,107501,6,0,L|248:182,1,70,8|2,0:0|0:0,0:0:0:0:
392,146,107663,2,0,L|323:124,1,70,2|2,0:0|0:0,0:0:0:0:
80,133,107825,5,8,0:0:0:0:
121,76,107906,1,2,0:0:0:0:
188,70,107987,1,2,0:0:0:0:
240,112,108068,2,0,L|246:196,1,70,2|8,0:0|0:0,0:0:0:0:
254,248,108231,1,2,0:0:0:0:
307,291,108312,1,2,0:0:0:0:
374,283,108393,1,2,0:0:0:0:
415,230,108474,6,0,L|391:145,1,87.5,14|0,0:0|0:0,0:0:0:0:
431,0,108636,2,0,L|455:85,1,87.5,2|0,0:0|0:0,0:0:0:0:
476,166,108798,6,0,L|495:234,1,70,8|2,0:0|0:0,0:0:0:0:
367,67,108960,2,0,L|349:0,1,70,2|2,0:0|0:0,0:0:0:0:
368,352,109123,5,8,0:0:0:0:
374,283,109204,1,2,0:0:0:0:
356,215,109285,1,2,0:0:0:0:
314,160,109366,2,0,L|236:116,1,70,2|8,0:0|0:0,0:0:0:0:
184,121,109528,1,2,0:0:0:0:
117,146,109609,1,2,0:0:0:0:
68,193,109690,1,2,0:0:0:0:
41,258,109771,6,0,P|40:301|49:348,1,87.5,14|0,0:0|0:0,0:0:0:0:
46,119,109933,2,0,P|47:76|38:29,1,87.5,2|0,0:0|0:0,0:0:0:0:
176,197,110095,5,8,0:0:0:0:
202,259,110176,1,2,0:0:0:0:
261,295,110257,1,2,0:0:0:0:
329,288,110339,1,2,0:0:0:0:
381,242,110419,1,8,0:0:0:0:
395,175,110500,1,2,0:0:0:0:
366,112,110581,1,2,0:0:0:0:
306,79,110662,1,2,0:0:0:0:
241,48,110744,6,0,L|169:48,1,70,8|2,0:0|0:0,0:0:0:0:
46,119,110906,2,0,L|118:119,1,70,2|2,0:0|0:0,0:0:0:0:
421,54,111068,6,0,P|460:71|501:103,1,87.5,14|0,0:0|0:0,0:0:0:0:
312,176,111231,2,0,P|272:158|231:126,1,87.5,2|0,0:0|0:0,0:0:0:0:
435,220,111393,6,0,L|505:220,1,70,8|2,0:0|0:0,0:0:0:0:
326,292,111555,2,0,L|256:292,1,70,2|2,0:0|0:0,0:0:0:0:
124,131,111717,5,8,0:0:0:0:
76,181,111798,1,2,0:0:0:0:
64,249,111879,1,2,0:0:0:0:
89,313,111960,2,0,P|111:337|148:354,1,70,2|8,0:0|0:0,0:0:0:0:
212,344,112122,1,2,0:0:0:0:
256,292,112203,1,2,0:0:0:0:
254,224,112284,1,2,0:0:0:0:
254,153,112366,6,0,P|266:111|285:73,1,87.5,14|0,0:0|0:0,0:0:0:0:
183,194,112528,2,0,P|170:235|151:273,1,87.5,2|0,0:0|0:0,0:0:0:0:
343,136,112690,5,8,0:0:0:0:
406,109,112771,1,2,0:0:0:0:
471,130,112852,1,2,0:0:0:0:
507,188,112933,1,2,0:0:0:0:
497,256,113014,1,8,0:0:0:0:
446,301,113095,1,2,0:0:0:0:
378,303,113176,1,2,0:0:0:0:
324,259,113258,2,0,P|302:233|282:201,1,70,2|8,0:0|0:0,0:0:0:0:
225,166,113420,1,2,0:0:0:0:
156,156,113501,1,2,0:0:0:0:
88,173,113582,1,2,0:0:0:0:
33,215,113663,6,0,L|34:306,1,87.5,14|0,0:0|0:0,0:0:0:0:
198,87,113825,2,0,L|197:-3,1,87.5,2|0,0:0|0:0,0:0:0:0:
207,313,113987,6,0,P|212:330|213:325,3,70,8|2|2|2,0:0|0:0|0:0|0:0,0:0:0:0:
467,292,114312,5,8,0:0:0:0:
404,318,114393,1,2,0:0:0:0:
337,300,114474,1,2,0:0:0:0:
294,246,114555,2,0,L|307:173,1,70,2|8,0:0|0:0,0:0:0:0:
290,110,114717,1,2,0:0:0:0:
247,56,114798,1,2,0:0:0:0:
181,38,114879,1,2,0:0:0:0:
117,64,114960,6,0,L|52:124,1,87.5,14|0,0:0|0:0,0:0:0:0:
13,276,115122,2,0,L|78:216,1,87.5,2|0,0:0|0:0,0:0:0:0:
125,157,115285,6,0,P|144:183|156:219,1,70,8|2,0:0|0:0,0:0:0:0:
197,354,115447,2,0,P|177:327|166:292,1,70,2|2,0:0|0:0,0:0:0:0:
207,137,115609,6,0,P|228:165|241:205,1,70,8|2,0:0|0:0,0:0:0:0:
286,353,115771,2,0,P|264:324|251:284,1,70,2|2,0:0|0:0,0:0:0:0:
291,117,115933,6,0,P|314:148|328:192,1,70,8|2,0:0|0:0,0:0:0:0:
377,354,116095,2,0,P|353:322|339:278,1,70,2|2,0:0|0:0,0:0:0:0:
333,32,116258,6,0,L|245:32,1,87.5,14|0,0:0|0:0,0:0:0:0:
425,32,116420,2,0,L|513:32,1,87.5,2|0,0:0|0:0,0:0:0:0:
431,293,116582,6,0,P|446:325|468:353,1,70,8|2,0:0|0:0,0:0:0:0:
410,152,116744,2,0,P|395:120|374:93,1,70,2|2,0:0|0:0,0:0:0:0:
263,289,116906,5,8,0:0:0:0:
314,244,116987,1,2,0:0:0:0:
325,176,117068,1,2,0:0:0:0:
290,118,117150,2,0,L|211:84,1,70,2|8,0:0|0:0,0:0:0:0:
161,119,117311,1,2,0:0:0:0:
127,178,117392,1,2,0:0:0:0:
139,245,117473,1,2,0:0:0:0:
192,289,117555,6,0,P|216:329|226:373,1,87.5,14|0,0:0|0:0,0:0:0:0:
66,224,117717,2,0,P|41:183|31:139,1,87.5,2|0,0:0|0:0,0:0:0:0:
119,327,117879,6,0,L|49:327,1,70,8|2,0:0|0:0,0:0:0:0:
213,210,118041,2,0,L|283:210,1,70,2|2,0:0|0:0,0:0:0:0:
462,265,118204,5,8,0:0:0:0:
422,321,118285,1,2,0:0:0:0:
364,360,118366,1,2,0:0:0:0:
296,374,118447,2,0,L|208:366,1,70,2|8,0:0|0:0,0:0:0:0:
171,322,118609,1,2,0:0:0:0:
133,263,118690,1,2,0:0:0:0:
121,195,118771,1,2,0:0:0:0:
137,127,118852,6,0,L|177:44,1,87.5,14|0,0:0|0:0,0:0:0:0:
54,246,119014,2,0,L|11:321,1,87.5,2|0,0:0|0:0,0:0:0:0:
62,143,119177,6,0,L|25:81,1,70,8|2,0:0|0:0,0:0:0:0:
199,218,119339,2,0,L|236:280,1,70,2|2,0:0|0:0,0:0:0:0:
246,75,119501,5,8,0:0:0:0:
299,35,119582,1,2,0:0:0:0:
368,22,119663,1,2,0:0:0:0:
435,43,119744,2,0,L|495:96,1,70,2|8,0:0|0:0,0:0:0:0:
502,159,119906,1,2,0:0:0:0:
488,228,119987,1,2,0:0:0:0:
442,280,120068,1,2,0:0:0:0:
371,305,120150,6,0,P|325:306|287:291,1,87.5,14|0,0:0|0:0,0:0:0:0:
115,334,120312,2,0,P|161:333|199:348,1,87.5,2|0,0:0|0:0,0:0:0:0:
409,194,120474,5,8,0:0:0:0:
390,127,120555,1,2,0:0:0:0:
332,91,120636,1,2,0:0:0:0:
269,112,120717,1,2,0:0:0:0:
245,175,120798,1,8,0:0:0:0:
220,240,120879,1,2,0:0:0:0:
156,261,120960,1,2,0:0:0:0:
99,225,121041,1,2,0:0:0:0:
65,161,121123,6,0,P|57:126|59:85,1,70,8|2,0:0|0:0,0:0:0:0:
54,0,121285,2,0,P|61:34|59:75,1,70,2|2,0:0|0:0,0:0:0:0:
43,300,121447,6,0,P|26:339|0:375,1,87.5,14|0,0:0|0:0,0:0:0:0:
138,109,121609,2,0,P|154:69|181:33,1,87.5,2|0,0:0|0:0,0:0:0:0:
222,384,121771,6,0,P|212:350|192:314,1,70,8|2,0:0|0:0,0:0:0:0:
99,225,121933,2,0,P|108:258|128:294,1,70,2|2,0:0|0:0,0:0:0:0:
335,307,122095,5,8,0:0:0:0:
402,284,122176,1,2,0:0:0:0:
442,225,122257,1,2,0:0:0:0:
451,152,122339,2,0,L|424:84,1,70,2|8,0:0|0:0,0:0:0:0:
373,42,122500,1,2,0:0:0:0:
307,21,122581,1,2,0:0:0:0:
239,32,122662,1,2,0:0:0:0:
186,85,122744,6,0,P|175:132|190:179,1,87.5,14|0,0:0|0:0,0:0:0:0:
218,324,122906,2,0,P|227:275|213:229,1,87.5,2|0,0:0|0:0,0:0:0:0:
100,92,123068,5,8,0:0:0:0:
54,144,123149,1,2,0:0:0:0:
34,210,123230,1,2,0:0:0:0:
45,279,123311,1,2,0:0:0:0:
84,336,123392,1,8,0:0:0:0:
144,371,123473,1,2,0:0:0:0:
213,377,123554,1,2,0:0:0:0:
276,350,123636,2,0,L|319:286,1,70,2|8,0:0|0:0,0:0:0:0:
313,223,123798,1,2,0:0:0:0:
313,155,123879,1,2,0:0:0:0:
350,97,123960,1,2,0:0:0:0:
414,70,124041,6,0,P|456:69|500:80,1,87.5,14|0,0:0|0:0,0:0:0:0:
241,278,124204,2,0,P|199:279|155:268,1,87.5,2|0,0:0|0:0,0:0:0:0:
255,56,124366,6,0,P|256:30|264:47,3,70,8|2|2|2,0:0|0:0|0:0|0:0,0:0:0:0:
453,148,124690,5,8,0:0:0:0:
461,216,124771,1,2,0:0:0:0:
439,282,124852,1,2,0:0:0:0:
392,333,124933,2,0,L|321:365,1,70,2|8,0:0|0:0,0:0:0:0:
258,355,125095,1,2,0:0:0:0:
196,323,125176,1,2,0:0:0:0:
155,268,125257,1,2,0:0:0:0:
140,199,125339,6,0,P|137:156|149:114,1,87.5,14|0,0:0|0:0,0:0:0:0:
167,2,125501,2,0,P|170:45|158:87,1,87.5,2|0,0:0|0:0,0:0:0:0:
215,164,125663,6,0,L|281:185,1,70,8|2,0:0|0:0,0:0:0:0:
92,37,125825,2,0,L|26:16,1,70,2|2,0:0|0:0,0:0:0:0:
31,210,125987,5,8,0:0:0:0:
69,270,126068,1,2,0:0:0:0:
128,305,126149,1,2,0:0:0:0:
196,323,126231,2,0,P|230:326|265:318,1,70,2|8,0:0|0:0,0:0:0:0:
326,284,126393,1,2,0:0:0:0:
376,235,126474,1,2,0:0:0:0:
410,173,126555,1,2,0:0:0:0:
422,99,126636,6,0,P|436:55|458:19,1,87.5,14|0,0:0|0:0,0:0:0:0:
439,270,126798,2,0,P|424:313|403:350,1,87.5,2|0,0:0|0:0,0:0:0:0:
298,32,126960,5,8,0:0:0:0:
231,13,127041,1,2,0:0:0:0:
163,23,127122,1,2,0:0:0:0:
103,59,127203,1,2,0:0:0:0:
63,116,127284,1,8,0:0:0:0:
49,184,127365,1,2,0:0:0:0:
63,252,127446,1,2,0:0:0:0:
103,309,127528,2,0,L|164:349,1,70,2|8,0:0|0:0,0:0:0:0:
232,354,127689,1,2,0:0:0:0:
299,336,127770,1,2,0:0:0:0:
353,292,127851,1,2,0:0:0:0:
385,231,127933,6,0,P|405:193|413:149,1,87.5,14|0,0:0|0:0,0:0:0:0:
467,303,128095,2,0,P|446:340|438:384,1,87.5,2|0,0:0|0:0,0:0:0:0:
464,90,128258,5,8,0:0:0:0:
412,43,128339,1,2,0:0:0:0:
345,30,128420,1,2,0:0:0:0:
280,55,128501,1,2,0:0:0:0:
239,110,128582,1,8,0:0:0:0:
232,179,128663,1,2,0:0:0:0:
230,247,128744,1,2,0:0:0:0:
189,303,128825,2,0,P|157:323|127:331,1,70,2|8,0:0|0:0,0:0:0:0:
94,268,128987,5,2,0:0:0:0:
88,198,129068,1,2,0:0:0:0:
112,132,129149,1,2,0:0:0:0:
167,84,129231,6,0,P|189:47|199:5,1,87.5,14|0,0:0|0:0,0:0:0:0:
32,241,129393,2,0,P|10:278|0:320,1,87.5,2|0,0:0|0:0,0:0:0:0:
100,11,129555,6,0,L|31:11,1,70,8|2,0:0|0:0,0:0:0:0:
100,315,129717,2,0,L|169:315,1,70,2|2,0:0|0:0,0:0:0:0:
464,48,129879,5,8,0:0:0:0:
471,115,129960,1,2,0:0:0:0:
456,185,130041,1,2,0:0:0:0:
422,244,130123,2,0,L|366:297,1,70,2|8,0:0|0:0,0:0:0:0:
308,320,130284,1,2,0:0:0:0:
239,329,130365,1,2,0:0:0:0:
170,315,130446,1,2,0:0:0:0:
109,282,130528,6,0,L|39:227,1,87.5,14|0,0:0|0:0,0:0:0:0:
0,36,130690,2,0,L|70:91,1,87.5,2|0,0:0|0:0,0:0:0:0:
248,248,130852,5,8,0:0:0:0:
315,241,130933,1,2,0:0:0:0:
366,196,131014,1,2,0:0:0:0:
381,129,131095,1,2,0:0:0:0:
354,65,131176,1,8,0:0:0:0:
295,30,131257,1,2,0:0:0:0:
225,41,131339,1,2,0:0:0:0:
171,86,131420,1,2,0:0:0:0:
138,147,131501,6,0,L|89:200,1,70,8|2,0:0|0:0,0:0:0:0:
19,275,131663,2,0,L|68:222,1,70,2|2,0:0|0:0,0:0:0:0:
140,71,131825,6,0,P|119:29|89:-3,1,87.5,14|0,0:0|0:0,0:0:0:0:
136,313,131987,2,0,P|157:355|187:387,1,87.5,2|0,0:0|0:0,0:0:0:0:
138,147,132149,6,0,L|187:200,1,70,8|2,0:0|0:0,0:0:0:0:
257,275,132311,2,0,L|208:222,1,70,2|2,0:0|0:0,0:0:0:0:
228,45,132474,5,8,0:0:0:0:
295,30,132555,1,2,0:0:0:0:
363,44,132636,1,2,0:0:0:0:
419,85,132717,2,0,L|458:146,1,70,2|8,0:0|0:0,0:0:0:0:
463,214,132879,1,2,0:0:0:0:
441,279,132960,1,2,0:0:0:0:
394,331,133041,1,2,0:0:0:0:
331,359,133123,6,0,P|288:368|245:367,1,87.5,14|0,0:0|0:0,0:0:0:0:
42,358,133285,2,0,P|85:349|128:350,1,87.5,2|0,0:0|0:0,0:0:0:0:
281,272,133447,6,0,L|350:272,1,70,8|2,0:0|0:0,0:0:0:0:
158,229,133609,2,0,L|89:229,1,70,2|2,0:0|0:0,0:0:0:0:
402,152,133771,6,0,L|332:152,1,70,8|2,0:0|0:0,0:0:0:0:
139,109,133933,2,0,L|209:109,1,70,2|2,0:0|0:0,0:0:0:0:
442,44,134095,6,0,L|512:44,1,70,8|2,0:0|0:0,0:0:0:0:
130,0,134257,2,0,L|60:0,1,70,2|2,0:0|0:0,0:0:0:0:
268,231,134420,6,0,P|242:245|264:223,1,87.5,14|0,0:0|0:0,0:0:0:0:
286,21,134582,2,0,P|312:7|290:29,1,87.5,2|0,0:0|0:0,0:0:0:0:
162,232,134744,5,8,0:0:0:0:
187,305,134825,1,2,0:0:0:0:
261,325,134906,1,2,0:0:0:0:
331,298,134987,1,2,0:0:0:0:
369,230,135068,5,8,0:0:0:0:
361,160,135149,1,2,0:0:0:0:
325,101,135230,1,2,0:0:0:0:
265,62,135312,1,2,0:0:0:0:
194,51,135393,1,8,0:0:0:0:
127,73,135473,1,2,0:0:0:0:
69,115,135555,1,2,0:0:0:0:
38,176,135635,1,2,0:0:0:0:
32,245,135717,6,0,L|32:337,1,87.5,14|0,0:0|0:0,0:0:0:0:
194,138,135879,2,0,L|194:51,1,87.5,2|0,0:0|0:0,0:0:0:0:
158,258,136041,5,8,0:0:0:0:
197,314,136122,1,2,0:0:0:0:
260,342,136203,1,2,0:0:0:0:
329,334,136285,1,2,0:0:0:0:
384,292,136365,5,8,0:0:0:0:
335,243,136447,1,2,0:0:0:0:
273,210,136528,1,2,0:0:0:0:
205,198,136609,1,2,0:0:0:0:
136,206,136690,5,8,0:0:0:0:
179,151,136771,1,2,0:0:0:0:
236,111,136852,1,2,0:0:0:0:
303,91,136933,1,2,0:0:0:0:
372,91,137014,6,0,P|413:104|454:133,1,87.5,14|0,0:0|0:0,0:0:0:0:
196,42,137177,2,0,P|155:29|114:0,1,87.5,2|0,0:0|0:0,0:0:0:0:
307,207,137339,5,8,0:0:0:0:
371,190,137420,1,2,0:0:0:0:
412,241,137501,1,2,0:0:0:0:
383,300,137582,1,2,0:0:0:0:
317,298,137663,5,8,0:0:0:0:
267,347,137744,1,2,0:0:0:0:
201,368,137825,1,2,0:0:0:0:
133,357,137906,1,2,0:0:0:0:
77,316,137987,1,8,0:0:0:0:
45,255,138068,1,2,0:0:0:0:
44,185,138149,1,2,0:0:0:0:
75,123,138230,1,2,0:0:0:0:
130,79,138312,6,0,L|209:34,1,87.5,14|0,0:0|0:0,0:0:0:0:
221,241,138474,2,0,L|144:284,1,87.5,2|0,0:0|0:0,0:0:0:0:
293,34,138636,5,8,0:0:0:0:
361,47,138717,1,2,0:0:0:0:
420,84,138798,1,2,0:0:0:0:
463,138,138879,1,2,0:0:0:0:
470,207,138960,5,8,0:0:0:0:
443,145,139041,1,2,0:0:0:0:
382,113,139122,1,2,0:0:0:0:
315,125,139203,1,2,0:0:0:0:
269,177,139284,1,8,0:0:0:0:
223,228,139366,1,2,0:0:0:0:
154,239,139447,1,2,0:0:0:0:
94,207,139528,1,2,0:0:0:0:
55,149,139609,6,0,P|51:105|56:62,1,87.5,14|0,0:0|0:0,0:0:0:0:
92,283,139771,2,0,P|95:326|90:369,1,87.5,2|0,0:0|0:0,0:0:0:0:
168,70,139933,5,8,0:0:0:0:
220,37,140014,1,2,0:0:0:0:
278,21,140095,1,2,0:0:0:0:
339,22,140176,1,2,0:0:0:0:
395,39,140258,5,8,0:0:0:0:
369,99,140339,1,2,0:0:0:0:
335,154,140420,1,2,0:0:0:0:
294,204,140501,1,2,0:0:0:0:
247,248,140582,1,8,0:0:0:0:
188,271,140663,1,2,0:0:0:0:
126,255,140744,1,2,0:0:0:0:
87,204,140825,1,2,0:0:0:0:
86,141,140906,5,14,0:0:0:0:
149,127,140987,1,0,0:0:0:0:
213,132,141068,1,2,0:0:0:0:
273,157,141149,1,0,0:0:0:0:
321,200,141230,1,8,0:0:0:0:
376,232,141312,1,2,0:0:0:0:
437,214,141393,1,2,0:0:0:0:
466,158,141474,1,2,0:0:0:0:
445,98,141555,5,8,0:0:0:0:
390,58,141636,1,2,0:0:0:0:
321,59,141717,1,2,0:0:0:0:
267,102,141798,1,2,0:0:0:0:
249,168,141879,1,8,0:0:0:0:
232,235,141960,1,2,0:0:0:0:
178,277,142041,1,2,0:0:0:0:
109,279,142122,1,2,0:0:0:0:
54,238,142204,5,14,0:0:0:0:
115,202,142285,1,0,0:0:0:0:
185,200,142366,1,2,0:0:0:0:
249,227,142447,1,0,0:0:0:0:
296,279,142528,1,8,0:0:0:0:
361,255,142609,1,2,0:0:0:0:
418,214,142690,1,2,0:0:0:0:
461,159,142771,1,2,0:0:0:0:
487,95,142852,5,8,0:0:0:0:
452,29,142933,1,2,0:0:0:0:
379,15,143014,1,2,0:0:0:0:
317,60,143095,1,2,0:0:0:0:
297,134,143176,1,8,0:0:0:0:
278,209,143258,1,2,0:0:0:0:
215,254,143339,1,2,0:0:0:0:
138,247,143420,1,2,0:0:0:0:
83,193,143501,5,14,0:0:0:0:
82,118,143582,1,0,0:0:0:0:
147,80,143663,1,2,0:0:0:0:
221,109,143744,1,0,0:0:0:0:
269,170,143825,1,8,0:0:0:0:
342,151,143906,1,2,0:0:0:0:
366,80,143987,1,2,0:0:0:0:
320,20,144068,1,2,0:0:0:0:
245,26,144149,5,8,0:0:0:0:
204,98,144230,1,2,0:0:0:0:
248,170,144311,1,2,0:0:0:0:
248,255,144393,1,2,0:0:0:0:
190,316,144474,1,8,0:0:0:0:
111,291,144555,1,2,0:0:0:0:
73,217,144636,1,2,0:0:0:0:
122,149,144717,1,2,0:0:0:0:
195,120,144798,6,0,P|221:91|210:131,1,105.000004005432,14|0,0:0|0:0,0:0:0:0:
13,31,144960,2,0,P|44:4|28:42,1,105.000004005432,2|0,0:0|0:0,0:0:0:0:
189,341,145122,5,12,0:0:0:0:
271,346,145204,1,6,0:0:0:0:
302,270,145285,1,6,0:0:0:0:
240,217,145366,1,6,0:0:0:0:
167,257,145447,6,0,B|54:236|75:27|276:84|249:199|249:199|328:198|328:198|343:64|228:-40|59:-12|-22:68|-25:259|84:297|84:297,1,1050,0|0,1:2|0:0,0:0:0:0:
329,198,150636,6,0,P|160:31|27:186,1,490,0|0,1:2|0:0,0:0:0:0:
217,261,153231,6,0,P|172:93|127:253,1,455.700014254532,0|0,0:0|0:0,0:0:0:0:
313,288,155825,6,0,B|371:219|338:118|338:118|389:208|484:212|484:212|389:235,1,455.700014254532,0|0,1:2|0:0,0:0:0:0:
177,180,158420,6,0,B|91:158|91:158|113:81|207:53|298:106|301:220|208:266,1,455.700014254532,0|0,1:2|0:0,0:0:0:0:
289,117,161014,6,0,P|92:83|97:282,1,455.700014254532,0|0,1:2|0:0,0:0:0:0:
350,228,163609,6,0,B|350:285|299:318|226:288|230:206|230:206|230:99|122:99|90:195|163:229,1,455.700014254532,0|0,1:2|0:0,0:0:0:0:
300,134,166204,6,0,B|201:-13|109:98|30:23|30:23|57:104|45:177,1,455.700014254532,0|0,1:2|0:0,0:0:0:0:
246,252,168798,6,0,P|126:120|118:297,1,455.700014254532,0|0,1:2|0:0,0:0:0:0:
346,295,171393,6,0,B|362:271|361:222|361:222|264:166|264:166|311:285|188:350|118:297,1,455.700014254532,0|0,1:2|0:0,0:0:0:0:
264,167,173987,6,0,L|437:266,1,195.300006109085,0|0,1:2|0:0,0:0:0:0:
256,192,175285,12,0,176501,0:0:0:0:
171,35,176582,6,0,P|384:68|391:307,1,490,0|0,1:2|0:0,0:0:0:0:
171,35,179177,6,0,P|172:249|353:155,1,490,0|0,1:2|0:0,0:0:0:0:
232,143,181771,6,0,P|424:67|412:273,1,490,0|0,1:2|0:0,0:0:0:0:
195,0,184366,6,0,P|191:226|412:273,1,490,0|0,1:2|0:0,0:0:0:0:
257,45,186960,6,0,B|186:114|261:256|378:205|378:205|357:126|390:59|377:-2,1,490,0|0,1:2|0:0,0:0:0:0:
373,290,189555,6,0,B|221:312|113:185|168:34|168:34|133:64|90:73,1,490,0|0,1:2|0:0,0:0:0:0:
23,235,192149,6,0,B|41:209|57:165|57:165|85:312|177:277|149:396|77:401|28:352|99:215|171:227|232:260,1,490,0|0,1:2|0:0,0:0:0:0:
429,367,194744,6,0,B|328:298|288:197|310:153|413:134|452:219|432:265|328:298|214:252,1,490,0|0,1:2|0:0,0:0:0:0:
315,103,197339,6,0,B|206:113|104:46|104:46|66:202|219:253,1,490,0|0,1:2|0:0,0:0:0:0:
466,46,199933,6,0,B|454:144|469:226|469:226|409:72|346:99|279:114|215:96,1,490,0|0,1:2|0:0,0:0:0:0:
281,213,202528,6,0,P|99:233|220:96,1,472.5,0|0,1:2|0:0,0:0:0:0:
256,192,205122,12,0,206339,0:0:0:0:
256,192,206420,12,0,207637,0:0:0:0:
186,360,207717,6,0,B|239:343|265:286|265:286|304:332|333:315|333:315|364:324|364:324|416:286|460:314|460:314|506:309,1,350,0|0,1:2|0:0,0:0:0:0:
247,207,208690,6,0,P|214:222|194:248,1,68.2499968757631,0|0,1:2|0:0,0:0:0:0:
341,212,209014,6,0,B|341:152|296:112|240:115|240:115|276:38|276:38|225:69|225:69|176:27|120:49|120:49|50:17|-4:46|-4:46|10:87|69:120,1,650.999980133057,0|0,1:2|0:0,0:0:0:0:
162,123,211609,6,0,P|152:160|128:191,1,73.4999977569581,0|0,1:2|0:0,0:0:0:0:
45,291,211933,2,0,P|30:250|41:207,1,89.2500017023087,0|0,1:2|0:0,0:0:0:0:
229,272,212258,2,0,P|180:285|124:272,1,105,0|0,1:2|0:0,0:0:0:0:
293,161,212582,2,0,B|310:197|310:197|300:213|300:213|321:237|321:271,1,120.750002303124,0|0,1:2|0:0,0:0:0:0:
270,349,212906,6,0,B|345:382|393:328|393:328|440:349|440:349|475:308|450:243|450:243|484:199|484:199|458:167|464:115,1,440.999986541748,0|0,1:2|0:0,0:0:0:0:
447,40,214487,6,0,P|404:56|381:83,1,80.5000015354157,0|0,1:2|0:0,0:0:0:0:
318,281,214852,2,0,B|331:238|331:238|322:226|322:226|339:187|320:150,1,136.499993751526,0|0,1:2|0:0,0:0:0:0:
252,189,215177,2,0,P|212:238|192:300,1,120.750002303124,0|0,1:2|0:0,0:0:0:0:
112,253,215501,6,0,B|129:194|97:138|97:138|115:118|115:118|65:75|84:11,1,244.999992523194,0|0,1:2|0:0,0:0:0:0:
176,40,216474,6,0,P|230:71|288:80,1,120.750002303124,0|0,1:2|0:0,0:0:0:0:
376,69,216798,2,0,P|364:128|373:187,1,120.750002303124,0|0,1:2|0:0,0:0:0:0:
411,268,217122,2,0,P|349:275|296:302,1,120.750002303124,0|0,1:2|0:0,0:0:0:0:
232,362,217447,2,0,P|208:308|166:265,1,120.750002303124,0|0,1:2|0:0,0:0:0:0:
87,222,217771,2,0,P|133:180|160:127,1,120.750002303124,0|0,1:2|0:0,0:0:0:0:
374,112,218095,6,0,L|442:130,1,70,8|2,0:0|0:0,0:0:0:0:
267,116,218420,2,0,L|286:48,1,70,8|2,0:0|0:0,0:0:0:0:
271,223,218744,2,0,L|204:204,1,70,8|2,0:0|0:0,0:0:0:0:
379,220,219069,2,0,L|360:287,1,70,8|0,0:0|0:0,0:0:0:0:
267,116,219393,6,0,L|289:36,1,80.5000015354157,8|2,0:0|0:0,0:0:0:0:
204,204,219717,2,0,L|182:122,1,80.5000015354157,8|2,0:0|0:0,0:0:0:0:
123,8,220041,2,0,L|101:87,1,80.5000015354157,8|2,0:0|0:0,0:0:0:0:
41,182,220365,2,0,L|18:105,1,80.5000015354157,8|2,0:0|0:0,0:0:0:0:
185,56,220690,6,0,P|146:80|102:86,1,90.9999958343508,8|2,0:0|0:0,0:0:0:0:
259,109,221014,2,0,P|297:85|342:79,1,90.9999958343508,8|2,0:0|0:0,0:0:0:0:
106,189,221339,2,0,P|151:183|190:160,1,90.9999958343508,8|2,0:0|0:0,0:0:0:0:
347,182,221663,2,0,P|302:188|264:212,1,90.9999958343508,8|2,0:0|0:0,0:0:0:0:
126,108,221987,6,0,P|130:57|157:15,1,101.500003097534,8|2,0:0|0:0,0:0:0:0:
329,263,222312,2,0,P|324:313|297:355,1,101.500003097534,8|2,0:0|0:0,0:0:0:0:
205,84,222636,2,0,L|307:84,1,101.500003097534,8|2,0:0|0:0,0:0:0:0:
249,287,222961,2,0,L|146:287,1,101.500003097534,8|2,0:0|0:0,0:0:0:0:
358,156,223285,6,0,B|390:119|390:119|390:56,1,112,8|2,0:0|0:0,0:0:0:0:
96,216,223609,2,0,B|65:254|65:254|65:317,1,112,8|2,0:0|0:0,0:0:0:0:
196,55,223933,2,0,B|160:23|160:23|97:23,1,112,8|2,0:0|0:0,0:0:0:0:
257,317,224257,2,0,B|295:347|295:347|358:348,1,112,8|2,0:0|0:0,0:0:0:0:
410,41,224582,6,0,L|399:163,1,122.500001168251,8|2,0:0|0:0,0:0:0:0:
121,302,224906,2,0,L|109:180,1,122.500001168251,8|2,0:0|0:0,0:0:0:0:
411,249,225231,2,0,L|289:237,1,122.500001168251,8|2,0:0|0:0,0:0:0:0:
83,98,225555,2,0,L|204:86,1,122.500001168251,8|2,0:0|0:0,0:0:0:0:
438,335,225879,6,0,B|485:286|485:286|495:219,1,132.999996448517,8|2,0:0|0:0,0:0:0:0:
56,16,226204,2,0,B|9:65|9:65|-1:132,1,132.999996448517,8|2,0:0|0:0,0:0:0:0:
496,143,226528,2,0,B|494:75|494:75|454:20,1,132.999996448517,8|2,0:0|0:0,0:0:0:0:
0,208,226853,2,0,B|-8:276|-8:276|31:331,1,132.999996448517,8|2,0:0|0:0,0:0:0:0:
168,53,227177,5,8,0:0:0:0:
89,189,227339,1,8,3:2:0:0:
404,190,227501,5,8,0:0:0:0:
325,53,227663,1,8,0:0:0:0:
168,326,227825,5,8,0:0:0:0:
325,326,227987,1,8,0:0:0:0:
248,189,228149,1,8,0:0:0:0:
248,189,228474,5,8,0:0:0:0:
325,326,228636,1,2,0:0:0:0:
325,53,228798,1,8,0:0:0:0:
404,190,228960,1,2,0:0:0:0:
89,189,229122,1,8,0:0:0:0:
168,53,229285,5,2,0:0:0:0:
246,277,229447,1,8,0:0:0:0:
323,137,229609,1,2,0:0:0:0:
30,251,229771,5,8,0:0:0:0:
130,381,229933,1,2,0:0:0:0:
104,118,230095,5,8,0:0:0:0:
125,280,230257,1,2,0:0:0:0:
237,42,230420,5,8,0:0:0:0:
174,192,230582,1,2,0:0:0:0:
391,42,230744,5,8,0:0:0:0:
261,140,230906,1,2,0:0:0:0:
495,196,231068,5,8,0:0:0:0:
357,134,231231,1,2,0:0:0:0:
437,354,231393,1,8,0:0:0:0:
409,206,231555,1,2,0:0:0:0:
249,384,231717,1,8,0:0:0:0:
173,234,231879,5,2,0:0:0:0:
473,278,232041,1,8,0:0:0:0:
357,134,232204,1,2,0:0:0:0:
188,318,232366,5,8,0:0:0:0:
366,330,232528,1,2,0:0:0:0:
209,174,232690,1,8,0:0:0:0:
312,309,232852,1,2,0:0:0:0:
74,306,233014,1,8,0:0:0:0:
269,298,233177,1,2,0:0:0:0:
170,104,233339,5,8,0:0:0:0:
166,256,233501,1,2,0:0:0:0:
302,27,233663,5,8,0:0:0:0:
241,174,233825,1,2,0:0:0:0:
439,25,233987,1,8,0:0:0:0:
500,172,234149,1,2,0:0:0:0:
276,102,234312,1,8,0:0:0:0:
215,249,234474,1,2,0:0:0:0:
413,100,234636,1,8,0:0:0:0:
474,247,234798,1,2,0:0:0:0:
193,150,234960,1,8,0:0:0:0:
236,341,235122,1,2,0:0:0:0:
302,110,235285,5,8,0:0:0:0:
215,249,235447,1,2,0:0:0:0:
148,33,235609,5,8,0:0:0:0:
302,110,235771,1,2,0:0:0:0:
77,0,235933,5,8,0:0:0:0:
0,150,236095,1,2,0:0:0:0:
230,48,236258,5,8,0:0:0:0:
65,74,236420,1,2,0:0:0:0:
314,35,236582,1,8,0:0:0:0:
149,61,236744,1,2,0:0:0:0:
340,200,236906,1,8,0:0:0:0:
314,35,237068,1,2,0:0:0:0:
353,284,237230,1,8,0:0:0:0:
327,119,237392,1,2,0:0:0:0:
188,310,237555,1,8,0:0:0:0:
353,284,237717,1,2,0:0:0:0:
104,323,237879,1,8,0:0:0:0:
269,297,238041,1,2,0:0:0:0:
78,158,238204,1,8,0:0:0:0:
104,323,238366,1,2,0:0:0:0:
65,74,238528,1,8,0:0:0:0:
91,239,238690,1,2,0:0:0:0:
297,20,238852,5,8,0:0:0:0:
370,159,239014,1,2,0:0:0:0:
457,28,239177,1,8,0:0:0:0:
370,197,239339,1,2,0:0:0:0:
148,53,239501,6,0,P|115:91|97:155,1,105.000004005432,12|0,0:0|0:0,0:0:0:0:
89,286,239663,1,2,0:0:0:0:
246,120,239825,1,8,0:0:0:0:
246,303,239987,1,2,0:0:0:0:
333,64,240149,5,8,0:0:0:0:
333,247,240311,1,2,0:0:0:0:
418,14,240474,5,8,0:0:0:0:
418,197,240636,1,2,0:0:0:0:
143,11,240798,6,0,P|129:61|147:109,1,105.000004005432,12|0,0:0|0:0,0:0:0:0:
225,201,240960,1,2,0:0:0:0:
418,14,241122,5,8,0:0:0:0:
219,53,241285,1,2,0:0:0:0:
468,131,241447,5,8,0:0:0:0:
328,48,241609,1,2,0:0:0:0:
467,269,241771,1,8,0:0:0:0:
366,146,241933,1,2,0:0:0:0:
230,373,242095,6,0,P|178:359|145:319,1,105.000004005432,12|0,0:0|0:0,0:0:0:0:
87,213,242258,1,2,0:0:0:0:
368,249,242420,5,8,0:0:0:0:
224,291,242582,1,2,0:0:0:0:
250,72,242744,1,8,0:0:0:0:
281,223,242906,1,2,0:0:0:0:
164,41,243068,1,8,0:0:0:0:
61,158,243230,1,2,0:0:0:0:
290,134,243393,6,0,L|380:190,1,105.000004005432,12|0,0:0|0:0,0:0:0:0:
495,267,243555,1,2,0:0:0:0:
456,64,243717,5,8,0:0:0:0:
379,189,243879,1,2,0:0:0:0:
276,36,244041,5,8,0:0:0:0:
406,122,244204,1,2,0:0:0:0:
179,16,244366,1,8,0:0:0:0:
123,163,244529,1,2,0:0:0:0:
472,252,244690,6,0,P|444:295|396:320,1,105.000004005432,12|0,0:0|0:0,0:0:0:0:
253,328,244852,1,2,0:0:0:0:
422,148,245014,1,8,0:0:0:0:
169,208,245177,1,2,0:0:0:0:
326,371,245339,5,8,0:0:0:0:
348,182,245501,1,2,0:0:0:0:
54,257,245663,5,8,0:0:0:0:
181,360,245825,1,2,0:0:0:0:
214,64,245987,6,0,P|256:94|272:143,1,105.000004005432,12|0,0:0|0:0,0:0:0:0:
259,287,246149,1,2,0:0:0:0:
367,21,246312,5,8,0:0:0:0:
175,155,246474,1,2,0:0:0:0:
354,300,246636,5,8,0:0:0:0:
434,144,246798,1,2,0:0:0:0:
290,52,246960,1,8,0:0:0:0:
203,203,247122,1,2,0:0:0:0:
491,89,247285,6,0,P|512:139|498:188,1,105.000004005432,12|0,0:0|0:0,0:0:0:0:
432,311,247447,1,2,0:0:0:0:
318,177,247609,1,8,0:0:0:0:
214,316,247771,1,2,0:0:0:0:
318,177,247933,5,8,0:0:0:0:
128,181,248095,1,2,0:0:0:0:
327,289,248258,1,8,0:0:0:0:
306,59,248420,1,2,0:0:0:0:
20,315,248582,6,0,L|20:207,1,105.000004005432,12|0,0:0|0:0,0:0:0:0:
19,70,248744,1,2,0:0:0:0:
176,309,248906,1,12,0:0:0:0:
431,24,249068,1,6,0:0:0:0:
20,315,249231,5,8,0:0:0:0:
273,304,249393,2,0,L|370:299,1,96.2500009179115,2|0,0:0|0:0,0:0:0:0:
176,309,249555,1,8,0:0:0:0:
315,161,249717,2,0,L|373:80,1,96.2500009179115,2|0,0:0|0:0,0:0:0:0:
485,292,249879,5,12,1:2:0:0:
282,82,250041,2,0,P|244:54|197:49,1,96.2500009179115,2|0,1:2|1:2,0:0:0:0:
137,204,250204,2,0,P|180:185|209:147,1,96.2500009179115,8|0,0:0|0:0,0:0:0:0:
104,18,250366,2,0,P|100:65|119:108,1,96.2500009179115,2|0,0:0|0:0,0:0:0:0:
49,313,250528,5,8,0:0:0:0:
274,226,250690,2,0,L|361:184,1,96.2500009179115,2|0,0:0|0:0,0:0:0:0:
44,148,250852,1,8,0:0:0:0:
274,226,251014,2,0,L|367:262,1,96.2500009179115,2|0,0:0|0:0,0:0:0:0:
167,9,251177,5,12,0:0:0:0:
274,226,251339,2,0,L|314:317,1,96.2500009179115,2|0,0:0|0:0,0:0:0:0:
44,148,251501,1,8,1:2:0:0:
11,200,251582,1,0,1:2:0:0:
12,261,251663,1,2,1:2:0:0:
43,313,251744,1,0,1:2:0:0:
115,357,251825,5,8,0:0:0:0:
189,85,251987,2,0,L|164:179,1,96.2500009179115,2|0,0:0|0:0,0:0:0:0:
213,347,252149,1,8,0:0:0:0:
287,75,252311,2,0,L|262:169,1,96.2500009179115,2|0,0:0|0:0,0:0:0:0:
459,357,252474,5,12,0:0:0:0:
385,85,252636,2,0,L|410:179,1,96.2500009179115,2|0,0:0|0:0,0:0:0:0:
361,347,252798,1,8,0:0:0:0:
287,75,252960,2,0,L|312:169,1,96.2500009179115,2|0,0:0|0:0,0:0:0:0:
213,347,253122,5,8,0:0:0:0:
179,169,253285,2,0,L|157:74,1,96.2500009179115,2|0,0:0|0:0,0:0:0:0:
60,288,253447,1,8,1:2:0:0:
36,231,253528,1,0,1:2:0:0:
23,172,253609,1,2,1:2:0:0:
23,111,253690,1,0,1:2:0:0:
53,34,253771,5,12,0:0:0:0:
311,168,253933,2,0,B|325:121|324:71,1,96.2500009179115,2|0,0:0|0:0,0:0:0:0:
457,232,254095,1,8,0:0:0:0:
241,109,254257,2,0,B|218:64|215:13,1,96.2500009179115,2|0,0:0|0:0,0:0:0:0:
206,308,254420,5,8,0:0:0:0:
399,169,254582,2,0,P|387:215|358:253,1,96.2500009179115,2|0,0:0|0:0,0:0:0:0:
206,308,254744,1,8,0:0:0:0:
457,232,254906,2,0,P|416:256|369:262,1,96.2500009179115,2|0,0:0|0:0,0:0:0:0:
139,173,255068,5,12,1:2:0:0:
454,316,255231,2,0,P|408:303|369:273,1,96.2500009179115,2|0,1:2|1:2,0:0:0:0:
139,173,255393,1,8,0:0:0:0:
392,374,255555,2,0,P|367:332|362:284,1,96.2500009179115,2|0,0:0|0:0,0:0:0:0:
279,48,255717,5,8,0:0:0:0:
165,222,255879,2,0,L|116:309,1,96.2500009179115,2|0,0:0|0:0,0:0:0:0:
447,174,256041,2,0,P|416:137|371:122,1,96.2500009179115,8|0,0:0|0:0,0:0:0:0:
289,163,256203,2,0,P|337:151|374:120,1,96.2500009179115,2|0,0:0|0:0,0:0:0:0:
375,28,256366,6,0,P|363:73|372:119,1,96.2500009179115,12|0,0:0|0:0,0:0:0:0:
374,230,256528,1,2,0:0:0:0:
54,157,256690,1,8,1:2:0:0:
44,216,256771,1,0,1:2:0:0:
68,272,256852,1,2,1:2:0:0:
118,306,256933,1,0,1:2:0:0:
193,335,257014,5,8,0:0:0:0:
261,154,257177,2,0,L|230:245,1,96.2500009179115,2|0,0:0|0:0,0:0:0:0:
85,234,257339,1,8,0:0:0:0:
261,154,257501,2,0,L|174:196,1,96.2500009179115,2|0,0:0|0:0,0:0:0:0:
85,86,257663,5,12,0:0:0:0:
261,154,257825,2,0,L|170:122,1,96.2500009179115,2|0,0:0|0:0,0:0:0:0:
342,44,257987,1,8,0:0:0:0:
336,250,258149,2,0,P|324:296|291:330,1,96.2500009179115,2|0,0:0|0:0,0:0:0:0:
244,68,258312,5,8,0:0:0:0:
336,250,258474,2,0,P|366:286|410:303,1,96.2500009179115,2|0,0:0|0:0,0:0:0:0:
253,255,258636,1,8,1:2:0:0:
197,296,258717,1,0,1:2:0:0:
127,296,258798,1,2,1:2:0:0:
73,252,258879,1,0,1:2:0:0:
35,178,258960,6,0,L|6:87,1,96.2500009179115,12|0,0:0|0:0,0:0:0:0:
144,89,259122,2,0,L|187:4,1,96.2500009179115,2|0,0:0|0:0,0:0:0:0:
391,79,259285,2,0,L|300:108,1,96.2500009179115,8|0,1:2|0:0,0:0:0:0:
414,305,259447,2,0,L|336:250,1,96.2500009179115,2|0,1:2|0:0,0:0:0:0:
230,84,259609,5,8,0:0:0:0:
127,334,259771,1,2,0:0:0:0:
230,84,259933,1,8,0:0:0:0:
127,334,260095,1,2,0:0:0:0:
296,18,260258,6,0,P|322:63|319:118,1,105.000004005432,12|0,1:2|1:2,0:0:0:0:
247,208,260420,1,2,1:2:0:0:
121,41,260582,5,8,0:0:0:0:
81,254,260744,1,2,0:0:0:0:
210,22,260906,5,8,0:0:0:0:
342,231,261068,1,2,0:0:0:0:
121,41,261231,5,8,0:0:0:0:
310,136,261393,1,2,0:0:0:0:
12,174,261555,6,0,P|11:125|42:79,1,105.000004005432,12|0,0:0|0:0,0:0:0:0:
121,41,261717,1,2,0:0:0:0:
1,317,261879,5,8,1:2:0:0:
90,148,262041,1,2,1:2:0:0:
293,355,262204,5,8,0:0:0:0:
214,179,262366,1,2,0:0:0:0:
405,192,262528,1,8,0:0:0:0:
214,179,262690,1,2,0:0:0:0:
451,342,262852,5,12,0:0:0:0:
311,28,263014,1,2,0:0:0:0:
185,346,263177,5,8,0:0:0:0:
111,30,263339,1,2,0:0:0:0:
487,214,263501,5,8,0:0:0:0:
226,27,263663,1,2,0:0:0:0:
271,261,263825,2,0,P|243:222|230:180,1,87.5,8|0,1:2|1:2,0:0:0:0:
190,108,263987,2,0,P|218:146|231:187,1,87.5,2|0,1:2|1:2,0:0:0:0:
269,350,264149,5,12,0:0:0:0:
348,172,264312,1,2,0:0:0:0:
114,205,264474,5,8,0:0:0:0:
129,7,264636,1,2,0:0:0:0:
271,261,264798,5,8,0:0:0:0:
190,108,264960,1,2,0:0:0:0:
163,286,265122,1,8,0:0:0:0:
248,116,265284,1,2,0:0:0:0:
76,283,265447,6,2,L|116:200,1,87.5,12|0,1:2|1:2,0:0:0:0:
271,261,265609,2,0,L|240:346,1,87.5,2|0,1:2|1:2,0:0:0:0:
130,369,265771,1,8,0:0:0:0:
205,192,265933,1,2,0:0:0:0:
130,369,266095,5,8,0:0:0:0:
205,192,266258,1,2,0:0:0:0:
433,355,266420,6,0,L|457:265,1,87.5,8|0,0:0|0:0,0:0:0:0:
492,131,266582,1,2,0:0:0:0:
256,264,266744,5,12,0:0:0:0:
456,271,266906,1,2,0:0:0:0:
206,86,267068,6,0,L|276:140,1,87.5,8|0,1:2|1:2,0:0:0:0:
345,194,267231,2,0,L|274:139,1,87.5,2|0,1:2|0:0,0:0:0:0:
184,171,267393,5,8,0:0:0:0:
365,107,267555,1,2,0:0:0:0:
184,171,267717,1,8,0:0:0:0:
365,107,267879,1,2,0:0:0:0:
256,264,268041,5,12,0:0:0:0:
292,28,268204,1,2,0:0:0:0:
256,264,268366,1,8,0:0:0:0:
292,28,268529,1,2,0:0:0:0:
355,299,268690,5,8,0:0:0:0:
217,0,268852,1,2,0:0:0:0:
355,299,269014,1,8,1:2:0:0:
217,0,269176,1,2,1:2:0:0:
456,275,269339,5,12,0:0:0:0:
117,34,269501,1,2,0:0:0:0:
456,275,269663,1,12,0:0:0:0:
117,34,269825,1,6,0:0:0:0:
479,209,269987,5,8,0:0:0:0:
470,140,270068,1,2,0:0:0:0:
423,89,270149,1,2,0:0:0:0:
352,83,270231,2,0,P|315:88|280:99,1,70,2|8,0:0|0:0,0:0:0:0:
259,164,270393,1,2,0:0:0:0:
232,226,270474,1,2,0:0:0:0:
171,256,270555,1,2,0:0:0:0:
104,238,270636,6,0,P|66:216|34:186,1,87.5,14|0,0:0|0:0,0:0:0:0:
233,301,270798,2,0,P|271:323|303:353,1,87.5,2|0,0:0|0:0,0:0:0:0:
203,103,270960,6,0,L|193:34,1,70,8|2,0:0|0:0,0:0:0:0:
371,214,271122,2,0,L|382:284,1,70,2|2,0:0|0:0,0:0:0:0:
294,63,271285,6,0,L|349:20,1,70,8|2,0:0|0:0,0:0:0:0:
284,259,271447,2,0,L|230:303,1,70,2|2,0:0|0:0,0:0:0:0:
376,115,271609,6,0,L|442:141,1,70,8|2,0:0|0:0,0:0:0:0:
202,206,271771,2,0,L|137:181,1,70,2|2,0:0|0:0,0:0:0:0:
451,345,271933,6,0,P|469:306|472:262,1,87.5,14|0,0:0|0:0,0:0:0:0:
512,71,272095,2,0,P|495:111|492:155,1,87.5,2|0,0:0|0:0,0:0:0:0:
382,284,272258,6,0,L|371:214,1,70,8|2,0:0|0:0,0:0:0:0:
193,34,272420,2,0,L|203:103,1,70,2|2,0:0|0:0,0:0:0:0:
128,305,272582,5,8,0:0:0:0:
191,341,272663,1,2,0:0:0:0:
260,349,272744,1,2,0:0:0:0:
327,327,272825,2,0,L|383:283,1,70,2|8,0:0|0:0,0:0:0:0:
409,218,272987,1,2,0:0:0:0:
409,147,273068,1,2,0:0:0:0:
382,84,273149,1,2,0:0:0:0:
333,35,273231,6,0,P|291:20|248:11,1,87.5,14|0,0:0|0:0,0:0:0:0:
120,79,273393,2,0,P|163:95|206:104,1,87.5,2|0,0:0|0:0,0:0:0:0:
333,180,273555,6,0,L|264:202,1,70,8|2,0:0|0:0,0:0:0:0:
120,238,273717,2,0,L|189:260,1,70,2|2,0:0|0:0,0:0:0:0:
432,251,273879,5,8,0:0:0:0:
391,308,273960,1,2,0:0:0:0:
324,314,274041,1,2,0:0:0:0:
272,272,274122,2,0,L|266:188,1,70,2|8,0:0|0:0,0:0:0:0:
258,136,274285,1,2,0:0:0:0:
205,93,274366,1,2,0:0:0:0:
138,101,274447,1,2,0:0:0:0:
97,154,274528,6,0,L|121:239,1,87.5,14|0,0:0|0:0,0:0:0:0:
81,384,274690,2,0,L|57:299,1,87.5,2|0,0:0|0:0,0:0:0:0:
36,218,274852,6,0,L|17:150,1,70,8|2,0:0|0:0,0:0:0:0:
145,317,275014,2,0,L|163:384,1,70,2|2,0:0|0:0,0:0:0:0:
144,32,275177,5,8,0:0:0:0:
138,101,275258,1,2,0:0:0:0:
156,169,275339,1,2,0:0:0:0:
198,224,275420,2,0,L|276:268,1,70,2|8,0:0|0:0,0:0:0:0:
328,263,275582,1,2,0:0:0:0:
395,238,275663,1,2,0:0:0:0:
444,191,275744,1,2,0:0:0:0:
471,126,275825,6,0,P|472:83|463:36,1,87.5,14|0,0:0|0:0,0:0:0:0:
466,265,275987,2,0,P|465:308|474:355,1,87.5,2|0,0:0|0:0,0:0:0:0:
336,187,276149,5,8,0:0:0:0:
310,125,276230,1,2,0:0:0:0:
251,89,276311,1,2,0:0:0:0:
183,96,276392,1,2,0:0:0:0:
131,142,276473,1,8,0:0:0:0:
117,209,276554,1,2,0:0:0:0:
146,272,276635,1,2,0:0:0:0:
206,305,276716,1,2,0:0:0:0:
271,336,276798,6,0,L|343:336,1,70,8|2,0:0|0:0,0:0:0:0:
466,265,276960,2,0,L|394:265,1,70,2|2,0:0|0:0,0:0:0:0:
91,330,277122,6,0,P|52:313|11:281,1,87.5,14|0,0:0|0:0,0:0:0:0:
200,208,277285,2,0,P|240:226|281:258,1,87.5,2|0,0:0|0:0,0:0:0:0:
77,164,277447,6,0,L|7:164,1,70,8|2,0:0|0:0,0:0:0:0:
186,92,277609,2,0,L|256:92,1,70,2|2,0:0|0:0,0:0:0:0:
388,253,277771,5,8,0:0:0:0:
436,203,277852,1,2,0:0:0:0:
448,135,277933,1,2,0:0:0:0:
423,71,278014,2,0,P|401:47|364:30,1,70,2|8,0:0|0:0,0:0:0:0:
300,40,278176,1,2,0:0:0:0:
256,92,278257,1,2,0:0:0:0:
258,160,278338,1,2,0:0:0:0:
258,231,278420,6,0,P|246:273|227:311,1,87.5,14|0,0:0|0:0,0:0:0:0:
329,190,278582,2,0,P|342:149|361:111,1,87.5,2|0,0:0|0:0,0:0:0:0:
169,248,278744,5,8,0:0:0:0:
106,275,278825,1,2,0:0:0:0:
41,254,278906,1,2,0:0:0:0:
5,196,278987,1,2,0:0:0:0:
15,128,279068,1,8,0:0:0:0:
66,83,279149,1,2,0:0:0:0:
134,81,279230,1,2,0:0:0:0:
188,125,279312,2,0,P|210:151|230:183,1,70,2|8,0:0|0:0,0:0:0:0:
287,218,279474,1,2,0:0:0:0:
356,228,279555,1,2,0:0:0:0:
424,211,279636,1,2,0:0:0:0:
479,169,279717,6,0,L|478:78,1,87.5,14|0,0:0|0:0,0:0:0:0:
314,297,279879,2,0,L|315:387,1,87.5,2|0,0:0|0:0,0:0:0:0:
305,71,280041,6,0,P|300:54|299:59,3,70,8|2|2|2,0:0|0:0|0:0|0:0,0:0:0:0:
45,92,280366,5,8,0:0:0:0:
108,66,280447,1,2,0:0:0:0:
175,84,280528,1,2,0:0:0:0:
218,138,280609,2,0,L|205:211,1,70,2|8,0:0|0:0,0:0:0:0:
222,274,280771,1,2,0:0:0:0:
265,328,280852,1,2,0:0:0:0:
331,346,280933,1,2,0:0:0:0:
395,320,281014,6,0,L|460:260,1,87.5,14|0,0:0|0:0,0:0:0:0:
499,108,281176,2,0,L|434:168,1,87.5,2|0,0:0|0:0,0:0:0:0:
387,227,281339,6,0,P|368:201|356:165,1,70,8|2,0:0|0:0,0:0:0:0:
315,30,281501,2,0,P|335:57|346:92,1,70,2|2,0:0|0:0,0:0:0:0:
305,247,281663,6,0,P|284:219|271:179,1,70,8|2,0:0|0:0,0:0:0:0:
226,31,281825,2,0,P|248:60|261:100,1,70,2|2,0:0|0:0,0:0:0:0:
221,267,281987,6,0,P|198:236|184:192,1,70,8|2,0:0|0:0,0:0:0:0:
135,30,282149,2,0,P|159:62|173:106,1,70,2|2,0:0|0:0,0:0:0:0:
179,352,282312,6,0,L|267:352,1,87.5,14|0,0:0|0:0,0:0:0:0:
87,352,282474,2,0,L|-1:352,1,87.5,2|0,0:0|0:0,0:0:0:0:
81,91,282636,6,0,P|66:59|44:31,1,70,8|2,0:0|0:0,0:0:0:0:
102,232,282798,2,0,P|117:264|138:291,1,70,2|2,0:0|0:0,0:0:0:0:
249,95,282960,5,8,0:0:0:0:
198,140,283041,1,2,0:0:0:0:
187,208,283122,1,2,0:0:0:0:
222,266,283204,2,0,L|301:300,1,70,2|8,0:0|0:0,0:0:0:0:
351,265,283365,1,2,0:0:0:0:
385,206,283446,1,2,0:0:0:0:
373,139,283527,1,2,0:0:0:0:
320,95,283609,6,0,P|296:55|286:11,1,87.5,14|0,0:0|0:0,0:0:0:0:
446,160,283771,2,0,P|471:201|481:245,1,87.5,2|0,0:0|0:0,0:0:0:0:
393,57,283933,6,0,L|463:57,1,70,8|2,0:0|0:0,0:0:0:0:
299,174,284095,2,0,L|229:174,1,70,2|2,0:0|0:0,0:0:0:0:
50,119,284258,5,8,0:0:0:0:
90,63,284339,1,2,0:0:0:0:
148,24,284420,1,2,0:0:0:0:
216,10,284501,2,0,L|304:18,1,70,2|8,0:0|0:0,0:0:0:0:
341,62,284663,1,2,0:0:0:0:
379,121,284744,1,2,0:0:0:0:
391,189,284825,1,2,0:0:0:0:
375,257,284906,6,0,L|335:340,1,87.5,14|0,0:0|0:0,0:0:0:0:
458,138,285068,2,0,L|501:63,1,87.5,2|0,0:0|0:0,0:0:0:0:
450,241,285231,6,0,L|487:303,1,70,8|2,0:0|0:0,0:0:0:0:
313,166,285393,2,0,L|276:104,1,70,2|2,0:0|0:0,0:0:0:0:
266,309,285555,5,8,0:0:0:0:
213,349,285636,1,2,0:0:0:0:
144,362,285717,1,2,0:0:0:0:
77,341,285798,2,0,L|17:288,1,70,2|8,0:0|0:0,0:0:0:0:
10,225,285960,1,2,0:0:0:0:
24,156,286041,1,2,0:0:0:0:
70,104,286122,1,2,0:0:0:0:
141,79,286204,6,0,P|187:78|225:93,1,87.5,14|0,0:0|0:0,0:0:0:0:
397,50,286366,2,0,P|351:51|313:36,1,87.5,2|0,0:0|0:0,0:0:0:0:
103,190,286528,5,8,0:0:0:0:
122,257,286609,1,2,0:0:0:0:
180,293,286690,1,2,0:0:0:0:
243,272,286771,1,2,0:0:0:0:
267,209,286852,1,8,0:0:0:0:
292,144,286933,1,2,0:0:0:0:
356,123,287014,1,2,0:0:0:0:
413,159,287095,1,2,0:0:0:0:
447,223,287177,6,0,P|455:258|453:299,1,70,8|2,0:0|0:0,0:0:0:0:
458,384,287339,2,0,P|451:350|453:309,1,70,2|2,0:0|0:0,0:0:0:0:
469,84,287501,6,0,P|486:45|512:9,1,87.5,14|0,0:0|0:0,0:0:0:0:
374,275,287663,2,0,P|358:315|331:351,1,87.5,2|0,0:0|0:0,0:0:0:0:
285,0,287825,6,0,P|295:34|308:66,1,70,10|2,0:0|0:0,0:0:0:0:
413,159,287987,2,0,P|404:126|384:90,1,70,2|2,0:0|0:0,0:0:0:0:
177,77,288149,5,8,0:0:0:0:
110,100,288230,1,2,0:0:0:0:
70,159,288311,1,2,0:0:0:0:
61,232,288393,2,0,L|88:300,1,70,2|8,0:0|0:0,0:0:0:0:
139,342,288554,1,2,0:0:0:0:
205,363,288635,1,2,0:0:0:0:
273,352,288716,1,2,0:0:0:0:
326,299,288798,6,0,P|337:252|322:205,1,87.5,14|0,0:0|0:0,0:0:0:0:
294,60,288960,2,0,P|285:109|299:155,1,87.5,2|0,0:0|0:0,0:0:0:0:
412,292,289122,5,8,0:0:0:0:
458,240,289203,1,2,0:0:0:0:
478,174,289284,1,2,0:0:0:0:
467,105,289365,1,2,0:0:0:0:
428,48,289446,1,8,0:0:0:0:
368,13,289527,1,2,0:0:0:0:
299,7,289608,1,2,0:0:0:0:
236,34,289690,2,0,L|193:98,1,70,2|8,0:0|0:0,0:0:0:0:
199,161,289852,1,2,0:0:0:0:
199,229,289933,1,2,0:0:0:0:
162,287,290014,1,2,0:0:0:0:
98,314,290095,6,0,P|56:315|12:304,1,87.5,14|0,0:0|0:0,0:0:0:0:
271,106,290258,2,0,P|313:105|357:116,1,87.5,2|0,0:0|0:0,0:0:0:0:
257,328,290420,6,0,P|256:354|248:337,3,70,12|6|6|6,0:0|0:0|0:0|0:0,0:0:0:0:
59,236,290744,5,8,0:0:0:0:
51,168,290825,1,2,0:0:0:0:
73,102,290906,1,2,0:0:0:0:
120,51,290987,2,0,L|191:19,1,70,2|8,0:0|0:0,0:0:0:0:
254,29,291149,1,2,0:0:0:0:
316,61,291230,1,2,0:0:0:0:
357,116,291311,1,2,0:0:0:0:
372,185,291393,6,0,P|375:228|363:270,1,87.5,14|0,0:0|0:0,0:0:0:0:
345,382,291555,2,0,P|342:339|354:297,1,87.5,2|0,0:0|0:0,0:0:0:0:
297,220,291717,6,0,L|231:199,1,70,8|2,0:0|0:0,0:0:0:0:
420,347,291879,2,0,L|486:368,1,70,2|2,0:0|0:0,0:0:0:0:
481,174,292041,5,8,0:0:0:0:
443,114,292122,1,2,0:0:0:0:
384,79,292203,1,2,0:0:0:0:
316,61,292285,2,0,P|282:58|247:66,1,70,2|8,0:0|0:0,0:0:0:0:
186,100,292447,1,2,0:0:0:0:
136,149,292528,1,2,0:0:0:0:
102,211,292609,1,2,0:0:0:0:
90,285,292690,6,0,P|76:329|54:365,1,87.5,14|0,0:0|0:0,0:0:0:0:
73,114,292852,2,0,P|88:71|109:34,1,87.5,2|0,0:0|0:0,0:0:0:0:
214,352,293014,5,8,0:0:0:0:
281,371,293095,1,2,0:0:0:0:
349,361,293176,1,2,0:0:0:0:
409,325,293257,1,2,0:0:0:0:
449,268,293338,1,8,0:0:0:0:
463,200,293419,1,2,0:0:0:0:
449,132,293500,1,2,0:0:0:0:
409,75,293582,2,0,L|348:35,1,70,2|8,0:0|0:0,0:0:0:0:
280,30,293743,1,2,0:0:0:0:
213,48,293824,1,2,0:0:0:0:
159,92,293905,1,2,0:0:0:0:
127,153,293987,6,0,P|107:191|99:235,1,87.5,14|0,0:0|0:0,0:0:0:0:
45,81,294149,2,0,P|66:44|74:0,1,87.5,2|0,0:0|0:0,0:0:0:0:
48,294,294312,5,8,0:0:0:0:
100,341,294393,1,2,0:0:0:0:
167,354,294474,1,2,0:0:0:0:
232,329,294555,1,2,0:0:0:0:
273,274,294636,1,8,0:0:0:0:
280,205,294717,1,2,0:0:0:0:
282,137,294798,1,2,0:0:0:0:
323,81,294879,2,0,P|355:61|385:53,1,70,2|8,0:0|0:0,0:0:0:0:
418,116,295041,5,2,0:0:0:0:
424,186,295122,1,2,0:0:0:0:
400,252,295203,1,2,0:0:0:0:
345,300,295285,6,0,P|323:337|313:379,1,87.5,14|0,0:0|0:0,0:0:0:0:
480,143,295447,2,0,P|502:106|512:64,1,87.5,2|0,0:0|0:0,0:0:0:0:
412,373,295609,6,0,L|481:373,1,70,8|2,0:0|0:0,0:0:0:0:
412,69,295771,2,0,L|343:69,1,70,2|2,0:0|0:0,0:0:0:0:
48,336,295933,5,8,0:0:0:0:
41,269,296014,1,2,0:0:0:0:
56,199,296095,1,2,0:0:0:0:
90,140,296177,2,0,L|146:87,1,70,2|8,0:0|0:0,0:0:0:0:
204,64,296338,1,2,0:0:0:0:
273,55,296419,1,2,0:0:0:0:
342,69,296500,1,2,0:0:0:0:
403,102,296582,6,0,L|473:157,1,87.5,14|0,0:0|0:0,0:0:0:0:
512,348,296744,2,0,L|442:293,1,87.5,2|0,0:0|0:0,0:0:0:0:
264,136,296906,5,8,0:0:0:0:
197,143,296987,1,2,0:0:0:0:
146,188,297068,1,2,0:0:0:0:
131,255,297149,1,2,0:0:0:0:
158,319,297230,1,8,0:0:0:0:
217,354,297311,1,2,0:0:0:0:
287,343,297393,1,2,0:0:0:0:
341,298,297474,1,2,0:0:0:0:
374,237,297555,6,0,L|423:184,1,70,8|2,0:0|0:0,0:0:0:0:
493,109,297717,2,0,L|444:162,1,70,2|2,0:0|0:0,0:0:0:0:
372,313,297879,6,0,P|393:355|423:387,1,87.5,14|0,0:0|0:0,0:0:0:0:
376,71,298041,2,0,P|355:29|325:-3,1,87.5,2|0,0:0|0:0,0:0:0:0:
374,237,298203,6,0,L|325:184,1,70,8|2,0:0|0:0,0:0:0:0:
255,109,298365,2,0,L|304:162,1,70,2|2,0:0|0:0,0:0:0:0:
284,339,298528,5,8,0:0:0:0:
217,354,298609,1,2,0:0:0:0:
149,340,298690,1,2,0:0:0:0:
93,299,298771,2,0,L|54:238,1,70,2|8,0:0|0:0,0:0:0:0:
49,170,298933,1,2,0:0:0:0:
71,105,299014,1,2,0:0:0:0:
118,53,299095,1,2,0:0:0:0:
181,25,299177,6,0,P|224:16|267:17,1,87.5,14|0,0:0|0:0,0:0:0:0:
470,26,299339,2,0,P|427:35|384:34,1,87.5,2|0,0:0|0:0,0:0:0:0:
231,112,299501,6,0,L|162:112,1,70,8|2,0:0|0:0,0:0:0:0:
354,155,299663,2,0,L|423:155,1,70,2|2,0:0|0:0,0:0:0:0:
110,232,299825,6,0,L|180:232,1,70,8|2,0:0|0:0,0:0:0:0:
373,275,299987,6,0,L|303:275,1,70,2|2,0:0|0:0,0:0:0:0:
70,340,300149,6,0,L|0:340,1,70,8|2,0:0|0:0,0:0:0:0:
382,384,300311,2,0,L|452:384,1,70,2|2,0:0|0:0,0:0:0:0:
244,153,300474,6,0,P|270:139|248:161,1,87.5,14|0,0:0|0:0,0:0:0:0:
226,363,300636,2,0,P|200:377|222:355,1,87.5,2|0,0:0|0:0,0:0:0:0:
350,152,300798,5,12,0:0:0:0:
325,79,300879,1,6,0:0:0:0:
251,59,300960,1,6,0:0:0:0:
181,86,301041,1,6,0:0:0:0:
128,150,301122,5,8,0:0:0:0:
170,197,301204,1,2,0:0:0:0:
189,255,301285,1,2,0:0:0:0:
168,313,301366,1,2,0:0:0:0:
109,335,301447,5,8,0:0:0:0:
147,284,301528,1,2,0:0:0:0:
206,264,301609,1,2,0:0:0:0:
266,282,301690,1,2,0:0:0:0:
294,337,301771,6,0,P|339:367|395:366,1,105.000004005432,14|0,0:0|0:0,0:0:0:0:
340,220,301933,2,0,P|295:190|239:191,1,105.000004005432,2|0,0:0|0:0,0:0:0:0:
383,273,302095,6,0,L|458:191,1,105.000004005432,8|2,0:0|0:0,0:0:0:0:
317,112,302258,2,0,L|242:194,1,105.000004005432,2|2,0:0|0:0,0:0:0:0:
386,114,302420,6,0,L|352:8,1,105.000004005432,8|2,0:0|0:0,0:0:0:0:
214,90,302583,2,0,L|247:195,1,105.000004005432,2|2,0:0|0:0,0:0:0:0:
250,29,302744,6,0,L|141:5,1,105.000004005432,8|2,0:0|0:0,0:0:0:0:
143,166,302907,2,0,L|251:189,1,105.000004005432,2|2,0:0|0:0,0:0:0:0:
105,84,303068,6,0,B|65:119|65:119|53:171,1,105.000004005432,14|0,0:0|0:0,0:0:0:0:
193,274,303231,2,0,B|233:239|233:239|245:187,1,105.000004005432,2|0,0:0|0:0,0:0:0:0:
101,254,303393,5,8,0:0:0:0:
121,313,303474,1,2,0:0:0:0:
168,354,303555,1,2,0:0:0:0:
230,359,303636,1,2,0:0:0:0:
287,334,303717,5,8,0:0:0:0:
271,272,303798,1,2,0:0:0:0:
309,221,303879,1,2,0:0:0:0:
371,224,303960,1,2,0:0:0:0:
417,266,304041,5,8,0:0:0:0:
462,222,304122,1,2,0:0:0:0:
477,160,304204,1,2,0:0:0:0:
456,100,304285,1,2,0:0:0:0:
405,62,304366,6,0,P|366:62|401:78,1,105.000004005432,14|0,0:0|0:0,0:0:0:0:
369,327,304528,2,0,P|381:364|357:338,1,105.000004005432,2|0,0:0|0:0,0:0:0:0:
189,75,304690,6,0,P|171:123|129:153,1,105.000004005432,8|2,0:0|0:0,0:0:0:0:
155,321,304852,2,0,P|172:272|214:242,1,105.000004005432,2|2,0:0|0:0,0:0:0:0:
287,149,305014,6,0,P|236:158|189:136,1,105.000004005432,8|2,0:0|0:0,0:0:0:0:
57,245,305177,2,0,P|107:235|154:257,1,105.000004005432,2|2,0:0|0:0,0:0:0:0:
271,272,305339,6,0,P|237:232|233:181,1,105.000004005432,8|2,0:0|0:0,0:0:0:0:
75,123,305501,2,0,P|108:162|112:213,1,105.000004005432,2|2,0:0|0:0,0:0:0:0:
287,149,305663,6,0,L|287:42,1,105.000004005432,14|0,0:0|0:0,0:0:0:0:
57,245,305825,2,0,L|57:352,1,105.000004005432,2|0,0:0|0:0,0:0:0:0:
271,272,305987,5,8,0:0:0:0:
328,246,306068,1,2,0:0:0:0:
367,196,306149,1,2,0:0:0:0:
382,134,306231,1,2,0:0:0:0:
349,75,306312,5,8,0:0:0:0:
343,137,306393,1,2,0:0:0:0:
367,196,306474,1,2,0:0:0:0:
413,240,306556,1,2,0:0:0:0:
473,261,306637,5,8,0:0:0:0:
430,205,306717,1,2,0:0:0:0:
367,196,306798,1,2,0:0:0:0:
306,214,306880,1,2,0:0:0:0:
251,244,306960,6,0,P|197:248|150:215,1,105.000004005432,14|0,0:0|0:0,0:0:0:0:
21,132,307122,2,0,P|75:133|121:160,1,105.000004005432,2|0,0:0|0:0,0:0:0:0:
251,244,307285,6,0,L|179:329,1,105.000004005432,8|2,0:0|0:0,0:0:0:0:
50,238,307447,2,0,L|122:153,1,105.000004005432,2|2,0:0|0:0,0:0:0:0:
318,163,307609,6,0,L|246:248,1,105.000004005432,8|2,0:0|0:0,0:0:0:0:
117,157,307771,2,0,L|187:80,1,105.000004005432,2|2,0:0|0:0,0:0:0:0:
385,82,307933,6,0,L|313:167,1,105.000004005432,8|2,0:0|0:0,0:0:0:0:
187,79,308095,2,0,L|259:-6,1,105.000004005432,2|2,0:0|0:0,0:0:0:0:
408,173,308258,6,0,B|392:226|392:226|349:251,1,105.000004005432,14|0,0:0|0:0,0:0:0:0:
102,80,308420,2,0,B|118:27|118:27|161:2,1,105.000004005432,2|0,0:0|0:0,0:0:0:0:
250,243,308582,5,8,0:0:0:0:
183,274,308663,1,2,0:0:0:0:
111,259,308744,1,2,0:0:0:0:
60,205,308825,1,2,0:0:0:0:
51,132,308906,5,8,0:0:0:0:
39,204,308987,1,2,0:0:0:0:
54,275,309068,1,2,0:0:0:0:
100,331,309149,1,2,0:0:0:0:
170,354,309231,5,8,0:0:0:0:
243,351,309312,1,2,0:0:0:0:
307,315,309393,1,2,0:0:0:0:
352,257,309474,1,2,0:0:0:0:
366,184,309555,6,0,L|377:77,1,105.000004005432,14|0,0:0|0:0,0:0:0:0:
193,169,309717,2,0,L|182:276,1,105.000004005432,2|0,0:0|0:0,0:0:0:0:
284,131,309879,5,8,0:0:0:0:
261,61,309960,1,2,0:0:0:0:
193,31,310041,1,2,0:0:0:0:
120,42,310122,1,2,0:0:0:0:
76,102,310204,6,0,P|64:138|91:110,1,105.000004005432,8|2,0:0|0:0,0:0:0:0:
284,131,310366,2,0,P|290:168|267:137,1,105.000004005432,2|2,0:0|0:0,0:0:0:0:
46,217,310528,5,8,0:0:0:0:
129,210,310609,1,2,0:0:0:0:
182,273,310690,1,2,0:0:0:0:
147,349,310771,1,2,0:0:0:0:
54,375,310852,6,0,P|14:330|-1:282,1,105.000004005432,14|0,0:0|0:0,0:0:0:0:
365,90,311014,2,0,P|382:146|377:196,1,105.000004005432,2|0,0:0|0:0,0:0:0:0:
359,379,311177,5,12,0:0:0:0:
320,299,311258,1,6,0:0:0:0:
247,249,311339,1,6,0:0:0:0:
160,247,311420,1,6,0:0:0:0:
85,287,311501,1,0,1:2:0:0:
