osu file format v14

[General]
AudioFilename: audio.mp3
AudioLeadIn: 0
PreviewTime: 59565
Countdown: 0
SampleSet: Soft
StackLeniency: 0.7
Mode: 0
LetterboxInBreaks: 0
WidescreenStoryboard: 0

[Editor]
Bookmarks: 19243,20467
DistanceSpacing: 0.4
BeatDivisor: 4
GridSize: 4
TimelineZoom: 1

[Metadata]
Title:DARK LEGACY -Long version-
TitleUnicode:DARK LEGACY -Long version-
Artist:BaSTeT
ArtistUnicode:BaSTeT
Creator:Kyshiro
Version:Submerged
Source:beatmania IIDX 21 SPADA
Tags:猫叉 nekomata master artcore sato nao konami video game instrumental electronic dark element
BeatmapID:2968871
BeatmapSetID:1443335

[Difficulty]
HPDrainRate:6
CircleSize:4
OverallDifficulty:9
ApproachRate:9.4
SliderMultiplier:2
SliderTickRate:1

[Events]
//Background and Video events
0,0,"wallhaven-694294.jpg",0,0
//Break Periods
//Storyboard Layer 0 (Background)
//Storyboard Layer 1 (Fail)
//Storyboard Layer 2 (Pass)
//Storyboard Layer 3 (Foreground)
//Storyboard Layer 4 (Overlay)
//Storyboard Sound Samples

[TimingPoints]
790,306.122448979592,4,2,1,37,1,0
19157,-250,4,2,1,37,0,0
20228,-250,4,2,1,5,0,0
20381,-250,4,2,1,37,0,0
25279,-181.818181818182,4,2,1,45,0,0
30177,-133.333333333333,4,2,1,80,0,0
51912,-76.9230769230769,4,2,1,80,0,0
52218,-133.333333333333,4,2,1,80,0,0
59565,-100,4,2,1,80,0,1
69361,-166.666666666667,4,2,1,80,0,1
69820,-100,4,2,1,80,0,1
78851,-100,4,2,1,80,0,0
79157,-100,4,2,1,80,0,1
98749,-200,4,2,1,80,0,0
108545,-100,4,2,1,80,0,0
141606,-100,4,2,1,5,0,0
142830,-1000,4,2,1,35,0,0
145892,-500,4,2,1,35,0,0
147728,-333.333333333333,4,2,1,60,0,0
154999,-333.333333333333,4,2,1,5,0,0
155075,-500,4,2,1,60,0,0
156223,-500,4,2,1,5,0,0
156300,-1000,4,2,1,60,0,0
157448,-1000,4,2,1,5,0,0
157524,-133.333333333333,4,2,1,80,0,0
177116,-133.333333333333,4,2,1,80,0,0
177193,-133.333333333333,4,2,1,70,0,0
177269,-133.333333333333,4,2,1,60,0,0
177346,-133.333333333333,4,2,1,50,0,0
177422,-133.333333333333,4,2,1,40,0,0
177499,-133.333333333333,4,2,1,30,0,0
177575,-133.333333333333,4,2,1,20,0,0
177652,-133.333333333333,4,2,1,10,0,0
177728,-133.333333333333,4,2,1,5,0,0
180177,-166.666666666667,4,2,1,80,0,0
180790,-100,4,2,1,80,0,1
190585,-250,4,2,1,80,0,1
191045,-100,4,2,1,80,0,1
200075,-100,4,2,1,80,0,0
200381,-100,4,2,1,80,0,1
219973,-200,4,2,1,60,0,0
224565,-100,4,2,1,65,0,0
224871,-133.333333333333,4,2,1,80,0,0
225330,-200,4,2,1,80,0,0
225943,-133.333333333333,4,2,1,80,0,0
227779,-200,4,2,1,80,0,0
228392,-133.333333333333,4,2,1,80,0,0
229769,-100,4,2,1,80,0,0
239565,-83.3333333333333,4,2,1,80,0,0
267805,-83.3333333333333,4,2,1,5,0,0

[Colours]
Combo1 : 175,194,245
Combo2 : 200,158,216
Combo3 : 249,170,172

[HitObjects]
19,222,19157,6,0,B|33:151|126:133|171:186|143:230|188:269|239:241,1,280
310,169,20381,6,0,L|317:118,3,40,6|0|0|0,0:0|0:0|0:0|0:0,0:0:0:0:
368,250,20994,2,0,L|373:289,3,40,2|0|0|0,0:0|0:0|0:0|0:0,0:0:0:0:
435,172,21606,6,0,L|442:123,1,40,2|0,0:0|0:0,0:0:0:0:
491,63,21912,2,0,L|498:14,1,40
322,130,22218,2,0,L|317:169,1,40,2|0,0:0|0:0,0:0:0:0:
266,239,22524,2,0,L|261:278,1,40
136,351,22830,6,0,P|108:357|91:353,3,40,2|0|0|0,0:0|0:0|0:0|0:0,0:0:0:0:
28,291,23443,2,0,P|18:265|21:242,3,40,2|0|0|0,0:0|0:0|0:0|0:0,0:0:0:0:
104,142,24055,6,0,L|98:195,1,40,2|0,0:0|0:0,0:0:0:0:
190,268,24361,2,0,L|242:251,1,40
387,241,24667,1,2,0:0:0:0:
304,194,24820,1,0,0:0:0:0:
440,161,24973,1,0,0:0:0:0:
306,284,25126,1,0,0:0:0:0:
236,133,25279,6,0,L|228:66,3,55.0000016784668,6|0|0|0,0:0|0:0|0:0|0:0,0:0:0:0:
149,218,25892,2,0,L|155:163,3,55.0000016784668,2|0|0|0,0:0|0:0|0:0|0:0,0:0:0:0:
86,103,26504,6,0,L|78:36,1,55.0000016784668,2|0,0:0|0:0,0:0:0:0:
16,222,26810,2,0,L|24:155,1,55.0000016784668
82,317,27116,2,0,P|118:328|152:331,1,55.0000016784668,2|0,0:0|0:0,0:0:0:0:
240,283,27422,2,0,P|267:278|293:269,1,55.0000016784668
459,212,27728,6,0,L|451:143,3,55.0000016784668,2|0|0|0,0:0|0:0|0:0|0:0,0:0:0:0:
380,42,28341,2,0,L|372:111,3,55.0000016784668,2|0|0|0,0:0|0:0|0:0|0:0,0:0:0:0:
301,176,28953,2,0,L|244:162,1,55.0000016784668,2|0,0:0|0:0,0:0:0:0:
210,58,29259,2,0,L|153:72,1,55.0000016784668
38,51,29565,5,2,0:0:0:0:
157,72,29718,1,0,3:0:0:0:
91,134,29871,1,0,3:0:0:0:
166,181,30024,1,0,3:0:0:0:
128,261,30177,6,0,P|179:252|271:304,1,150.000005722046,4|0,0:0|0:0,0:0:0:0:
174,363,30636,1,0,0:0:0:0:
347,239,30790,2,0,P|363:281|361:320,2,75.0000028610231,8|0|0,0:0|0:0|0:0,0:0:0:0:
275,152,31249,1,0,0:0:0:0:
500,62,31402,6,0,P|452:130|451:197,1,150.000005722046,8|0,0:0|0:0,0:0:0:0:
352,48,31861,1,0,0:0:0:0:
347,239,32014,2,0,P|373:282|402:307,2,75.0000028610231,8|0|0,0:0|0:0|0:0,0:0:0:0:
502,298,32473,1,0,0:0:0:0:
365,142,32626,6,0,B|285:128|296:184|216:170,1,150.000005722046,8|0,0:0|0:0,0:0:0:0:
46,139,33085,1,0,0:0:0:0:
133,26,33238,2,0,P|148:70|149:99,2,75.0000028610231,8|0|0,0:0|0:0|0:0,0:0:0:0:
252,56,33698,1,0,0:0:0:0:
46,139,33851,6,0,P|28:258|41:294,1,150.000005722046,8|0,0:0|0:0,0:0:0:0:
150,355,34310,1,0,0:0:0:0:
315,183,34463,1,8,0:0:0:0:
235,207,34616,1,0,0:0:0:0:
235,289,34769,1,0,0:0:0:0:
315,315,34922,1,0,0:0:0:0:
362,248,35075,6,0,B|314:240|314:240|271:261|271:261|217:253,1,150.000005722046,12|0,0:0|0:0,0:0:0:0:
133,170,35534,1,0,0:0:0:0:
261,66,35687,2,0,L|248:150,1,75.0000028610231,8|0,0:0|0:0,0:0:0:0:
127,359,35994,2,0,L|115:284,1,75.0000028610231
192,36,36300,6,0,P|292:27|355:69,1,150.000005722046,8|0,0:0|0:0,0:0:0:0:
123,130,36759,1,0,0:0:0:0:
294,140,36912,2,0,P|245:155|223:174,2,75.0000028610231,8|0|0,0:0|0:0|0:0,0:0:0:0:
442,225,37371,2,0,L|456:275,1,37.5000014305115
469,340,37524,6,0,P|399:354|282:260,1,225.000008583069,8|0,0:0|0:0,0:0:0:0:
228,111,38136,2,0,P|196:162|108:196,1,150.000005722046,8|0,0:0|0:0,0:0:0:0:
18,140,38596,1,0,0:0:0:0:
78,325,38749,5,10,0:0:0:0:
147,280,38902,1,2,0:0:0:0:
228,269,39055,1,2,0:0:0:0:
305,295,39208,1,2,0:0:0:0:
176,189,39361,1,10,0:0:0:0:
395,265,39514,1,2,0:0:0:0:
295,198,39667,1,2,0:0:0:0:
444,159,39820,1,2,0:0:0:0:
176,189,39973,6,0,L|132:183,7,37.5000014305115,8|0|0|0|0|0|0|0,0:0|0:0|0:0|0:0|0:0|0:0|0:0|0:0,0:0:0:0:
56,139,40585,1,8,0:0:0:0:
53,150,40662,1,0,0:0:0:0:
50,160,40738,1,0,0:0:0:0:
47,171,40815,1,0,0:0:0:0:
56,206,40892,1,0,0:0:0:0:
53,217,40969,1,0,0:0:0:0:
50,227,41045,1,0,0:0:0:0:
47,238,41122,1,0,0:0:0:0:
63,272,41198,6,0,L|117:264,7,37.5000014305115,8|0|0|0|0|0|0|0,0:0|0:0|0:0|0:0|0:0|0:0|0:0|0:0,0:0:0:0:
167,331,41810,2,0,P|209:316|251:312,1,75.0000028610231,8|0,0:0|0:0,0:0:0:0:
440,252,42116,2,0,P|398:237|356:233,1,75.0000028610231
227,128,42422,6,0,L|238:179,7,37.5000014305115,8|0|0|0|0|0|0|0,0:0|0:0|0:0|0:0|0:0|0:0|0:0|0:0,0:0:0:0:
316,109,43034,1,8,0:0:0:0:
318,98,43111,1,0,0:0:0:0:
320,87,43187,1,0,0:0:0:0:
322,76,43264,1,0,0:0:0:0:
305,39,43341,1,0,0:0:0:0:
294,37,43418,1,0,0:0:0:0:
283,35,43494,1,0,0:0:0:0:
272,33,43571,1,0,0:0:0:0:
237,48,43647,6,0,P|195:52|151:45,1,75.0000028610231,8|0,0:0|0:0,0:0:0:0:
193,265,43953,2,0,P|188:227|193:190,1,75.0000028610231
409,246,44259,2,0,L|404:297,7,37.5000014305115,8|0|0|0|0|0|0|0,0:0|0:0|0:0|0:0|0:0|0:0|0:0|0:0,0:0:0:0:
347,188,44871,6,0,L|343:150,7,37.5000014305115,8|0|0|0|0|0|0|0,0:0|0:0|0:0|0:0|0:0|0:0|0:0|0:0,0:0:0:0:
283,247,45483,1,8,0:0:0:0:
282,258,45560,1,0,0:0:0:0:
281,269,45636,1,0,0:0:0:0:
280,280,45713,1,0,0:0:0:0:
252,307,45790,1,0,0:0:0:0:
240,308,45866,1,0,0:0:0:0:
228,309,45943,1,0,0:0:0:0:
217,311,46019,1,0,0:0:0:0:
185,280,46096,6,0,L|136:273,7,37.5000014305115,8|0|0|0|0|0|0|0,0:0|0:0|0:0|0:0|0:0|0:0|0:0|0:0,0:0:0:0:
71,233,46708,1,8,0:0:0:0:
77,223,46784,1,0,0:0:0:0:
82,213,46861,1,0,0:0:0:0:
87,203,46937,1,0,0:0:0:0:
91,192,47014,1,0,0:0:0:0:
95,181,47091,1,0,0:0:0:0:
98,170,47167,1,0,0:0:0:0:
100,159,47244,1,0,0:0:0:0:
101,147,47320,6,0,L|101:99,7,37.5000014305115,8|0|0|0|0|0|0|0,0:0|0:0|0:0|0:0|0:0|0:0|0:0|0:0,0:0:0:0:
164,43,47932,2,0,P|201:72|245:87,1,75.0000028610231,8|0,0:0|0:0,0:0:0:0:
423,166,48238,2,0,P|386:195|342:210,1,75.0000028610231
178,279,48545,6,0,P|207:291|225:303,3,37.5000014305115,8|0|0|0,0:0|0:0|0:0|0:0,0:0:0:0:
322,344,48851,2,0,P|293:356|275:368,3,37.5000014305115
290,247,49157,1,10,0:0:0:0:
290,235,49233,1,2,0:0:0:0:
290,219,49310,1,2,0:0:0:0:
291,200,49386,1,2,0:0:0:0:
292,177,49463,1,2,0:0:0:0:
294,150,49540,1,2,0:0:0:0:
296,120,49616,1,2,0:0:0:0:
298,86,49693,1,0,0:0:0:0:
301,48,49769,5,4,0:3:0:0:
175,141,49922,1,4,0:3:0:0:
175,141,50228,5,4,0:3:0:0:
404,95,50381,1,4,0:3:0:0:
404,95,50687,5,4,0:3:0:0:
150,20,50841,1,4,0:3:0:0:
150,20,51147,5,4,0:3:0:0:
209,274,51300,1,4,0:3:0:0:
283,131,51606,5,8,0:0:0:0:
249,126,51682,1,8,0:0:0:0:
215,121,51759,1,8,0:0:0:0:
181,116,51835,1,8,0:0:0:0:
147,111,51912,2,2,B|116:110|116:110|97:119|97:119|59:114,2,86.6666626993817
243,32,52218,5,4,0:3:0:0:
141,209,52371,1,4,0:3:0:0:
141,209,52677,5,4,0:3:0:0:
38,33,52830,1,4,0:3:0:0:
38,33,53136,5,4,0:3:0:0:
306,144,53290,1,4,0:3:0:0:
306,144,53596,5,4,0:3:0:0:
0,190,53749,1,4,0:3:0:0:
101,124,53902,5,2,3:2:0:0:
134,118,53978,1,2,3:2:0:0:
166,127,54055,1,10,3:2:0:0:
191,149,54131,1,2,3:2:0:0:
203,180,54208,1,2,3:2:0:0:
204,213,54284,1,2,3:2:0:0:
195,245,54361,1,10,3:2:0:0:
198,278,54437,1,2,3:2:0:0:
216,306,54514,1,2,3:2:0:0:
245,322,54591,1,2,3:2:0:0:
278,322,54667,5,4,3:2:0:0:
344,207,54820,1,4,0:3:0:0:
344,207,55126,5,4,0:3:0:0:
111,164,55279,1,4,0:3:0:0:
111,164,55585,5,4,0:3:0:0:
193,371,55738,1,4,0:3:0:0:
193,371,56045,5,4,0:3:0:0:
244,115,56198,1,4,0:3:0:0:
244,115,56504,6,0,L|256:176,1,37.5000014305115,0|0,3:2|3:2,3:2:0:0:
322,200,56657,2,0,L|310:261,1,37.5000014305115,8|0,3:2|3:2,3:2:0:0:
260,343,56810,1,8,3:2:0:0:
293,338,56886,1,0,3:2:0:0:
326,334,56963,1,0,3:2:0:0:
359,330,57040,1,0,3:2:0:0:
392,326,57116,5,4,0:3:0:0:
211,252,57269,1,4,0:3:0:0:
211,252,57575,5,4,0:3:0:0:
455,188,57728,1,4,0:3:0:0:
455,188,58034,5,4,0:3:0:0:
125,150,58187,1,4,0:3:0:0:
125,150,58494,5,4,0:3:0:0:
467,86,58647,1,4,0:3:0:0:
467,86,58953,6,0,B|433:45|364:54|330:104|346:135|355:166|320:201|271:184,1,262.500010013581,2|0,0:0|0:0,0:0:0:0:
202,132,59565,6,0,L|184:30,1,100,4|0,0:0|0:0,0:0:0:0:
164,231,59871,1,8,0:0:0:0:
31,114,60024,1,2,0:0:0:0:
106,118,60101,1,2,0:0:0:0:
65,180,60177,2,0,B|22:277|107:277|65:375,1,200,2|8,0:0|0:0,0:0:0:0:
277,303,60636,5,2,0:0:0:0:
202,299,60713,1,2,0:0:0:0:
243,237,60789,2,0,B|285:139|200:139|243:41,1,200,2|8,0:0|0:0,0:0:0:0:
422,46,61249,1,0,0:0:0:0:
422,46,61325,1,0,0:0:0:0:
422,46,61402,2,0,P|371:82|331:92,1,100,2|0,0:0|0:0,0:0:0:0:
288,323,61708,2,0,P|252:272|242:232,1,100,10|0,0:0|0:0,0:0:0:0:
17,174,62014,6,0,P|68:138|108:128,1,100,2|0,0:0|0:0,0:0:0:0:
315,179,62320,1,10,0:0:0:0:
153,265,62473,1,0,0:0:0:0:
207,55,62626,2,0,L|201:163,1,100,2|2,0:0|0:0,0:0:0:0:
234,227,62856,1,2,0:0:0:0:
279,291,62932,2,0,L|387:297,1,100,10|0,0:0|0:0,0:0:0:0:
494,80,63238,5,2,0:0:0:0:
380,99,63392,1,0,0:0:0:0:
436,236,63545,5,10,0:0:0:0:
322,217,63699,1,0,0:0:0:0:
262,117,63851,5,2,0:0:0:0:
148,136,64004,1,0,0:0:0:0:
196,204,64157,5,10,0:0:0:0:
82,185,64311,1,0,0:0:0:0:
193,57,64463,5,2,0:0:0:0:
256,274,64616,1,0,0:0:0:0:
401,142,64769,2,0,L|291:151,1,100,10|0,0:0|0:0,0:0:0:0:
113,356,65075,5,2,0:0:0:0:
135,344,65152,1,2,0:0:0:0:
159,340,65228,1,2,0:0:0:0:
184,341,65305,1,2,0:0:0:0:
208,347,65381,1,10,0:0:0:0:
231,356,65458,1,2,0:0:0:0:
255,359,65534,1,2,0:0:0:0:
280,356,65611,1,2,0:0:0:0:
302,345,65687,6,0,P|330:307|336:287,1,50
200,193,65841,2,0,P|211:214|228:233,1,50
340,178,65994,1,8,0:0:0:0:
253,60,66147,2,0,P|191:45|103:83,1,150
92,93,66453,1,0,0:0:0:0:
340,178,66606,2,0,P|380:140|398:94,1,100,10|0,0:0|0:0,0:0:0:0:
200,193,66912,6,0,L|211:306,1,100,2|0,0:0|0:0,0:0:0:0:
90,233,67218,1,10,0:0:0:0:
333,277,67371,1,0,0:0:0:0:
128,382,67524,1,0,0:0:0:0:
151,373,67601,1,0,0:0:0:0:
175,368,67677,1,0,0:0:0:0:
200,367,67754,1,0,0:0:0:0:
224,368,67830,1,8,0:0:0:0:
381,289,67983,2,0,P|335:278|317:269,1,50
199,150,68136,6,0,P|191:207|211:254,1,100,2|0,0:0|0:0,0:0:0:0:
421,127,68443,2,0,L|307:136,1,100,10|0,0:0|0:0,0:0:0:0:
102,40,68749,1,2,0:0:0:0:
172,62,68825,1,2,0:0:0:0:
239,31,68902,1,2,0:0:0:0:
63,143,69055,2,0,L|79:254,1,100,10|0,0:0|0:0,0:0:0:0:
159,241,69284,1,0,0:0:0:0:
111,311,69361,6,0,B|154:312|183:332|183:332|196:301|237:283,1,149.999995422363,4|0,0:3|0:0,0:0:0:0:
288,193,69820,6,0,L|231:200,1,50,0|0,3:0|3:0,3:0:0:0:
262,106,69973,1,0,3:0:0:0:
311,113,70050,1,0,3:0:0:0:
360,120,70126,1,0,3:0:0:0:
409,127,70203,1,0,3:0:0:0:
458,134,70279,1,12,0:0:0:0:
178,40,70432,1,2,0:0:0:0:
157,42,70509,1,2,0:0:0:0:
137,44,70585,6,0,P|123:101|143:152,1,100,2|0,0:0|0:0,0:0:0:0:
209,204,70815,1,0,0:0:0:0:
209,204,70892,2,0,P|142:239|66:212,1,150,8|0,0:0|0:0,0:0:0:0:
227,109,71198,2,0,L|331:99,1,100,2|0,0:0|0:0,0:0:0:0:
482,204,71504,2,0,L|378:194,1,100,10|0,0:0|0:0,0:0:0:0:
126,286,71810,6,0,P|197:264|242:273,1,100,2|0,0:0|0:0,0:0:0:0:
420,325,72116,2,0,P|349:347|304:338,1,100,10|0,0:0|0:0,0:0:0:0:
326,99,72422,2,0,L|349:217,1,100,2|0,0:0|0:0,0:0:0:0:
440,57,72728,1,10,0:0:0:0:
216,176,72881,1,2,0:0:0:0:
227,101,72958,1,2,0:0:0:0:
152,128,73034,6,0,B|73:145|85:82|7:99,1,150,2|0,0:0|0:0,0:0:0:0:
29,177,73341,2,0,L|44:239,1,50,10|0,0:0|0:0,0:0:0:0:
114,315,73494,2,0,L|125:266,1,50,8|0,0:0|0:0,0:0:0:0:
294,226,73647,2,0,P|234:226|191:200,1,100,2|8,0:0|0:0,0:0:0:0:
327,116,73953,1,10,0:0:0:0:
375,344,74106,1,2,0:0:0:0:
451,328,74182,1,2,0:0:0:0:
399,271,74259,6,0,B|376:169|458:185|435:83,1,200,2|10,0:0|0:0,0:0:0:0:
508,239,74718,1,0,0:0:0:0:
302,315,74871,1,2,0:0:0:0:
276,316,74948,1,2,0:0:0:0:
251,312,75024,1,2,0:0:0:0:
228,300,75101,1,2,0:0:0:0:
212,280,75177,1,10,0:0:0:0:
197,259,75254,1,2,0:0:0:0:
177,243,75330,1,2,0:0:0:0:
153,234,75407,1,2,0:0:0:0:
128,233,75483,6,0,L|118:303,1,50
112,365,75636,1,0,0:0:0:0:
229,176,75790,1,8,0:0:0:0:
49,159,75943,2,0,B|104:205|104:205|241:174,1,200
136,10,76402,2,0,L|128:117,1,100,10|0,0:0|0:0,0:0:0:0:
333,74,76708,6,0,P|267:75|225:50,1,100,2|0,0:0|0:0,0:0:0:0:
457,20,77014,1,10,0:0:0:0:
504,135,77167,1,0,0:0:0:0:
383,187,77320,1,0,0:0:0:0:
386,211,77397,1,0,0:0:0:0:
390,235,77473,1,0,0:0:0:0:
394,259,77550,1,0,0:0:0:0:
397,283,77626,1,8,0:0:0:0:
314,363,77779,1,0,0:0:0:0:
160,248,77932,6,0,L|268:260,1,100,2|0,0:0|0:0,0:0:0:0:
411,91,78238,2,0,L|303:103,1,100,10|0,0:0|0:0,0:0:0:0:
76,80,78545,1,2,0:0:0:0:
129,131,78621,1,2,0:0:0:0:
203,140,78698,1,2,0:0:0:0:
35,188,78851,2,0,L|56:305,1,100,10|0,0:0|0:0,0:0:0:0:
233,347,79157,5,14,0:0:0:0:
405,201,79310,1,2,0:0:0:0:
296,176,79463,1,10,0:0:0:0:
500,312,79616,1,14,0:0:0:0:
222,92,79769,1,2,0:0:0:0:
332,72,79922,1,10,0:0:0:0:
150,234,80075,1,10,0:0:0:0:
467,173,80228,6,0,L|477:68,1,100,14|0,0:0|0:0,0:0:0:0:
395,270,80534,1,10,0:0:0:0:
239,180,80687,2,0,L|346:167,1,100,10|2,0:0|0:0,0:0:0:0:
246,333,80994,1,2,0:0:0:0:
214,347,81070,1,2,0:0:0:0:
178,347,81147,1,2,0:0:0:0:
147,330,81223,1,2,0:0:0:0:
132,297,81300,1,2,0:0:0:0:
116,265,81376,1,2,0:0:0:0:
88,243,81453,1,2,0:0:0:0:
54,235,81529,1,2,0:0:0:0:
21,249,81606,5,14,0:0:0:0:
271,107,81759,1,2,0:0:0:0:
170,72,81912,1,10,0:0:0:0:
344,273,82065,1,14,0:0:0:0:
83,182,82218,1,2,0:0:0:0:
189,169,82371,1,10,0:0:0:0:
81,333,82524,1,10,0:0:0:0:
60,171,82677,6,0,L|47:66,1,100,14|0,0:0|0:0,0:0:0:0:
163,278,82983,1,10,0:0:0:0:
316,140,83136,2,0,L|209:150,1,100,10|0,0:0|0:0,0:0:0:0:
276,343,83443,1,2,0:0:0:0:
293,319,83519,1,2,0:0:0:0:
317,301,83596,1,2,0:0:0:0:
343,286,83672,1,2,0:0:0:0:
372,278,83749,1,2,0:0:0:0:
401,273,83825,1,2,0:0:0:0:
431,274,83902,1,2,0:0:0:0:
460,280,83978,1,2,0:0:0:0:
487,292,84055,1,14,0:0:0:0:
262,223,84208,5,2,0:0:0:0:
262,223,84284,1,0,0:0:0:0:
262,223,84361,1,10,0:0:0:0:
439,175,84514,1,14,0:0:0:0:
397,367,84667,1,2,0:0:0:0:
397,367,84744,1,0,0:0:0:0:
397,367,84820,1,10,0:0:0:0:
301,114,84973,2,0,L|354:120,1,50,10|0,0:0|0:0,0:0:0:0:
232,206,85126,2,0,L|182:211,1,50,14|0,0:0|0:0,0:0:0:0:
92,152,85279,5,0,0:0:0:0:
345,289,85432,1,10,0:0:0:0:
26,233,85585,1,10,0:0:0:0:
317,186,85738,1,2,0:0:0:0:
76,330,85892,1,2,0:0:0:0:
104,310,85968,1,2,0:0:0:0:
139,306,86045,1,2,0:0:0:0:
171,318,86121,1,2,0:0:0:0:
198,339,86198,1,2,0:0:0:0:
231,348,86274,1,2,0:0:0:0:
266,344,86351,1,2,0:0:0:0:
296,327,86427,1,2,0:0:0:0:
313,296,86504,6,0,L|258:277,3,50,14|0|2|0,0:0|0:0|0:0|0:0,0:0:0:0:
412,250,86810,1,10,0:0:0:0:
160,175,86963,2,0,L|220:159,3,50,14|0|2|0,0:0|0:0|0:0|0:0,0:0:0:0:
64,122,87269,1,10,0:0:0:0:
268,43,87422,2,0,P|290:73|298:93,1,50,10|0,0:0|0:0,0:0:0:0:
336,206,87575,2,0,P|347:183|363:164,1,50,14|0,0:0|0:0,0:0:0:0:
467,129,87728,5,0,0:0:0:0:
409,288,87881,1,10,0:0:0:0:
240,197,88034,1,10,0:0:0:0:
502,228,88187,1,2,0:0:0:0:
297,348,88341,1,2,0:0:0:0:
269,326,88417,1,2,0:0:0:0:
236,311,88494,1,2,0:0:0:0:
201,311,88570,1,2,0:0:0:0:
167,321,88647,1,2,0:0:0:0:
135,336,88723,1,2,0:0:0:0:
99,336,88800,1,2,0:0:0:0:
66,324,88876,1,2,0:0:0:0:
42,297,88953,5,14,0:0:0:0:
81,85,89106,1,2,0:0:0:0:
128,182,89259,1,10,0:0:0:0:
246,18,89412,1,14,0:0:0:0:
245,279,89565,1,2,0:0:0:0:
292,182,89718,1,10,0:0:0:0:
400,344,89871,1,10,0:0:0:0:
462,143,90024,6,0,L|451:35,1,100,14|0,0:0|0:0,0:0:0:0:
360,268,90330,1,10,0:0:0:0:
235,101,90483,2,0,P|287:87|344:100,1,100,10|2,0:0|0:0,0:0:0:0:
109,26,90790,1,2,0:0:0:0:
82,48,90866,1,2,0:0:0:0:
62,77,90943,1,2,0:0:0:0:
49,109,91019,1,2,0:0:0:0:
43,143,91096,1,2,0:0:0:0:
42,177,91172,1,2,0:0:0:0:
49,211,91249,1,2,0:0:0:0:
62,243,91325,1,2,0:0:0:0:
82,271,91402,5,14,0:0:0:0:
324,178,91555,1,2,0:0:0:0:
187,146,91708,1,10,0:0:0:0:
427,88,91861,1,14,0:0:0:0:
267,283,92014,1,2,0:0:0:0:
418,248,92167,1,10,0:0:0:0:
292,32,92320,1,10,0:0:0:0:
158,250,92473,6,0,L|171:364,1,100,12|0,0:0|0:0,0:0:0:0:
301,182,92779,1,10,0:0:0:0:
84,131,92932,2,0,P|157:127|193:105,1,100,10|2,0:0|0:0,0:0:0:0:
508,202,93238,1,2,0:0:0:0:
483,184,93315,1,2,0:0:0:0:
453,177,93392,1,2,0:0:0:0:
423,178,93468,1,2,0:0:0:0:
395,189,93545,1,2,0:0:0:0:
371,207,93621,1,2,0:0:0:0:
353,231,93698,1,2,0:0:0:0:
345,259,93774,1,2,0:0:0:0:
345,289,93851,5,14,0:0:0:0:
134,201,94004,1,2,0:0:0:0:
254,183,94157,1,10,0:0:0:0:
20,144,94310,1,14,0:0:0:0:
180,313,94463,1,2,0:0:0:0:
49,294,94616,1,10,0:0:0:0:
153,71,94769,1,10,0:0:0:0:
278,195,94922,6,0,L|287:297,1,100,14|0,0:0|0:0,0:0:0:0:
155,192,95228,1,10,0:0:0:0:
375,98,95381,2,0,P|303:81|271:60,1,100,10|2,0:0|0:0,0:0:0:0:
1,129,95687,1,2,0:0:0:0:
28,116,95764,1,2,0:0:0:0:
58,113,95841,1,2,0:0:0:0:
86,120,95917,1,2,0:0:0:0:
112,134,95994,1,2,0:0:0:0:
137,149,96070,1,2,0:0:0:0:
166,152,96147,1,2,0:0:0:0:
195,150,96223,1,2,0:0:0:0:
223,138,96300,5,14,0:0:0:0:
21,227,96453,1,2,0:0:0:0:
131,265,96606,1,10,0:0:0:0:
168,40,96759,1,14,0:0:0:0:
296,222,96912,1,2,0:0:0:0:
356,122,97065,1,10,0:0:0:0:
242,343,97218,1,10,0:0:0:0:
150,140,97371,6,0,L|134:251,1,100,14|2,0:0|0:0,0:0:0:0:
33,113,97677,1,10,0:0:0:0:
246,36,97830,2,0,L|262:147,1,100,10|2,0:0|0:0,0:0:0:0:
395,321,98136,1,2,0:0:0:0:
379,289,98213,1,2,0:0:0:0:
375,253,98290,1,2,0:0:0:0:
388,220,98366,1,2,0:0:0:0:
412,194,98443,1,10,0:0:0:0:
427,162,98519,1,2,0:0:0:0:
433,127,98596,1,2,0:0:0:0:
426,92,98672,1,2,0:0:0:0:
405,63,98749,5,14,0:0:0:0:
91,125,99361,1,0,3:0:0:0:
99,164,99973,1,0,3:0:0:0:
107,202,100585,1,0,3:0:0:0:
266,180,100892,1,0,0:0:0:0:
424,158,101198,5,0,3:0:0:0:
419,197,101810,1,0,3:0:0:0:
414,236,102422,1,0,3:0:0:0:
409,275,103034,1,0,3:0:0:0:
251,242,103341,1,0,3:0:0:0:
248,251,103417,1,0,3:0:0:0:
245,260,103494,1,0,3:0:0:0:
242,269,103570,1,0,3:0:0:0:
239,278,103647,5,0,3:0:0:0:
141,208,103953,1,0,3:0:0:0:
61,298,104259,1,0,0:0:0:0:
159,366,104565,1,0,3:0:0:0:
289,164,104871,5,0,0:0:0:0:
387,94,105177,1,0,3:0:0:0:
467,184,105483,2,0,L|483:239,1,50
369,252,105789,1,0,3:0:0:0:
285,54,106096,5,0,0:0:0:0:
222,237,106402,1,0,3:0:0:0:
391,113,106708,1,0,0:0:0:0:
146,160,107014,1,0,3:0:0:0:
327,181,107320,6,0,P|326:219|320:245,1,50,0|0,3:0|0:0,0:0:0:0:
220,105,107626,2,0,P|221:67|227:41,1,50,0|0,3:0|0:0,0:0:0:0:
240,221,107932,2,0,L|229:258,3,25,0|0|0|0,3:0|3:0|3:0|3:0,3:0:0:0:
164,184,108238,2,0,L|156:160,3,25,0|0|0|0,3:0|3:0|3:0|3:0,3:0:0:0:
144,83,108545,5,12,0:0:0:0:
175,272,108698,1,0,0:0:0:0:
44,208,108851,1,8,0:0:0:0:
65,196,108927,1,0,0:0:0:0:
88,187,109004,1,0,0:0:0:0:
312,253,109157,1,8,0:0:0:0:
212,167,109310,1,0,0:0:0:0:
331,74,109463,1,8,0:0:0:0:
339,97,109540,1,0,0:0:0:0:
342,121,109616,1,0,0:0:0:0:
219,58,109769,5,8,0:0:0:0:
83,144,109922,1,0,0:0:0:0:
198,216,110075,1,8,0:0:0:0:
206,192,110152,1,0,0:0:0:0:
212,167,110228,1,0,0:0:0:0:
380,232,110381,1,8,0:0:0:0:
243,317,110534,1,0,0:0:0:0:
404,358,110687,1,8,0:0:0:0:
383,343,110764,1,0,0:0:0:0:
360,332,110841,1,0,0:0:0:0:
373,113,110994,6,0,L|389:213,1,100,8|0,0:0|0:0,0:0:0:0:
171,129,111300,2,0,P|222:153|276:156,1,100,8|0,0:0|0:0,0:0:0:0:
128,256,111606,2,0,B|82:230|82:230|28:233,1,100,8|0,0:0|0:0,0:0:0:0:
250,372,111912,2,0,L|262:271,1,100,8|0,0:0|0:0,0:0:0:0:
81,146,112218,5,8,0:0:0:0:
154,340,112371,1,0,0:0:0:0:
269,246,112524,1,8,0:0:0:0:
42,272,112677,1,0,0:0:0:0:
324,335,112830,2,0,P|373:273|356:191,1,150,12|0,0:3|0:0,0:0:0:0:
218,158,113136,2,0,P|169:220|186:302,1,150,12|0,0:3|0:0,0:0:0:0:
318,125,113443,5,12,0:0:0:0:
120,69,113596,1,0,0:0:0:0:
246,22,113749,1,8,0:0:0:0:
270,19,113825,1,0,0:0:0:0:
295,18,113902,1,0,0:0:0:0:
427,96,114055,1,8,0:0:0:0:
218,181,114208,1,0,0:0:0:0:
350,268,114361,1,8,0:0:0:0:
356,244,114437,1,0,0:0:0:0:
359,219,114514,1,0,0:0:0:0:
241,305,114667,5,8,0:0:0:0:
136,128,114820,1,0,0:0:0:0:
60,247,114973,1,8,0:0:0:0:
84,253,115050,1,0,0:0:0:0:
108,254,115126,1,0,0:0:0:0:
252,154,115279,1,8,0:0:0:0:
27,103,115432,1,0,0:0:0:0:
307,82,115585,1,8,0:0:0:0:
88,164,115738,1,0,0:0:0:0:
353,167,115892,6,0,L|456:149,1,100,8|0,0:0|0:0,0:0:0:0:
266,252,116198,1,8,0:0:0:0:
266,252,116274,1,0,0:0:0:0:
266,252,116351,1,0,0:0:0:0:
132,117,116504,2,0,L|235:135,1,100,8|0,0:0|0:0,0:0:0:0:
58,202,116810,1,8,0:0:0:0:
58,202,116886,1,0,0:0:0:0:
58,202,116963,1,0,0:0:0:0:
157,359,117116,5,8,3:2:0:0:
191,353,117193,1,0,3:2:0:0:
225,347,117269,1,0,3:2:0:0:
259,341,117346,1,0,3:2:0:0:
293,336,117422,1,8,3:2:0:0:
327,331,117499,1,0,3:2:0:0:
361,326,117575,1,0,3:2:0:0:
395,321,117652,1,0,3:2:0:0:
429,316,117728,1,8,3:2:0:0:
266,106,118034,6,2,L|252:169,3,50
201,45,118341,5,14,0:0:0:0:
327,210,118494,1,0,0:0:0:0:
130,196,118647,1,10,0:0:0:0:
151,183,118723,1,0,0:0:0:0:
174,174,118800,1,0,0:0:0:0:
389,127,118953,1,10,0:0:0:0:
233,272,119106,1,0,0:0:0:0:
387,326,119259,1,10,0:0:0:0:
392,301,119335,1,0,0:0:0:0:
392,275,119412,1,0,0:0:0:0:
286,151,119565,5,10,0:0:0:0:
297,351,119718,1,0,0:0:0:0:
403,110,119871,1,8,0:0:0:0:
313,247,120024,1,0,0:0:0:0:
457,208,120177,1,10,0:0:0:0:
214,222,120330,1,0,0:0:0:0:
406,298,120483,2,0,P|416:327|420:355,1,50,10|0,3:2|3:2,3:2:0:0:
286,151,120636,2,0,P|290:126|299:103,1,50,2|0,3:2|3:2,3:2:0:0:
393,21,120790,6,0,L|406:126,1,100,14|0,0:0|0:0,0:0:0:0:
177,67,121096,1,10,0:0:0:0:
199,55,121172,1,0,0:0:0:0:
222,47,121249,1,0,0:0:0:0:
159,191,121402,1,10,0:0:0:0:
2,127,121555,1,0,0:0:0:0:
8,269,121708,1,10,0:0:0:0:
27,253,121784,1,0,0:0:0:0:
42,232,121861,1,0,0:0:0:0:
232,307,122014,6,0,L|121:290,1,100,10|0,0:0|0:0,0:0:0:0:
223,85,122320,2,0,B|238:133|238:133|219:197,1,100,8|0,0:0|0:0,0:0:0:0:
12,150,122626,2,0,P|60:132|112:131,1,100,10|0,0:0|0:0,0:0:0:0:
351,150,122932,1,10,3:2:0:0:
347,179,123009,1,2,3:2:0:0:
343,208,123085,1,2,3:2:0:0:
340,238,123162,1,2,3:2:0:0:
336,266,123238,5,14,0:0:0:0:
458,201,123392,1,0,0:0:0:0:
239,202,123545,1,10,0:0:0:0:
223,221,123621,1,0,0:0:0:0:
210,242,123698,1,0,0:0:0:0:
123,148,123851,1,10,0:0:0:0:
126,323,124004,1,0,0:0:0:0:
3,272,124157,1,10,0:0:0:0:
16,251,124233,1,0,0:0:0:0:
33,232,124310,1,0,0:0:0:0:
246,345,124463,6,0,L|132:338,1,100,10|0,0:0|0:0,0:0:0:0:
368,246,124769,2,0,L|482:239,1,100,10|0,0:0|0:0,0:0:0:0:
236,111,125075,2,0,B|215:158|215:158|227:217,1,100,10|0,0:0|0:0,0:0:0:0:
131,49,125381,1,10,0:0:0:0:
82,274,125534,1,0,3:0:0:0:
82,274,125611,1,0,3:0:0:0:
82,274,125687,6,0,P|100:221|96:167,1,100,10|0,0:0|0:0,0:0:0:0:
15,85,125994,1,8,0:0:0:0:
211,137,126147,1,0,0:0:0:0:
211,137,126223,1,0,0:0:0:0:
211,137,126300,2,0,L|276:122,1,50,8|0,0:0|0:0,0:0:0:0:
155,41,126453,2,0,L|90:26,1,50
288,22,126606,1,8,0:0:0:0:
316,42,126682,1,0,0:0:0:0:
348,54,126759,1,0,0:0:0:0:
382,58,126835,1,0,0:0:0:0:
417,54,126912,6,0,P|452:42|474:28,1,50,8|0,0:0|0:0,0:0:0:0:
290,129,127065,1,8,0:0:0:0:
470,212,127218,2,0,P|447:200|423:193,1,50,8|0,0:0|0:0,0:0:0:0:
231,241,127371,1,8,0:0:0:0:
363,316,127524,2,8,L|423:310,1,50,8|0,0:0|0:0,0:0:0:0:
331,216,127677,1,8,0:0:0:0:
233,349,127830,1,10,3:2:0:0:
198,353,127907,1,2,3:2:0:0:
164,346,127983,1,2,3:2:0:0:
132,331,128060,1,2,3:2:0:0:
105,310,128136,6,0,P|53:289|1:288,1,100,14|0,0:0|0:0,0:0:0:0:
173,161,128443,2,0,P|222:157|268:137,1,100,10|0,0:0|0:0,0:0:0:0:
469,201,128749,1,10,0:0:0:0:
271,257,128902,1,0,0:0:0:0:
384,359,129055,1,10,0:0:0:0:
392,335,129131,1,0,0:0:0:0:
396,310,129208,1,0,0:0:0:0:
369,84,129361,6,0,L|361:193,1,100,10|0,0:0|0:0,0:0:0:0:
257,373,129667,2,0,L|249:273,1,100,8|0,0:0|0:0,0:0:0:0:
146,62,129973,1,10,0:0:0:0:
100,220,130126,1,0,0:0:0:0:
222,164,130279,1,10,0:0:0:0:
23,115,130432,1,2,0:0:0:0:
72,332,130585,6,0,P|144:325|175:304,1,100,10|0,0:0|0:0,0:0:0:0:
120,175,130892,1,10,0:0:0:0:
108,197,130968,1,0,0:0:0:0:
100,220,131045,1,0,0:0:0:0:
273,359,131198,2,0,L|260:258,1,100,10|0,0:0|0:0,0:0:0:0:
464,318,131504,2,0,P|410:297|361:296,1,100,10|0,0:0|0:0,0:0:0:0:
210,171,131810,5,10,0:0:0:0:
384,128,131963,1,0,0:0:0:0:
289,25,132116,1,8,0:0:0:0:
279,48,132193,1,0,0:0:0:0:
277,72,132269,1,0,0:0:0:0:
324,226,132422,1,10,0:0:0:0:
98,148,132575,1,0,0:0:0:0:
65,315,132728,1,10,3:2:0:0:
94,296,132805,1,2,3:2:0:0:
127,285,132881,1,2,3:2:0:0:
162,282,132958,1,2,3:2:0:0:
196,284,133034,6,0,L|216:387,1,100,14|0,0:0|0:0,0:0:0:0:
328,206,133341,2,0,L|347:107,1,100,10|0,0:0|0:0,0:0:0:0:
117,140,133647,2,0,P|171:161|229:159,1,100,10|0,0:0|0:0,0:0:0:0:
435,130,133953,1,10,0:0:0:0:
268,44,134106,1,0,0:0:0:0:
463,39,134259,5,10,0:0:0:0:
236,147,134412,1,0,0:0:0:0:
412,221,134565,1,8,0:0:0:0:
237,28,134718,1,2,0:0:0:0:
198,16,134795,1,2,0:0:0:0:
158,18,134871,1,10,0:0:0:0:
123,39,134948,1,2,0:0:0:0:
105,74,135024,1,2,0:0:0:0:
105,114,135101,1,2,0:0:0:0:
119,150,135177,1,10,0:0:0:0:
119,190,135254,1,2,0:0:0:0:
101,225,135330,1,2,0:0:0:0:
67,246,135407,1,2,0:0:0:0:
27,244,135483,1,10,0:0:0:0:
1,137,135636,5,0,0:0:0:0:
191,101,135790,2,0,L|212:212,1,100,8|0,0:0|0:0,0:0:0:0:
295,328,136096,1,8,0:0:0:0:
331,132,136249,1,0,0:0:0:0:
461,220,136402,1,8,0:0:0:0:
434,233,136478,1,0,0:0:0:0:
404,239,136555,1,0,0:0:0:0:
233,209,136708,5,8,0:0:0:0:
426,134,136861,1,0,0:0:0:0:
308,19,137014,2,0,L|303:125,1,100,8|0,0:0|0:0,0:0:0:0:
227,301,137320,2,0,P|203:229|148:166,1,150,12|0,0:3|0:0,0:0:0:0:
122,156,137626,1,8,0:0:0:0:
109,300,137779,1,0,0:0:0:0:
340,222,137932,5,12,0:0:0:0:
256,192,138009,12,0,141606,0:0:0:0:
46,148,142830,6,0,B|130:139|103:210|187:202,1,160,2|0,0:0|0:0,0:0:0:0:
296,221,145892,6,0,P|310:251|313:301,2,80,2|2|2,0:0|0:0|0:0,0:0:0:0:
141,100,147728,6,0,B|152:28|246:15|302:62|291:130|267:169|267:169|238:213|234:273|291:289|322:274|348:252|338:209,1,479.999985351563,2|0,0:0|0:0,0:0:0:0:
36,254,150790,6,0,B|101:243|135:192|135:192|137:249|184:298,1,239.999992675781,2|2,0:0|0:0,0:0:0:0:
459,61,152626,6,0,B|423:88|352:61|352:61|372:82|389:107|384:146|352:152|341:193|375:231|375:231|405:203|462:202|501:241|503:282,1,464.999985809327,2|0,0:0|0:0,0:0:0:0:
426,293,155075,6,0,P|372:309|299:256,1,150,2|0,0:0|0:0,0:0:0:0:
235,327,156300,6,0,P|218:342|168:352,1,75,2|0,0:0|0:0,0:0:0:0:
86,320,157524,6,0,P|66:288|64:233,2,75.0000028610231,12|0|0,0:0|0:0|0:0,0:0:0:0:
262,215,157983,1,0,0:0:0:0:
158,174,158136,2,0,L|152:277,1,75.0000028610231,8|0,0:0|0:0,0:0:0:0:
252,105,158443,2,0,L|247:30,1,75.0000028610231
479,188,158749,6,0,P|425:149|328:166,1,150.000005722046,8|0,0:0|0:0,0:0:0:0:
288,276,159208,1,0,0:0:0:0:
408,311,159361,2,0,L|396:229,2,75.0000028610231,8|0|0,0:0|0:0|0:0,0:0:0:0:
263,192,159820,1,0,0:0:0:0:
234,354,159973,6,0,B|159:367|170:311|90:325,1,150.000005722046,8|0,0:0|0:0,0:0:0:0:
9,231,160432,1,0,0:0:0:0:
124,184,160585,2,0,P|154:143|162:112,1,75.0000028610231,8|0,0:0|0:0,0:0:0:0:
266,222,160892,2,0,P|278:257|302:285,1,75.0000028610231
432,96,161198,6,0,L|446:15,2,75.0000028610231,8|0|0,0:0|0:0|0:0,0:0:0:0:
308,144,161657,1,0,0:0:0:0:
495,211,161810,2,0,P|442:203|362:252,1,150.000005722046,8|0,0:0|0:0,0:0:0:0:
457,312,162269,1,0,0:0:0:0:
326,353,162422,6,0,P|267:309|193:312,1,150.000005722046,8|0,0:0|0:0,0:0:0:0:
84,251,162881,1,0,0:0:0:0:
166,117,163034,2,0,P|186:163|188:191,1,75.0000028610231,8|0,0:0|0:0,0:0:0:0:
321,43,163341,2,0,P|304:76|298:113,1,75.0000028610231
394,267,163647,6,0,L|469:255,2,75.0000028610231,8|0|0,0:0|0:0|0:0,0:0:0:0:
288,379,164106,1,0,0:0:0:0:
198,305,164259,2,0,L|48:281,1,150.000005722046,8|0,0:0|0:0,0:0:0:0:
289,250,164718,1,0,0:0:0:0:
139,196,164871,6,0,P|186:190|222:171,1,75.0000028610231,8|0,0:0|0:0,0:0:0:0:
365,121,165177,2,0,P|330:106|293:103,1,75.0000028610231
130,19,165483,2,0,L|149:103,2,75.0000028610231,8|0|0,0:0|0:0|0:0,0:0:0:0:
52,135,165943,1,0,0:0:0:0:
241,46,166096,6,0,B|315:32|304:88|384:74,1,150.000005722046,8|0,0:0|0:0,0:0:0:0:
258,191,166555,1,0,0:0:0:0:
471,152,166708,1,8,0:0:0:0:
334,331,166861,1,0,0:0:0:0:
376,205,167014,1,0,0:0:0:0:
462,374,167167,1,0,0:0:0:0:
222,344,167320,6,0,P|227:297|248:261,1,75.0000028610231,8|0,0:0|0:0,0:0:0:0:
125,124,167626,2,0,P|139:158|142:195,1,75.0000028610231
81,303,167932,1,8,0:0:0:0:
254,159,168085,2,0,L|338:144,2,75.0000028610231
324,332,168545,5,8,0:0:0:0:
401,355,168698,1,0,0:0:0:0:
447,286,168851,1,0,0:0:0:0:
397,220,169004,1,0,0:0:0:0:
319,249,169157,2,0,P|235:268|175:239,1,150.000005722046,8|0,0:0|0:0,0:0:0:0:
124,130,169616,1,0,0:0:0:0:
249,84,169769,6,0,L|255:174,1,75.0000028610231,8|0,0:0|0:0,0:0:0:0:
31,149,170075,2,0,P|78:127|110:124,1,75.0000028610231
356,214,170381,1,8,0:0:0:0:
302,277,170534,1,0,0:0:0:0:
221,293,170687,1,0,0:0:0:0:
141,268,170841,1,0,0:0:0:0:
389,292,170994,5,8,0:0:0:0:
208,208,171147,1,0,0:0:0:0:
443,171,171300,1,0,0:0:0:0:
302,248,171453,1,0,0:0:0:0:
323,60,171606,2,0,L|332:143,1,75.0000028610231,8|0,0:0|0:0,0:0:0:0:
195,315,171912,2,0,L|203:240,1,75.0000028610231
180,45,172218,6,0,P|131:34|32:89,1,150.000005722046,8|0,0:0|0:0,0:0:0:0:
131,151,172677,1,0,0:0:0:0:
282,107,172830,2,0,P|300:56|297:25,1,75.0000028610231,8|0,0:0|0:0,0:0:0:0:
237,222,173136,2,0,P|238:259|254:293,1,75.0000028610231
434,207,173443,6,0,L|340:196,2,75.0000028610231,8|0|0,0:0|0:0|0:0,0:0:0:0:
496,121,173902,1,0,0:0:0:0:
265,129,174055,2,0,L|190:137,1,75.0000028610231,8|0,0:0|0:0,0:0:0:0:
45,199,174361,2,0,L|119:207,1,75.0000028610231
317,285,174667,6,0,P|253:269|167:327,1,150.000005722046,8|0,0:0|0:0,0:0:0:0:
403,359,175126,1,0,0:0:0:0:
480,284,175279,2,0,L|496:204,1,75.0000028610231,8|0,0:0|0:0,0:0:0:0:
361,108,175585,2,0,L|375:181,1,75.0000028610231
170,159,175892,6,0,L|252:154,1,75.0000028610231,8|0,0:0|0:0,0:0:0:0:
105,260,176198,2,0,L|23:255,1,75.0000028610231
21,38,176504,1,10,0:0:0:0:
49,28,176580,1,2,0:0:0:0:
78,24,176657,1,2,0:0:0:0:
107,23,176733,1,2,0:0:0:0:
137,26,176810,1,2,0:0:0:0:
165,34,176886,1,2,0:0:0:0:
191,48,176963,1,2,0:0:0:0:
215,66,177040,1,2,0:0:0:0:
235,87,177116,6,0,L|281:78,24,37.5000014305115,2|0|0|0|0|0|0|0|0|0|0|0|0|0|0|0|0|0|0|0|0|0|0|0|0,0:0|0:0|0:0|0:0|0:0|0:0|0:0|0:0|0:0|0:0|0:0|0:0|0:0|0:0|0:0|0:0|0:0|0:0|0:0|0:0|0:0|0:0|0:0|0:0|0:0,0:0:0:0:
26,175,180177,6,0,B|79:168|123:211|123:211|126:154|174:123,1,209.999993591309,4|0,0:3|0:0,0:0:0:0:
256,68,180790,6,0,L|272:176,1,100,4|0,0:0|0:0,0:0:0:0:
363,342,181096,1,8,0:0:0:0:
486,223,181249,1,2,0:0:0:0:
472,303,181325,1,2,0:0:0:0:
416,251,181402,2,0,B|318:209|318:294|220:251,1,200,2|8,0:0|0:0,0:0:0:0:
15,102,181861,5,2,0:0:0:0:
29,182,181937,1,2,0:0:0:0:
85,130,182014,2,0,B|183:88|183:173|281:130,1,200,2|8,0:0|0:0,0:0:0:0:
460,81,182473,1,0,0:0:0:0:
460,81,182550,1,0,0:0:0:0:
460,81,182626,2,0,L|449:198,1,100,2|0,0:0|0:0,0:0:0:0:
397,310,182932,2,0,L|514:321,1,100,10|0,0:0|0:0,0:0:0:0:
270,237,183238,6,0,P|248:299|250:345,1,100,2|0,0:0|0:0,0:0:0:0:
327,115,183545,2,0,P|324:65|305:19,1,100,10|0,0:0|0:0,0:0:0:0:
15,35,183851,2,0,L|4:148,1,100,2|2,0:0|0:0,0:0:0:0:
51,192,184080,1,2,0:0:0:0:
98,250,184157,2,0,L|207:240,1,100,10|0,0:0|0:0,0:0:0:0:
327,115,184463,6,0,P|237:68|142:104,1,200,2|10,0:0|0:0,0:0:0:0:
348,227,184922,1,0,0:0:0:0:
228,189,185075,2,0,P|226:262|246:298,1,100,2|0,0:0|0:0,0:0:0:0:
463,263,185381,2,0,P|465:190|445:154,1,100,10|0,0:0|0:0,0:0:0:0:
348,61,185687,5,2,0:0:0:0:
348,227,185841,1,0,0:0:0:0:
245,16,185994,1,10,0:0:0:0:
457,40,186147,1,0,0:0:0:0:
236,147,186300,1,2,0:0:0:0:
211,153,186376,1,2,0:0:0:0:
185,154,186453,1,2,0:0:0:0:
160,151,186529,1,2,0:0:0:0:
135,144,186606,1,10,0:0:0:0:
111,134,186682,1,2,0:0:0:0:
90,119,186759,1,2,0:0:0:0:
71,102,186835,1,2,0:0:0:0:
58,80,186912,6,0,L|45:197,1,100
202,243,187218,1,8,0:0:0:0:
0,305,187371,2,0,P|61:276|101:278,1,100
364,326,187677,1,0,0:0:0:0:
358,339,187754,1,0,0:0:0:0:
353,351,187830,2,0,P|303:347|260:322,1,100,10|0,0:0|0:0,0:0:0:0:
370,137,188136,6,0,L|471:122,1,100,2|0,0:0|0:0,0:0:0:0:
280,56,188443,1,10,0:0:0:0:
234,193,188596,1,0,0:0:0:0:
204,192,188672,1,0,0:0:0:0:
174,186,188749,1,0,0:0:0:0:
145,177,188825,1,0,0:0:0:0:
119,160,188902,1,0,0:0:0:0:
342,241,189055,2,0,P|359:298|356:348,1,100,8|0,0:0|0:0,0:0:0:0:
144,313,189361,6,0,L|245:297,1,100,2|0,0:0|0:0,0:0:0:0:
500,197,189667,2,0,L|399:181,1,100,10|0,0:0|0:0,0:0:0:0:
138,143,189973,1,2,0:0:0:0:
198,188,190050,1,2,0:0:0:0:
272,188,190126,1,2,0:0:0:0:
47,74,190279,2,0,L|27:232,1,150,10|0,0:0|0:0,0:0:0:0:
114,222,190585,6,0,L|128:329,1,100,12|0,0:3|0:0,0:0:0:0:
218,316,191045,6,0,L|211:385,1,50,0|0,3:2|3:2,3:2:0:0:
308,300,191198,1,2,3:2:0:0:
314,255,191274,1,0,3:2:0:0:
320,210,191351,1,0,3:2:0:0:
326,165,191427,1,0,3:2:0:0:
334,120,191504,1,12,3:2:0:0:
167,31,191657,5,2,0:0:0:0:
183,103,191733,1,2,0:0:0:0:
239,52,191810,2,0,B|343:33|324:115|429:96,1,200,2|8,0:0|0:0,0:0:0:0:
189,206,192269,1,0,0:0:0:0:
189,206,192346,1,0,0:0:0:0:
189,206,192422,2,0,P|126:192|97:163,1,100,2|0,0:0|0:0,0:0:0:0:
332,247,192728,2,0,P|370:216|419:209,1,100,10|0,0:0|0:0,0:0:0:0:
285,122,193034,5,2,0:0:0:0:
243,310,193187,1,0,0:0:0:0:
197,61,193341,5,10,0:0:0:0:
300,223,193494,1,0,0:0:0:0:
98,81,193647,5,2,0:0:0:0:
285,122,193800,1,0,0:0:0:0:
36,165,193953,5,10,0:0:0:0:
197,61,194106,1,2,0:0:0:0:
173,131,194182,1,2,0:0:0:0:
192,204,194259,6,0,L|296:198,1,100,2|0,0:0|0:0,0:0:0:0:
487,155,194565,1,10,0:0:0:0:
285,103,194718,1,8,0:0:0:0:
475,38,194871,1,2,0:0:0:0:
420,251,195024,1,8,0:0:0:0:
196,87,195177,1,10,0:0:0:0:
478,117,195330,5,2,0:0:0:0:
496,190,195407,1,2,0:0:0:0:
423,173,195483,2,0,B|328:214|328:129|230:171,1,200,2|10,0:0|0:0,0:0:0:0:
53,309,195943,1,0,0:0:0:0:
142,378,196096,1,2,0:0:0:0:
167,342,196172,1,2,0:0:0:0:
171,296,196249,1,2,0:0:0:0:
157,253,196325,1,2,0:0:0:0:
126,219,196402,1,10,0:0:0:0:
110,176,196478,1,2,0:0:0:0:
117,131,196555,1,2,0:0:0:0:
137,91,196631,1,2,0:0:0:0:
176,69,196708,6,0,L|280:78,1,100,2|0,0:0|0:0,0:0:0:0:
35,169,197014,1,10,0:0:0:0:
201,202,197167,2,0,B|147:185|126:138|126:138|91:170|28:168,1,200,2|0,0:0|0:0,0:0:0:0:
284,278,197626,2,0,P|309:211|302:173,1,100,10|0,0:0|0:0,0:0:0:0:
100,259,197932,6,0,L|112:374,1,100,2|0,0:0|0:0,0:0:0:0:
165,110,198238,2,0,L|50:98,1,100,10|0,0:0|0:0,0:0:0:0:
374,53,198545,1,0,0:0:0:0:
273,15,198698,1,0,0:0:0:0:
266,38,198774,1,0,0:0:0:0:
259,62,198851,2,0,L|274:174,1,100,8|0,0:0|0:0,0:0:0:0:
306,319,199157,5,2,0:0:0:0:
395,168,199310,1,0,0:0:0:0:
430,373,199463,1,10,0:0:0:0:
199,337,199616,1,0,0:0:0:0:
451,252,199769,1,2,0:0:0:0:
376,265,199846,1,2,0:0:0:0:
314,223,199922,1,2,0:0:0:0:
50,258,200075,2,0,P|102:224|199:226,1,150,10|0,0:0|0:0,0:0:0:0:
210,237,200381,5,6,0:0:0:0:
290,32,200534,1,2,0:0:0:0:
188,73,200687,1,10,0:0:0:0:
462,134,200841,1,14,0:0:0:0:
319,284,200994,1,2,0:0:0:0:
303,179,201147,1,10,0:0:0:0:
472,322,201300,1,10,0:0:0:0:
213,343,201453,6,0,L|92:326,1,100,14|0,0:0|0:0,0:0:0:0:
286,199,201759,1,10,0:0:0:0:
46,209,201912,2,0,P|109:193|140:163,1,100,10|2,0:0|0:0,0:0:0:0:
400,103,202218,1,2,0:0:0:0:
360,81,202295,1,2,0:0:0:0:
315,86,202371,1,2,0:0:0:0:
279,114,202448,1,2,0:0:0:0:
270,157,202524,1,2,0:0:0:0:
286,199,202601,1,2,0:0:0:0:
279,243,202677,1,2,0:0:0:0:
256,282,202754,1,2,0:0:0:0:
213,296,202830,5,14,0:0:0:0:
203,82,202983,1,2,0:0:0:0:
347,156,203136,1,10,0:0:0:0:
92,182,203290,1,14,0:0:0:0:
299,52,203443,1,2,0:0:0:0:
241,177,203596,1,10,0:0:0:0:
90,44,203749,1,10,0:0:0:0:
361,164,203902,6,0,L|373:278,1,100,14|0,0:0|0:0,0:0:0:0:
427,101,204208,1,10,0:0:0:0:
269,352,204361,2,0,L|279:252,1,100,10|2,0:0|0:0,0:0:0:0:
141,30,204667,1,2,0:0:0:0:
95,32,204744,1,2,0:0:0:0:
68,68,204820,1,2,0:0:0:0:
68,113,204897,1,2,0:0:0:0:
100,143,204973,1,2,0:0:0:0:
145,146,205050,1,2,0:0:0:0:
181,171,205126,1,2,0:0:0:0:
189,215,205203,1,2,0:0:0:0:
169,254,205279,6,0,L|111:246,3,50,14|0|2|0,0:0|0:0|0:0|0:0,0:0:0:0:
41,300,205585,1,10,0:0:0:0:
302,330,205738,2,0,P|336:318|357:304,3,50,14|0|2|0,0:0|0:0|0:0|0:0,0:0:0:0:
410,219,206045,1,10,0:0:0:0:
279,163,206198,2,0,L|292:232,1,50,10|0,0:0|0:0,0:0:0:0:
421,198,206351,6,0,P|443:140|443:100,1,100,14|0,0:0|0:0,0:0:0:0:
253,33,206657,1,10,0:0:0:0:
253,33,206733,1,0,0:0:0:0:
253,33,206810,2,0,P|274:47|308:57,1,50,10|0,0:0|0:0,0:0:0:0:
178,122,206963,2,0,P|157:136|123:146,1,50,2|0,0:0|0:0,0:0:0:0:
13,257,207116,1,2,0:0:0:0:
44,242,207193,1,2,0:0:0:0:
78,237,207269,1,2,0:0:0:0:
113,240,207346,1,2,0:0:0:0:
146,249,207422,1,2,0:0:0:0:
176,266,207499,1,2,0:0:0:0:
202,288,207575,1,2,0:0:0:0:
224,314,207652,1,2,0:0:0:0:
237,345,207728,6,0,L|297:337,3,50,14|0|2|0,0:0|0:0|0:0|0:0,0:0:0:0:
354,269,208034,1,10,0:0:0:0:
236,106,208187,2,0,P|220:150|219:172,3,50,14|0|2|0,0:0|0:0|0:0|0:0,0:0:0:0:
166,36,208494,1,10,0:0:0:0:
120,170,208647,2,0,L|130:241,1,50,10|0,0:0|0:0,0:0:0:0:
257,251,208800,6,0,L|364:238,1,100,14|0,0:0|0:0,0:0:0:0:
182,321,209106,1,10,0:0:0:0:
452,230,209259,1,10,0:0:0:0:
268,150,209412,1,2,0:0:0:0:
356,344,209565,1,2,0:0:0:0:
320,315,209642,1,2,0:0:0:0:
276,303,209718,1,2,0:0:0:0:
232,313,209795,1,2,0:0:0:0:
203,347,209871,1,2,0:0:0:0:
159,360,209948,1,2,0:0:0:0:
115,348,210024,1,2,0:0:0:0:
91,309,210101,1,2,0:0:0:0:
95,264,210177,6,0,P|39:289|-15:294,1,100,14|2,0:0|0:0,0:0:0:0:
241,192,210483,1,10,0:0:0:0:
26,134,210636,2,0,L|129:145,1,100,14|2,0:0|0:0,0:0:0:0:
356,110,210943,1,10,0:0:0:0:
236,22,211096,2,0,L|239:93,1,50,10|0,0:0|0:0,0:0:0:0:
376,126,211249,6,0,P|435:110|469:81,1,100,14|0,0:0|0:0,0:0:0:0:
261,199,211555,1,10,0:0:0:0:
475,280,211708,2,0,P|415:250|368:250,1,100,10|2,0:0|0:0,0:0:0:0:
69,309,212014,1,2,0:0:0:0:
94,333,212091,1,2,0:0:0:0:
125,347,212167,1,2,0:0:0:0:
159,355,212244,1,2,0:0:0:0:
193,356,212320,1,2,0:0:0:0:
227,347,212397,1,2,0:0:0:0:
257,331,212473,1,2,0:0:0:0:
283,307,212550,1,2,0:0:0:0:
302,278,212626,5,14,0:0:0:0:
158,93,212779,1,2,0:0:0:0:
166,229,212932,1,10,0:0:0:0:
403,163,213085,1,14,0:0:0:0:
310,37,213238,1,2,0:0:0:0:
275,153,213392,1,10,0:0:0:0:
505,96,213545,2,0,L|448:75,1,50,10|0,0:0|0:0,0:0:0:0:
388,176,213698,6,0,P|382:252|392:292,1,100,14|0,0:0|0:0,0:0:0:0:
281,365,214004,1,10,0:0:0:0:
117,242,214157,2,0,L|217:254,1,100,10|2,0:0|0:0,0:0:0:0:
351,33,214463,1,2,0:0:0:0:
310,13,214540,1,2,0:0:0:0:
265,20,214616,1,2,0:0:0:0:
236,54,214693,1,2,0:0:0:0:
232,98,214769,1,2,0:0:0:0:
214,139,214846,1,2,0:0:0:0:
171,152,214922,1,2,0:0:0:0:
126,144,214999,1,2,0:0:0:0:
99,107,215075,6,0,L|95:53,3,50,14|0|2|0,0:0|0:0|0:0|0:0,0:0:0:0:
19,174,215381,1,10,0:0:0:0:
164,240,215534,2,0,L|235:228,3,50,14|0|2|0,0:0|0:0|0:0|0:0,0:0:0:0:
311,293,215841,1,10,0:0:0:0:
335,127,215994,2,0,L|320:194,1,50,10|0,0:0|0:0,0:0:0:0:
319,312,216147,6,0,P|368:344|417:345,1,100,14|0,0:0|0:0,0:0:0:0:
228,134,216453,1,10,0:0:0:0:
395,244,216606,1,10,0:0:0:0:
228,316,216759,1,2,0:0:0:0:
170,67,216912,1,2,0:0:0:0:
210,47,216988,1,2,0:0:0:0:
254,51,217065,1,2,0:0:0:0:
292,75,217142,1,2,0:0:0:0:
316,112,217218,1,2,0:0:0:0:
355,134,217295,1,2,0:0:0:0:
399,138,217371,1,2,0:0:0:0:
442,125,217448,1,2,0:0:0:0:
470,90,217524,6,0,P|479:56|478:34,3,50,14|0|2|0,0:0|0:0|0:0|0:0,0:0:0:0:
388,45,217830,1,10,0:0:0:0:
447,218,217983,2,0,L|501:214,3,50,14|0|2|0,0:0|0:0|0:0|0:0,0:0:0:0:
358,283,218290,1,10,0:0:0:0:
272,217,218443,2,0,L|214:207,1,50,10|0,0:0|0:0,0:0:0:0:
103,315,218596,6,0,P|178:297|224:304,1,100,14|0,0:0|0:0,0:0:0:0:
14,225,218902,1,10,0:0:0:0:
145,91,219055,2,0,L|134:202,1,100,10|2,0:0|0:0,0:0:0:0:
442,351,219361,1,2,0:0:0:0:
452,318,219437,1,2,0:0:0:0:
446,285,219514,1,2,0:0:0:0:
426,258,219590,1,2,0:0:0:0:
397,243,219667,1,2,0:0:0:0:
363,243,219743,1,2,0:0:0:0:
334,258,219820,1,2,0:0:0:0:
313,285,219896,1,2,0:0:0:0:
380,314,219973,6,0,P|333:356|249:320,1,150,14|0,0:0|0:0,0:0:0:0:
134,141,220892,2,0,P|138:180|134:205,1,50
61,270,221198,2,0,L|-5:262,1,50
148,352,221504,1,0,0:0:0:0:
148,352,221810,2,0,P|182:343|206:340,1,50
318,220,222116,1,0,3:0:0:0:
309,218,222193,1,0,3:0:0:0:
300,215,222269,1,0,3:0:0:0:
291,212,222346,1,0,3:0:0:0:
282,206,222422,6,0,L|301:362,1,150
300,354,223341,2,0,L|358:346,1,50
471,265,223647,2,0,L|413:256,1,50
354,145,223953,1,0,0:0:0:0:
77,196,224259,2,0,L|67:249,1,50
8,122,224565,2,0,L|-4:73,3,50,0|0|0|0,3:0|3:0|3:0|3:0,3:0:0:0:
25,148,224871,6,0,P|120:140|145:179,1,150.000005722046,12|0,0:0|0:0,0:0:0:0:
202,284,225330,2,0,P|253:234|321:254,1,150
432,44,225943,2,0,L|440:91,1,37.5000014305115,0|0,3:0|3:0,3:0:0:0:
452,160,226096,6,0,L|296:136,1,150.000005722046,8|0,0:0|0:0,0:0:0:0:
303,137,226708,1,0,0:0:0:0:
238,157,226861,1,0,0:0:0:0:
173,177,227014,1,0,0:0:0:0:
108,198,227167,1,0,0:0:0:0:
191,263,227320,6,0,B|270:269|254:215|334:221,1,150.000005722046,8|0,0:0|0:0,0:0:0:0:
203,362,227779,2,0,B|123:368|139:314|59:320,1,150
19,85,228392,2,0,L|25:132,1,37.5000014305115,0|0,3:0|3:0,3:0:0:0:
35,198,228545,5,8,0:0:0:0:
108,184,228851,5,0,0:0:0:0:
181,170,229157,5,8,0:0:0:0:
439,316,229463,5,12,0:0:0:0:
340,307,229616,5,0,0:0:0:0:
340,307,229693,1,0,0:0:0:0:
340,307,229769,2,0,L|352:205,1,100,12|0,0:0|0:0,0:0:0:0:
411,32,230075,1,8,0:0:0:0:
415,56,230152,1,0,0:0:0:0:
419,80,230228,1,0,0:0:0:0:
231,148,230381,1,8,0:0:0:0:
186,17,230534,1,0,0:0:0:0:
57,99,230687,1,8,0:0:0:0:
81,105,230764,1,0,0:0:0:0:
105,111,230841,1,0,0:0:0:0:
299,221,230994,5,8,0:0:0:0:
136,253,231147,1,0,0:0:0:0:
224,366,231300,1,8,0:0:0:0:
229,341,231376,1,0,0:0:0:0:
235,316,231453,1,0,0:0:0:0:
196,129,231606,2,0,B|242:105|242:105|290:119,1,100,8|0,0:0|0:0,0:0:0:0:
484,268,231912,2,0,B|438:244|438:244|390:258,1,100,8|0,0:0|0:0,0:0:0:0:
107,347,232218,5,8,0:0:0:0:
192,224,232371,1,0,0:0:0:0:
62,176,232524,1,8,0:0:0:0:
55,200,232601,1,0,0:0:0:0:
55,224,232677,1,0,0:0:0:0:
251,338,232830,1,8,0:0:0:0:
286,143,232983,1,0,0:0:0:0:
150,201,233137,1,8,0:0:0:0:
169,216,233213,1,0,0:0:0:0:
192,224,233290,1,0,0:0:0:0:
383,199,233443,5,8,0:0:0:0:
187,98,233596,1,0,0:0:0:0:
436,74,233749,1,8,0:0:0:0:
286,143,233902,1,0,0:0:0:0:
484,291,234055,2,0,P|505:228|456:250,1,150,12|0,0:3|0:0,0:0:0:0:
322,362,234361,2,0,P|301:299|350:321,1,150,12|0,0:3|0:0,0:0:0:0:
431,359,234667,5,12,0:0:0:0:
356,207,234820,1,0,0:0:0:0:
197,271,234973,1,8,0:0:0:0:
201,295,235050,1,0,0:0:0:0:
205,319,235126,1,0,0:0:0:0:
83,191,235279,2,0,L|91:83,1,100,8|0,0:0|0:0,0:0:0:0:
313,136,235585,2,0,B|276:170|276:170|225:162,1,100,8|0,0:0|0:0,0:0:0:0:
238,42,235892,5,8,0:0:0:0:
371,217,236045,1,0,0:0:0:0:
445,85,236198,1,8,0:0:0:0:
420,83,236274,1,0,0:0:0:0:
394,81,236351,1,0,0:0:0:0:
462,300,236504,2,0,P|490:245|485:199,1,100,8|0,0:0|0:0,0:0:0:0:
273,136,236810,2,0,P|245:191|250:237,1,100,8|0,0:0|0:0,0:0:0:0:
67,351,237116,6,0,L|45:239,1,100,8|0,0:0|0:0,0:0:0:0:
76,109,237422,1,8,0:0:0:0:
76,109,237499,1,0,0:0:0:0:
76,109,237575,1,0,0:0:0:0:
222,104,237728,2,0,L|244:216,1,100,8|0,0:0|0:0,0:0:0:0:
213,346,238034,1,8,0:0:0:0:
213,346,238111,1,0,0:0:0:0:
213,346,238187,1,0,0:0:0:0:
121,200,238341,5,8,3:2:0:0:
150,203,238417,1,0,3:2:0:0:
179,206,238494,1,0,3:2:0:0:
208,210,238570,1,0,3:2:0:0:
237,214,238647,1,8,3:2:0:0:
266,217,238723,1,0,3:2:0:0:
295,221,238800,1,0,3:2:0:0:
324,225,238876,1,0,3:2:0:0:
353,229,238953,1,8,3:2:0:0:
55,276,239259,6,2,L|-5:283,3,50
133,332,239565,1,14,0:0:0:0:
30,173,239718,1,0,0:0:0:0:
170,136,239871,1,10,0:0:0:0:
167,166,239948,1,0,0:0:0:0:
164,195,240024,1,0,0:0:0:0:
260,292,240177,2,0,P|311:316|391:310,1,119.999996337891,10|0,0:0|0:0,0:0:0:0:
170,136,240483,2,0,P|119:160|39:154,1,119.999996337891,10|0,0:0|0:0,0:0:0:0:
291,40,240790,6,0,P|404:38|475:140,1,239.999992675781,10|8,0:0|0:0,0:0:0:0:
474,286,241249,1,0,0:0:0:0:
263,228,241402,1,10,0:0:0:0:
388,185,241555,1,0,0:0:0:0:
353,325,241708,1,10,0:0:0:0:
324,332,241784,1,0,0:0:0:0:
294,339,241861,1,2,0:0:0:0:
265,348,241937,1,0,0:0:0:0:
236,357,242014,6,0,L|116:336,1,119.999996337891,10|0,0:0|0:0,0:0:0:0:
35,122,242320,1,10,0:0:0:0:
54,145,242397,1,0,0:0:0:0:
66,171,242473,1,0,0:0:0:0:
154,63,242626,1,10,0:0:0:0:
191,242,242779,1,0,0:0:0:0:
265,134,242932,1,10,0:0:0:0:
288,114,243009,1,0,0:0:0:0:
316,104,243085,1,0,0:0:0:0:
425,185,243238,5,10,0:0:0:0:
173,150,243392,1,0,0:0:0:0:
244,36,243545,1,8,0:0:0:0:
247,245,243698,1,0,0:0:0:0:
70,192,243851,1,10,0:0:0:0:
280,138,244004,1,0,0:0:0:0:
211,355,244157,1,10,0:0:0:0:
185,339,244233,1,2,0:0:0:0:
164,316,244310,1,2,0:0:0:0:
152,288,244386,1,2,0:0:0:0:
145,258,244463,6,0,P|159:185|190:148,1,119.999996337891,14|0,0:0|0:0,0:0:0:0:
392,208,244769,1,8,0:0:0:0:
363,216,244846,1,0,0:0:0:0:
334,224,244922,1,0,0:0:0:0:
123,74,245075,2,0,P|187:49|239:64,1,119.999996337891,10|0,0:0|0:0,0:0:0:0:
37,199,245381,2,0,L|5:83,1,119.999996337891,10|0,0:0|0:0,0:0:0:0:
166,303,245687,6,0,B|113:329|113:329|46:313,1,119.999996337891,10|0,0:0|0:0,0:0:0:0:
243,194,245994,2,0,L|364:220,1,119.999996337891,10|0,0:0|0:0,0:0:0:0:
131,179,246300,1,10,0:0:0:0:
361,108,246453,1,0,0:0:0:0:
236,5,246606,1,10,0:0:0:0:
235,34,246682,1,0,0:0:0:0:
234,64,246759,1,0,0:0:0:0:
233,93,246835,1,0,0:0:0:0:
232,123,246912,6,0,P|147:111|108:86,1,119.999996337891,10|0,0:0|0:0,0:0:0:0:
0,290,247218,2,0,P|53:264|113:261,1,119.999996337891,8|0,0:0|0:0,0:0:0:0:
139,277,247448,1,0,0:0:0:0:
139,277,247524,1,8,0:0:0:0:
284,189,247677,1,0,0:0:0:0:
385,320,247830,1,10,0:0:0:0:
354,317,247907,1,2,0:0:0:0:
324,314,247983,1,2,0:0:0:0:
293,311,248060,1,2,0:0:0:0:
263,308,248136,1,10,0:0:0:0:
178,175,248290,5,0,0:0:0:0:
386,224,248443,1,8,0:0:0:0:
180,266,248596,1,0,0:0:0:0:
320,172,248749,1,10,0:0:0:0:
98,225,248902,1,0,0:0:0:0:
399,141,249055,1,10,0:0:0:0:
420,112,249131,1,2,0:0:0:0:
433,78,249208,1,2,0:0:0:0:
434,42,249284,1,2,0:0:0:0:
427,6,249361,6,0,L|303:23,1,119.999996337891,14|0,0:0|0:0,0:0:0:0:
66,58,249667,1,10,0:0:0:0:
84,81,249744,1,0,0:0:0:0:
108,98,249820,1,0,0:0:0:0:
240,130,249973,1,10,0:0:0:0:
43,215,250126,1,0,0:0:0:0:
155,308,250279,1,10,0:0:0:0:
168,280,250356,1,0,0:0:0:0:
174,250,250432,1,0,0:0:0:0:
253,53,250585,6,0,B|266:115|266:115|315:152,1,119.999996337891,10|0,0:0|0:0,0:0:0:0:
499,267,250892,2,0,P|433:243|367:257,1,119.999996337891,8|0,0:0|0:0,0:0:0:0:
37,208,251198,2,0,B|143:172|123:296|258:254,1,239.999992675781,10|8,0:0|0:0,0:0:0:0:
151,92,251657,1,2,0:0:0:0:
68,288,251810,5,10,0:0:0:0:
275,137,251963,1,0,0:0:0:0:
35,61,252116,1,10,0:0:0:0:
41,90,252193,1,0,0:0:0:0:
47,118,252269,1,0,0:0:0:0:
169,356,252422,2,0,L|188:220,1,119.999996337891,10|0,0:0|0:0,0:0:0:0:
441,185,252728,2,0,L|314:236,1,119.999996337891,10|0,0:0|0:0,0:0:0:0:
178,44,253034,6,0,B|206:104|253:136|253:136|312:115|356:53,1,239.999992675781,10|8,0:0|0:0,0:0:0:0:
144,169,253494,1,0,0:0:0:0:
343,206,253647,2,0,L|363:341,1,119.999996337891,10|0,0:0|0:0,0:0:0:0:
9,320,253953,1,10,0:0:0:0:
39,291,254029,1,2,0:0:0:0:
79,279,254106,1,2,0:0:0:0:
120,279,254182,1,2,0:0:0:0:
158,297,254259,6,0,P|227:314|278:293,1,119.999996337891,14|0,0:0|0:0,0:0:0:0:
224,139,254565,1,10,0:0:0:0:
219,168,254642,1,0,0:0:0:0:
215,197,254718,1,0,0:0:0:0:
123,122,254871,1,10,0:0:0:0:
302,72,255024,1,0,0:0:0:0:
96,18,255177,1,10,0:0:0:0:
66,12,255254,1,0,0:0:0:0:
36,6,255330,1,0,0:0:0:0:
56,201,255483,5,10,0:0:0:0:
207,87,255636,1,0,0:0:0:0:
12,113,255790,1,8,0:0:0:0:
141,262,255943,1,2,0:0:0:0:
169,282,256019,1,2,0:0:0:0:
204,289,256096,1,10,0:0:0:0:
238,280,256172,1,2,0:0:0:0:
262,253,256249,1,2,0:0:0:0:
294,239,256325,1,2,0:0:0:0:
330,241,256402,1,10,0:0:0:0:
361,258,256478,1,2,0:0:0:0:
388,281,256555,1,2,0:0:0:0:
403,313,256631,1,2,0:0:0:0:
402,349,256708,6,0,L|341:333,2,59.9999981689454,10|2|2,0:0|0:0|0:0,0:0:0:0:
406,86,257014,2,0,L|423:224,1,119.999996337891,8|0,0:0|0:0,0:0:0:0:
174,133,257320,2,0,P|237:163|306:150,1,119.999996337891,8|0,0:0|0:0,0:0:0:0:
13,199,257626,2,0,B|57:156|57:156|56:97,1,119.999996337891,8|0,0:0|0:0,0:0:0:0:
206,301,257932,2,0,L|86:317,1,119.999996337891,8|0,0:0|0:0,0:0:0:0:
284,44,258238,2,0,P|274:136|293:170,1,119.999996337891,8|0,0:0|0:0,0:0:0:0:
436,348,258545,6,0,P|509:272|379:331,1,419.999987182618,12|0,0:3|0:0,0:0:0:0:
432,268,259157,5,12,0:3:0:0:
276,340,259310,1,4,0:3:0:0:
35,140,259616,5,4,0:3:0:0:
187,210,259769,1,4,0:3:0:0:
494,41,260075,5,4,0:3:0:0:
356,119,260228,1,4,0:3:0:0:
206,305,260534,5,4,0:3:0:0:
166,120,260687,1,4,0:3:0:0:
458,332,260994,5,4,0:3:0:0:
458,332,261147,1,4,0:3:0:0:
388,229,261300,5,0,3:0:0:0:
354,241,261376,1,0,3:0:0:0:
320,254,261453,1,4,3:0:0:0:
155,174,261606,1,4,0:3:0:0:
150,44,261759,5,0,3:0:0:0:
177,67,261835,1,0,3:0:0:0:
205,90,261912,1,4,3:0:0:0:
218,273,262065,1,4,0:3:0:0:
99,348,262218,5,0,3:0:0:0:
105,313,262294,1,0,3:0:0:0:
111,277,262371,1,4,3:0:0:0:
263,174,262524,1,4,0:3:0:0:
35,166,262677,5,0,3:0:0:0:
35,166,262754,1,0,3:0:0:0:
35,166,262830,5,4,3:0:0:0:
11,35,262983,1,4,0:3:0:0:
106,12,263290,5,4,0:3:0:0:
104,218,263443,1,4,0:3:0:0:
163,281,263749,5,4,0:3:0:0:
199,10,263902,1,4,0:3:0:0:
287,42,264208,5,4,0:3:0:0:
213,352,264361,1,4,0:3:0:0:
447,285,264667,5,4,0:3:0:0:
184,216,264820,1,4,0:3:0:0:
144,287,265126,5,4,0:3:0:0:
467,197,265279,1,4,0:3:0:0:
492,275,265585,5,4,0:3:0:0:
107,175,265738,1,4,0:3:0:0:
73,264,266045,5,4,0:3:0:0:
512,138,266198,1,12,0:3:0:0:
256,192,267728,5,10,0:0:0:0:
256,192,267805,12,0,275075,0:0:0:0:
