osu file format v14

[General]
AudioFilename: audio.mp3
AudioLeadIn: 0
PreviewTime: 59565
Countdown: 0
SampleSet: Soft
StackLeniency: 0.7
Mode: 0
LetterboxInBreaks: 0
WidescreenStoryboard: 1

[Editor]
Bookmarks: 19243,20467
DistanceSpacing: 0.5
BeatDivisor: 4
GridSize: 8
TimelineZoom: 1

[Metadata]
Title:DARK LEGACY -Long version-
TitleUnicode:DARK LEGACY -Long version-
Artist:BaSTeT
ArtistUnicode:BaSTeT
Creator:Kyshiro
Version:Insane
Source:beatmania IIDX 21 SPADA
Tags:猫叉 nekomata master artcore sato nao konami video game instrumental electronic dark element
BeatmapID:2971329
BeatmapSetID:1443335

[Difficulty]
HPDrainRate:5.5
CircleSize:4
OverallDifficulty:8
ApproachRate:9
SliderMultiplier:1.75
SliderTickRate:1

[Events]
//Background and Video events
0,0,"wallhaven-694294.jpg",0,0
//Break Periods
//Storyboard Layer 0 (Background)
//Storyboard Layer 1 (Fail)
//Storyboard Layer 2 (Pass)
//Storyboard Layer 3 (Foreground)
//Storyboard Layer 4 (Overlay)
//Storyboard Sound Samples

[TimingPoints]
790,306.122448979592,4,2,1,37,1,0
19157,-250,4,2,1,37,0,0
20228,-250,4,2,1,5,0,0
20381,-250,4,2,1,37,0,0
25279,-166.666666666667,4,2,1,45,0,0
30177,-133.333333333333,4,2,1,80,0,0
59565,-100,4,2,1,80,0,1
69361,-166.666666666667,4,2,1,80,0,1
69820,-100,4,2,1,80,0,1
78851,-100,4,2,1,80,0,0
79157,-100,4,2,1,80,0,1
98749,-200,4,2,1,80,0,0
108545,-100,4,2,1,80,0,0
141606,-100,4,2,1,5,0,0
142830,-1000,4,2,1,35,0,0
145892,-500,4,2,1,35,0,0
147728,-333.333333333333,4,2,1,60,0,0
154999,-333.333333333333,4,2,1,5,0,0
155075,-500,4,2,1,60,0,0
156223,-500,4,2,1,5,0,0
156300,-1000,4,2,1,60,0,0
157448,-1000,4,2,1,5,0,0
157524,-133.333333333333,4,2,1,80,0,0
177116,-133.333333333333,4,2,1,80,0,0
177193,-133.333333333333,4,2,1,70,0,0
177269,-133.333333333333,4,2,1,60,0,0
177346,-133.333333333333,4,2,1,50,0,0
177422,-133.333333333333,4,2,1,40,0,0
177499,-133.333333333333,4,2,1,30,0,0
177575,-133.333333333333,4,2,1,20,0,0
177652,-133.333333333333,4,2,1,10,0,0
177728,-133.333333333333,4,2,1,5,0,0
180177,-166.666666666667,4,2,1,80,0,0
180790,-100,4,2,1,80,0,1
190585,-166.666666666667,4,2,1,80,0,1
191045,-100,4,2,1,80,0,1
200075,-100,4,2,1,80,0,0
200381,-100,4,2,1,80,0,1
219973,-200,4,2,1,60,0,0
224565,-200,4,2,1,65,0,0
224871,-166.666666666667,4,2,1,80,0,0
225330,-200,4,2,1,80,0,0
225943,-133.333333333333,4,2,1,80,0,0
227779,-200,4,2,1,80,0,0
228392,-133.333333333333,4,2,1,80,0,0
229769,-100,4,2,1,80,0,0
239565,-100,4,2,1,80,0,0
267805,-100,4,2,1,5,0,0

[Colours]
Combo1 : 175,194,245
Combo2 : 200,158,216
Combo3 : 249,170,172

[HitObjects]
30,154,19157,6,0,B|98:147|135:98|135:98|149:158|211:191,1,245
331,163,20381,6,0,P|352:141|361:123,3,35,6|0|0|0,0:0|0:0|0:0|0:0,0:0:0:0:
246,93,20994,2,0,P|247:62|243:43,3,35,2|0|0|0,0:0|0:0|0:0|0:0,0:0:0:0:
283,248,21606,2,0,L|289:296,1,35,2|0,0:0|0:0,0:0:0:0:
396,207,21912,2,0,L|400:172,1,35
206,175,22218,2,0,P|176:180|161:186,3,35,2|0|0|0,0:0|0:0|0:0|0:0,0:0:0:0:
210,278,22830,6,0,P|190:301|182:315,3,35,2|0|0|0,0:0|0:0|0:0|0:0,0:0:0:0:
288,353,23443,2,0,L|332:348,1,35,2|0,0:0|0:0,0:0:0:0:
97,337,23749,2,0,L|53:332,1,35
79,189,24055,2,0,P|92:209|99:224,3,35,2|0|0|0,0:0|0:0|0:0|0:0,0:0:0:0:
172,138,24667,2,0,P|180:122|189:108,3,35,2|0|0|0,0:0|0:0|0:0|0:0,0:0:0:0:
274,33,25279,6,0,P|326:26|406:90,1,157.499995193482,6|0,0:0|0:0,0:0:0:0:
320,175,25892,2,0,L|313:113,3,52.4999983978272,2|0|0|0,0:0|0:0|0:0|0:0,0:0:0:0:
407,217,26504,2,0,L|401:269,3,52.4999983978272,2|0|0|0,0:0|0:0|0:0|0:0,0:0:0:0:
322,333,27116,2,0,P|292:329|268:319,1,52.4999983978272,2|0,0:0|0:0,0:0:0:0:
186,257,27422,2,0,P|156:261|132:271,1,52.4999983978272
300,210,27728,6,0,L|303:151,3,52.4999983978272,2|0|0|0,0:0|0:0|0:0|0:0,0:0:0:0:
190,113,28341,2,0,L|187:54,3,52.4999983978272,2|0|0|0,0:0|0:0|0:0|0:0,0:0:0:0:
295,46,28953,2,0,P|326:35|354:30,1,52.4999983978272,2|0,0:0|0:0,0:0:0:0:
392,128,29259,2,0,P|421:144|443:162,1,52.4999983978272
256,203,29565,2,0,P|225:214|197:219,1,52.4999983978272,2|0,0:0|3:0,0:0:0:0:
158,120,29871,2,0,P|129:103|107:85,1,52.4999983978272,0|0,3:0|3:0,0:0:0:0:
317,122,30177,6,0,P|355:181|348:241,1,131.25000500679,4|0,0:0|0:0,0:0:0:0:
263,315,30636,1,0,0:0:0:0:
197,176,30790,2,0,P|237:189|265:212,2,65.6250025033952,8|0|0,0:0|0:0|0:0,0:0:0:0:
221,60,31249,1,0,0:0:0:0:
95,100,31402,6,0,L|113:247,1,131.25000500679,8|0,0:0|0:0,0:0:0:0:
27,315,31861,1,0,0:0:0:0:
205,359,32014,2,0,P|154:346|137:347,2,65.6250025033952,8|0|0,0:0|0:0|0:0,0:0:0:0:
92,232,32473,1,0,0:0:0:0:
237,259,32626,6,0,P|295:253|362:204,1,131.25000500679,8|0,0:0|0:0,0:0:0:0:
406,107,33085,1,0,0:0:0:0:
275,48,33238,2,0,L|284:120,2,65.6250025033952,8|0|0,0:0|0:0|0:0,0:0:0:0:
181,2,33698,1,0,0:0:0:0:
137,119,33851,6,0,L|130:190,1,65.6250025033952,8|0,0:0|0:0,0:0:0:0:
248,291,34157,2,0,L|241:225,1,65.6250025033952
43,259,34463,1,8,0:0:0:0:
173,345,34616,1,0,0:0:0:0:
81,338,34769,1,0,0:0:0:0:
133,258,34922,1,0,0:0:0:0:
310,349,35075,6,0,L|450:324,1,131.25000500679,12|0,0:0|0:0,0:0:0:0:
497,228,35534,1,0,0:0:0:0:
394,170,35687,2,0,P|379:214|382:241,2,65.6250025033952,8|0|0,0:0|0:0|0:0,0:0:0:0:
298,279,36147,1,0,0:0:0:0:
227,77,36300,6,0,P|266:123|290:208,1,131.25000500679,8|0,0:0|0:0,0:0:0:0:
215,322,36759,1,0,0:0:0:0:
111,221,36912,2,0,L|195:226,1,65.6250025033952,8|0,0:0|0:0,0:0:0:0:
16,182,37218,2,0,L|11:266,1,65.6250025033952
176,123,37524,6,0,P|122:84|54:96,1,131.25000500679,8|0,0:0|0:0,0:0:0:0:
202,228,37983,1,0,0:0:0:0:
280,150,38136,2,0,L|295:76,1,65.6250025033952,8|0,0:0|0:0,0:0:0:0:
304,259,38443,2,0,L|317:323,1,65.6250025033952
493,162,38749,5,10,0:0:0:0:
367,192,38902,1,2,0:0:0:0:
451,263,39055,1,2,0:0:0:0:
405,92,39208,1,2,0:0:0:0:
280,216,39361,2,0,P|267:260|268:302,1,65.6250025033952,10|2,0:0|0:0,0:0:0:0:
205,131,39667,2,0,P|201:98|190:67,1,65.6250025033952,2|2,0:0|0:0,0:0:0:0:
88,195,39973,6,0,L|130:205,7,32.8125012516976,8|0|0|0|0|0|0|0,0:0|0:0|0:0|0:0|0:0|0:0|0:0|0:0,0:0:0:0:
174,265,40585,2,0,L|249:255,1,65.6250025033952,8|0,0:0|0:0,0:0:0:0:
399,200,40892,2,0,L|324:190,1,65.6250025033952
226,141,41198,6,0,L|219:107,7,32.8125012516976,8|0|0|0|0|0|0|0,0:0|0:0|0:0|0:0|0:0|0:0|0:0|0:0,0:0:0:0:
307,75,41810,2,0,L|318:6,1,65.6250025033952,8|0,0:0|0:0,0:0:0:0:
445,122,42116,1,0,0:0:0:0:
447,134,42193,1,0,0:0:0:0:
449,146,42269,1,0,0:0:0:0:
451,158,42346,1,0,0:0:0:0:
453,170,42422,6,0,L|446:211,7,32.8125012516976,8|0|0|0|0|0|0|0,0:0|0:0|0:0|0:0|0:0|0:0|0:0|0:0,0:0:0:0:
430,293,43034,2,0,P|395:272|356:265,1,65.6250025033952,8|0,0:0|0:0,0:0:0:0:
292,168,43341,2,0,P|257:189|218:196,1,65.6250025033952
101,82,43647,6,0,L|96:45,3,32.8125012516976,8|0|0|0,0:0|0:0|0:0|0:0,0:0:0:0:
49,143,43953,2,0,L|12:148,3,32.8125012516976
120,179,44259,2,0,L|125:216,3,32.8125012516976,8|0|0|0,0:0|0:0|0:0|0:0,0:0:0:0:
178,123,44565,1,0,0:0:0:0:
189,117,44642,1,0,0:0:0:0:
201,113,44718,1,0,0:0:0:0:
214,111,44795,1,0,0:0:0:0:
226,110,44871,6,0,P|251:110|272:113,7,32.8125012516976,8|0|0|0|0|0|0|0,0:0|0:0|0:0|0:0|0:0|0:0|0:0|0:0,0:0:0:0:
334,159,45483,2,0,L|346:231,1,65.6250025033952,8|0,0:0|0:0,0:0:0:0:
454,115,45790,2,0,P|466:66|465:33,1,65.6250025033952
250,198,46096,6,0,L|246:230,7,32.8125012516976,8|0|0|0|0|0|0|0,0:0|0:0|0:0|0:0|0:0|0:0|0:0|0:0,0:0:0:0:
193,303,46708,2,0,P|152:308|125:305,1,65.6250025033952,8|0,0:0|0:0,0:0:0:0:
26,166,47014,1,0,0:0:0:0:
39,167,47091,1,0,0:0:0:0:
51,170,47167,1,0,0:0:0:0:
62,175,47244,1,0,0:0:0:0:
73,181,47320,6,0,L|81:144,7,32.8125012516976,8|0|0|0|0|0|0|0,0:0|0:0|0:0|0:0|0:0|0:0|0:0|0:0,0:0:0:0:
143,88,47932,2,0,P|180:87|216:103,1,65.6250025033952,8|0,0:0|0:0,0:0:0:0:
380,179,48238,2,0,P|349:189|316:187,1,65.6250025033952
315,24,48545,6,0,P|316:61|300:97,1,65.6250025033952,8|0,0:0|0:0,0:0:0:0:
224,261,48851,2,0,P|213:230|215:197,1,65.6250025033952
449,103,49157,1,10,0:0:0:0:
458,119,49233,1,2,0:0:0:0:
465,137,49310,1,2,0:0:0:0:
470,155,49386,1,2,0:0:0:0:
474,174,49463,1,2,0:0:0:0:
477,193,49540,1,2,0:0:0:0:
478,212,49616,1,2,0:0:0:0:
478,231,49693,1,0,0:0:0:0:
477,250,49769,6,0,L|381:237,1,65.6250025033952,4|4,0:3|0:3,0:0:0:0:
75,70,50228,6,0,L|171:57,1,65.6250025033952,4|4,0:3|0:3,0:0:0:0:
251,329,50687,6,0,P|231:295|221:255,1,65.6250025033952,4|4,0:3|0:3,0:0:0:0:
408,27,51147,6,0,L|399:111,1,65.6250025033952,4|4,0:3|0:3,0:0:0:0:
76,232,51606,2,0,L|42:222,3,32.8125012516976,8|8|8|8,0:0|0:0|0:0|0:0,0:0:0:0:
152,169,51912,2,0,L|208:153,2,43.7500016689301,2|0|0,0:0|0:0|0:0,0:0:0:0:
66,125,52218,5,6,0:3:0:0:
66,125,52371,1,4,0:3:0:0:
273,50,52677,5,4,0:3:0:0:
273,50,52830,1,4,0:3:0:0:
92,30,53136,5,4,0:3:0:0:
92,30,53290,1,4,0:3:0:0:
280,152,53596,5,4,0:3:0:0:
192,107,53749,1,4,0:3:0:0:
129,183,53902,1,2,3:2:0:0:
129,183,53978,1,2,3:2:0:0:
129,183,54055,2,0,L|138:236,3,32.8125012516976,10|2|2|2,3:2|3:2|3:2|3:2,0:0:0:0:
207,251,54361,2,0,L|198:304,3,32.8125012516976,10|2|2|2,3:2|3:2|3:2|3:2,0:0:0:0:
136,335,54667,5,4,3:2:0:0:
136,335,54820,1,4,0:3:0:0:
348,251,55126,5,4,0:3:0:0:
348,251,55279,1,4,0:3:0:0:
123,171,55585,5,4,0:3:0:0:
123,171,55738,1,4,0:3:0:0:
358,101,56045,5,4,0:3:0:0:
358,101,56198,1,4,0:3:0:0:
45,286,56504,6,0,L|36:321,3,32.8125012516976,0|0|8|0,3:2|3:2|3:2|3:2,0:0:0:0:
127,237,56810,2,0,L|118:205,3,32.8125012516976,8|0|0|0,3:2|3:2|3:2|3:2,0:0:0:0:
205,291,57116,5,4,0:3:0:0:
205,291,57269,1,4,0:3:0:0:
254,108,57575,5,4,0:3:0:0:
254,108,57728,1,4,0:3:0:0:
87,178,58034,5,4,0:3:0:0:
87,178,58187,1,4,0:3:0:0:
290,215,58494,5,4,0:3:0:0:
290,215,58647,1,4,0:3:0:0:
201,51,58953,6,0,B|255:160|146:160|201:269,1,229.687508761883,2|0,0:0|0:0,0:0:0:0:
218,293,59565,6,0,L|313:281,1,87.5,4|0,0:0|0:0,0:0:0:0:
425,329,59871,1,8,0:0:0:0:
321,165,60024,1,2,0:0:0:0:
321,165,60101,1,2,0:0:0:0:
321,165,60177,2,0,P|373:188|398:218,1,87.5,2|0,0:0|0:0,0:0:0:0:
233,200,60483,1,8,0:0:0:0:
479,170,60636,1,2,0:0:0:0:
479,170,60713,1,2,0:0:0:0:
479,170,60789,2,0,P|485:226|471:263,1,87.5,2|0,0:0|0:0,0:0:0:0:
400,103,61096,5,8,0:0:0:0:
321,246,61249,1,0,0:0:0:0:
232,105,61402,2,0,P|210:60|208:16,1,87.5,2|0,0:0|0:0,0:0:0:0:
169,232,61708,2,0,P|120:245|77:240,1,87.5,10|0,0:0|0:0,0:0:0:0:
307,99,62014,6,0,P|319:50|345:15,1,87.5,2|0,0:0|0:0,0:0:0:0:
177,157,62320,2,0,P|131:136|101:104,1,87.5,10|0,0:0|0:0,0:0:0:0:
291,221,62626,2,0,P|316:276|325:324,1,87.5,2|2,0:0|0:0,0:0:0:0:
323,341,62856,1,2,0:0:0:0:
323,341,62932,2,0,L|214:330,1,87.5,10|0,0:0|0:0,0:0:0:0:
50,240,63238,5,2,0:0:0:0:
185,202,63392,1,0,0:0:0:0:
152,94,63545,1,10,0:0:0:0:
287,132,63699,1,0,0:0:0:0:
263,245,63851,1,2,0:0:0:0:
398,207,64005,1,0,0:0:0:0:
428,331,64157,6,0,L|320:314,1,87.5,10|0,0:0|0:0,0:0:0:0:
421,203,64463,2,0,L|529:186,1,87.5,2|0,0:0|0:0,0:0:0:0:
275,202,64769,2,0,P|236:157|221:115,1,87.5,10|0,0:0|0:0,0:0:0:0:
93,21,65075,1,2,0:0:0:0:
101,36,65152,1,2,0:0:0:0:
106,52,65228,1,2,0:0:0:0:
110,69,65305,1,2,0:0:0:0:
110,86,65381,2,0,L|56:86,3,43.75,10|2|2|2,0:0|0:0|0:0|0:0,0:0:0:0:
25,177,65687,6,0,P|76:162|118:167,1,87.5
205,241,65994,1,8,0:0:0:0:
275,144,66147,2,0,P|247:201|272:321,1,175
453,299,66606,2,0,L|358:275,1,87.5,10|0,0:0|0:0,0:0:0:0:
416,101,66912,6,0,L|432:200,1,87.5,2|0,0:0|0:0,0:0:0:0:
500,39,67218,1,10,0:0:0:0:
339,15,67371,2,0,L|316:199,1,175
228,290,67830,1,8,0:0:0:0:
228,290,68136,6,0,P|200:243|190:198,1,87.5,2|0,0:0|0:0,0:0:0:0:
350,330,68443,2,0,P|391:294|434:276,1,87.5,10|0,0:0|0:0,0:0:0:0:
140,362,68749,1,2,0:0:0:0:
122,362,68825,1,2,0:0:0:0:
104,357,68902,1,2,0:0:0:0:
77,235,69055,1,10,0:0:0:0:
217,318,69208,1,0,0:0:0:0:
205,188,69361,6,0,L|191:29,1,157.499995193482,4|0,0:3|3:0,0:0:0:0:
351,149,69973,5,0,3:0:0:0:
349,166,70050,1,0,3:0:0:0:
347,183,70126,1,0,3:0:0:0:
346,200,70203,1,0,3:0:0:0:
345,217,70279,1,12,0:0:0:0:
413,328,70432,1,2,0:0:0:0:
413,328,70509,1,2,0:0:0:0:
413,328,70585,6,0,P|476:317|510:290,1,87.5,2|0,0:0|0:0,0:0:0:0:
291,318,70892,2,0,P|240:284|113:288,1,175,8|2,0:0|0:0,0:0:0:0:
18,224,71351,1,0,0:0:0:0:
101,71,71504,2,0,L|117:167,1,87.5,10|0,0:0|0:0,0:0:0:0:
308,97,71810,6,0,L|330:11,1,87.5,2|0,0:0|0:0,0:0:0:0:
182,12,72116,2,0,L|204:97,1,87.5,10|0,0:0|0:0,0:0:0:0:
396,157,72422,2,0,L|411:71,1,87.5,2|0,0:0|0:0,0:0:0:0:
256,192,72728,2,0,L|256:288,1,87.5,10|2,0:0|0:0,0:0:0:0:
276,311,72958,1,2,0:0:0:0:
276,311,73034,2,0,P|319:328|368:327,1,87.5,2|0,0:0|0:0,0:0:0:0:
472,268,73341,5,10,0:0:0:0:
339,211,73494,1,8,0:0:0:0:
420,87,73647,2,0,L|432:186,1,87.5,2|8,0:0|0:0,0:0:0:0:
274,123,73953,2,0,L|284:36,1,87.5,10|2,0:0|0:0,0:0:0:0:
261,12,74182,1,2,0:0:0:0:
261,12,74259,2,0,P|211:-2|167:7,1,87.5,2|0,0:0|0:0,0:0:0:0:
389,97,74565,6,0,P|432:101|473:88,1,87.5,10|0,0:0|0:0,0:0:0:0:
249,130,74871,1,2,0:0:0:0:
236,142,74948,1,2,0:0:0:0:
226,156,75024,1,2,0:0:0:0:
218,171,75101,1,2,0:0:0:0:
212,187,75177,2,0,L|213:233,3,43.75,10|2|2|2,0:0|0:0|0:0|0:0,0:0:0:0:
139,145,75483,6,0,P|116:96|90:68,1,87.5
31,207,75790,1,8,0:0:0:0:
141,267,75943,2,0,B|226:299|226:234|312:267,1,175
429,189,76402,6,0,L|446:282,1,87.5,10|0,0:0|0:0,0:0:0:0:
335,76,76708,2,0,L|318:169,1,87.5,2|0,0:0|0:0,0:0:0:0:
222,269,77014,2,0,L|206:182,1,87.5,10|0,0:0|0:0,0:0:0:0:
140,33,77320,1,0,0:0:0:0:
115,143,77473,1,0,0:0:0:0:
25,72,77626,1,8,0:0:0:0:
25,72,77932,6,0,P|3:132|8:171,1,87.5,2|0,0:0|0:0,0:0:0:0:
175,219,78238,2,0,P|172:175|154:136,1,87.5,10|0,0:0|0:0,0:0:0:0:
9,281,78545,1,2,0:0:0:0:
34,285,78621,1,2,0:0:0:0:
60,280,78698,1,2,0:0:0:0:
82,194,78851,1,10,0:0:0:0:
82,194,79157,6,0,L|67:93,1,87.5,14|2,0:0|0:0,0:0:0:0:
182,21,79463,1,10,0:0:0:0:
264,137,79616,2,0,L|169:123,2,87.5,14|2|10,0:0|0:0|0:0,0:0:0:0:
454,74,80075,1,10,0:0:0:0:
369,8,80228,6,0,P|345:79|409:169,1,175,14|10,0:0|0:0,0:0:0:0:
269,304,80687,2,0,P|304:255|307:217,1,87.5,10|2,0:0|0:0,0:0:0:0:
226,58,80994,1,2,0:0:0:0:
214,76,81070,1,2,0:0:0:0:
207,97,81147,1,2,0:0:0:0:
204,118,81223,1,2,0:0:0:0:
203,140,81300,2,0,L|251:137,3,43.75,2|2|2|2,0:0|0:0|0:0|0:0,0:0:0:0:
157,200,81606,6,0,L|68:192,1,87.5,14|2,0:0|0:0,0:0:0:0:
178,327,81912,1,10,0:0:0:0:
280,247,82065,2,0,L|369:239,2,87.5,14|2|10,0:0|0:0|0:0,0:0:0:0:
427,160,82524,1,10,0:0:0:0:
236,100,82677,6,0,P|301:122|396:73,1,175,14|10,0:0|0:0,0:0:0:0:
143,36,83136,2,0,P|124:82|129:131,1,87.5,10|0,0:0|0:0,0:0:0:0:
162,324,83443,1,2,0:0:0:0:
173,305,83519,1,2,0:0:0:0:
177,283,83596,1,2,0:0:0:0:
176,261,83672,1,2,0:0:0:0:
170,239,83749,2,0,L|118:232,3,43.75,2|2|2|2,0:0|0:0|0:0|0:0,0:0:0:0:
262,271,84055,6,0,L|306:265,3,43.75,14|0|2|0,0:0|0:0|0:0|0:0,0:0:0:0:
241,182,84361,1,10,0:0:0:0:
382,196,84514,2,0,L|434:203,3,43.75,14|0|2|0,0:0|0:0|0:0|0:0,0:0:0:0:
499,155,84820,1,10,0:0:0:0:
421,49,84973,1,10,0:0:0:0:
319,136,85126,2,0,P|272:110|235:69,1,87.5,14|0,0:0|0:0,0:0:0:0:
122,46,85432,5,10,0:0:0:0:
158,172,85585,1,10,0:0:0:0:
28,132,85738,1,2,0:0:0:0:
122,46,85892,1,2,0:0:0:0:
142,37,85968,1,2,0:0:0:0:
163,31,86045,1,2,0:0:0:0:
184,28,86121,1,2,0:0:0:0:
205,27,86198,2,0,L|217:78,3,43.75,2|2|2|2,0:0|0:0|0:0|0:0,0:0:0:0:
291,98,86504,5,14,0:0:0:0:
282,118,86580,1,0,0:0:0:0:
276,139,86657,1,2,0:0:0:0:
271,160,86733,1,0,0:0:0:0:
267,181,86810,1,10,0:0:0:0:
359,264,86963,2,0,L|419:254,3,43.75,14|0|2|0,0:0|0:0|0:0|0:0,0:0:0:0:
297,318,87269,1,10,0:0:0:0:
196,206,87422,1,10,0:0:0:0:
91,303,87575,2,0,L|191:312,1,87.5,14|0,0:0|0:0,0:0:0:0:
303,182,87881,5,10,0:0:0:0:
163,91,88034,1,10,0:0:0:0:
318,86,88187,1,2,0:0:0:0:
142,182,88341,1,2,0:0:0:0:
120,185,88417,1,2,0:0:0:0:
98,184,88494,1,2,0:0:0:0:
76,179,88570,1,2,0:0:0:0:
55,170,88647,2,0,L|42:120,3,43.75,2|2|2|2,0:0|0:0|0:0|0:0,0:0:0:0:
26,37,88953,6,0,L|117:54,1,87.5,14|2,0:0|0:0,0:0:0:0:
267,19,89259,1,10,0:0:0:0:
346,125,89412,2,0,L|255:142,1,87.5,14|2,0:0|0:0,0:0:0:0:
108,205,89718,1,10,0:0:0:0:
271,257,89871,1,10,0:0:0:0:
66,311,90024,2,0,P|114:313|164:334,1,87.5,14|0,0:0|0:0,0:0:0:0:
361,240,90330,5,10,0:0:0:0:
202,186,90483,1,10,0:0:0:0:
374,138,90636,1,2,0:0:0:0:
275,17,90790,1,2,0:0:0:0:
267,37,90866,1,2,0:0:0:0:
264,58,90943,1,2,0:0:0:0:
265,79,91019,1,2,0:0:0:0:
269,100,91096,2,0,P|285:137|295:149,3,43.75,2|2|2|2,0:0|0:0|0:0|0:0,0:0:0:0:
192,109,91402,6,0,P|140:91|96:95,1,87.5,14|2,0:0|0:0,0:0:0:0:
7,177,91708,1,10,0:0:0:0:
130,279,91861,2,0,L|134:186,1,87.5,14|2,0:0|0:0,0:0:0:0:
145,12,92167,1,10,0:0:0:0:
23,59,92320,1,10,0:0:0:0:
220,109,92473,2,0,P|276:101|315:79,1,87.5,12|0,0:0|0:0,0:0:0:0:
489,31,92779,5,10,0:0:0:0:
391,94,92932,1,10,0:0:0:0:
487,167,93085,1,2,0:0:0:0:
396,241,93238,1,2,0:0:0:0:
374,246,93315,1,2,0:0:0:0:
352,247,93392,1,2,0:0:0:0:
330,244,93468,1,2,0:0:0:0:
308,238,93545,2,0,P|276:209|265:192,3,43.75,2|2|2|2,0:0|0:0|0:0|0:0,0:0:0:0:
276,128,93851,6,0,L|366:110,1,87.5,14|2,0:0|0:0,0:0:0:0:
207,43,94157,1,10,0:0:0:0:
193,196,94310,2,0,L|103:178,2,87.5,14|2|10,0:0|0:0|0:0,0:0:0:0:
36,259,94769,1,10,0:0:0:0:
174,297,94922,2,0,P|245:279|278:281,1,87.5,14|0,0:0|0:0,0:0:0:0:
441,309,95228,5,10,0:0:0:0:
350,219,95381,1,10,0:0:0:0:
475,181,95534,1,2,0:0:0:0:
326,337,95687,1,2,0:0:0:0:
306,347,95764,1,2,0:0:0:0:
284,353,95841,1,2,0:0:0:0:
262,356,95917,1,2,0:0:0:0:
240,358,95994,2,0,L|186:348,3,43.75,2|2|2|2,0:0|0:0|0:0|0:0,0:0:0:0:
133,296,96300,6,0,L|83:305,3,43.75,14|0|2|0,0:0|0:0|0:0|0:0,0:0:0:0:
200,244,96606,1,10,0:0:0:0:
85,192,96759,2,0,L|135:201,3,43.75,14|0|2|0,0:0|0:0|0:0|0:0,0:0:0:0:
18,140,97065,1,10,0:0:0:0:
170,100,97218,1,10,0:0:0:0:
90,7,97371,2,0,L|86:101,1,87.5,14|2,0:0|0:0,0:0:0:0:
223,177,97677,5,10,0:0:0:0:
306,62,97830,2,0,P|268:39|216:32,1,87.5,10|2,0:0|0:0,0:0:0:0:
116,186,98136,1,2,0:0:0:0:
111,207,98213,1,2,0:0:0:0:
110,228,98290,1,2,0:0:0:0:
112,249,98366,1,2,0:0:0:0:
117,270,98443,1,10,0:0:0:0:
125,290,98519,1,2,0:0:0:0:
136,309,98596,1,2,0:0:0:0:
150,325,98672,1,2,0:0:0:0:
165,335,98749,1,14,0:0:0:0:
256,192,98825,12,0,101198,3:0:0:0:
111,130,101810,5,0,3:0:0:0:
290,60,102422,1,0,3:0:0:0:
267,251,103034,1,0,3:0:0:0:
231,151,103341,1,0,3:0:0:0:
231,151,103417,1,0,3:0:0:0:
231,151,103494,1,0,3:0:0:0:
231,151,103570,1,0,3:0:0:0:
231,151,103647,1,0,3:0:0:0:
145,239,103953,5,0,3:0:0:0:
20,175,104259,1,0,0:0:0:0:
137,99,104565,1,0,3:0:0:0:
321,251,104871,5,0,0:0:0:0:
275,321,105177,1,0,3:0:0:0:
400,258,105483,1,0,0:0:0:0:
285,180,105789,1,0,3:0:0:0:
123,220,106096,5,0,0:0:0:0:
102,305,106402,1,0,3:0:0:0:
301,153,106708,5,0,0:0:0:0:
322,238,107014,1,0,3:0:0:0:
53,119,107320,5,0,3:0:0:0:
32,204,107626,1,0,3:0:0:0:
374,50,107932,5,0,3:0:0:0:
395,135,108238,1,0,3:0:0:0:
217,273,108545,6,0,L|231:171,1,87.5,12|0,0:0|0:0,0:0:0:0:
144,74,108851,2,0,L|149:117,2,43.75,8|0|0,0:0|0:0|0:0,0:0:0:0:
327,240,109157,2,0,P|376:227|407:200,1,87.5,8|0,0:0|0:0,0:0:0:0:
454,109,109463,1,8,0:0:0:0:
454,109,109540,1,0,0:0:0:0:
454,109,109616,1,0,0:0:0:0:
307,43,109769,6,0,L|326:135,1,87.5,8|0,0:0|0:0,0:0:0:0:
417,299,110075,2,0,L|470:285,2,43.75,8|0|0,0:0|0:0|0:0,0:0:0:0:
221,352,110381,2,0,P|161:328|127:326,1,87.5,8|0,0:0|0:0,0:0:0:0:
285,274,110687,1,8,0:0:0:0:
285,274,110764,1,0,0:0:0:0:
285,274,110841,1,0,0:0:0:0:
135,203,110994,6,0,L|228:190,1,87.5,8|0,0:0|0:0,0:0:0:0:
71,122,111300,2,0,L|20:116,2,43.75,8|0|0,0:0|0:0|0:0,0:0:0:0:
185,23,111606,2,0,P|210:74|211:118,1,87.5,8|0,0:0|0:0,0:0:0:0:
78,23,111912,1,8,0:0:0:0:
78,23,111988,1,0,0:0:0:0:
78,23,112065,1,0,0:0:0:0:
300,46,112218,6,0,L|399:29,1,87.5,8|0,0:0|0:0,0:0:0:0:
498,139,112524,2,0,L|446:133,2,43.75,8|0|0,0:0|0:0|0:0,0:0:0:0:
269,216,112830,2,0,P|340:185|398:225,1,131.25,12|0,0:3|0:0,0:0:0:0:
332,262,113136,2,0,P|261:293|203:253,1,131.25,12|0,0:3|0:0,0:0:0:0:
189,200,113443,6,0,L|171:95,1,87.5,12|0,0:0|0:0,0:0:0:0:
82,37,113749,1,8,0:0:0:0:
82,37,113825,1,0,0:0:0:0:
82,37,113902,1,0,0:0:0:0:
217,22,114055,2,0,P|258:41|315:43,1,87.5,8|0,0:0|0:0,0:0:0:0:
449,115,114361,2,0,L|400:125,2,43.75,8|0|0,0:0|0:0|0:0,0:0:0:0:
292,245,114667,6,0,P|339:225|387:221,1,87.5,8|0,0:0|0:0,0:0:0:0:
470,303,114973,1,8,0:0:0:0:
470,303,115050,1,0,0:0:0:0:
470,303,115126,1,0,0:0:0:0:
282,359,115279,2,0,L|196:343,1,87.5,8|0,0:0|0:0,0:0:0:0:
60,260,115585,2,0,L|146:244,1,87.5,8|0,0:0|0:0,0:0:0:0:
102,46,115892,6,0,P|81:104|85:138,1,87.5,8|0,0:0|0:0,0:0:0:0:
248,190,116198,1,8,0:0:0:0:
248,190,116274,1,0,0:0:0:0:
248,190,116351,1,0,0:0:0:0:
278,40,116504,2,0,P|220:61|196:86,1,87.5,8|0,0:0|0:0,0:0:0:0:
377,135,116810,2,0,L|431:124,2,43.75,8|0|0,0:0|0:0|0:0,0:0:0:0:
289,242,117116,5,8,3:2:0:0:
271,239,117193,1,0,3:2:0:0:
253,236,117269,1,0,3:2:0:0:
235,233,117346,1,0,3:2:0:0:
217,230,117422,2,0,L|174:241,4,43.75,8|0|0|0|8,3:2|3:2|3:2|3:2|3:2,0:0:0:0:
417,341,118034,1,2,0:0:0:0:
429,328,118111,1,2,0:0:0:0:
438,313,118187,1,2,0:0:0:0:
444,296,118264,1,2,0:0:0:0:
448,279,118341,6,0,P|444:221|427:185,1,87.5,14|0,0:0|0:0,0:0:0:0:
324,54,118647,2,0,P|309:95|308:138,1,87.5,10|0,0:0|0:0,0:0:0:0:
319,292,118953,2,0,P|261:247|150:256,1,175,10|10,0:0|0:0,0:0:0:0:
72,336,119412,1,0,0:0:0:0:
34,136,119565,6,0,L|51:241,1,87.5,10|0,0:0|0:0,0:0:0:0:
155,47,119871,2,0,L|138:152,1,87.5,8|0,0:0|0:0,0:0:0:0:
350,72,120177,2,0,P|300:84|255:116,1,87.5,10|0,0:0|0:0,0:0:0:0:
240,223,120483,1,10,3:2:0:0:
356,277,120636,1,2,3:2:0:0:
356,277,120713,1,0,3:2:0:0:
356,277,120790,6,0,P|370:227|365:172,1,87.5,14|0,0:0|0:0,0:0:0:0:
172,168,121096,2,0,P|208:205|258:228,1,87.5,10|0,0:0|0:0,0:0:0:0:
350,72,121402,2,0,P|300:84|255:116,1,87.5,10|0,0:0|0:0,0:0:0:0:
170,3,121708,2,0,L|163:93,1,87.5,10|0,0:0|0:0,0:0:0:0:
46,59,122014,6,0,L|103:240,1,175,10|8,0:0|0:0,0:0:0:0:
203,164,122473,1,0,0:0:0:0:
272,253,122626,2,0,L|262:349,1,87.5,10|0,0:0|0:0,0:0:0:0:
403,284,122932,1,10,3:2:0:0:
396,267,123009,1,2,3:2:0:0:
392,250,123085,1,2,3:2:0:0:
389,232,123162,1,2,3:2:0:0:
388,214,123238,6,0,P|436:202|488:212,1,87.5,14|0,0:0|0:0,0:0:0:0:
297,148,123545,2,0,P|253:152|211:140,1,87.5,10|0,0:0|0:0,0:0:0:0:
402,28,123851,2,0,P|390:69|394:113,1,87.5,10|0,0:0|0:0,0:0:0:0:
290,328,124157,2,0,P|301:286|297:242,1,87.5,10|0,0:0|0:0,0:0:0:0:
106,294,124463,6,0,L|198:273,1,87.5,10|0,0:0|0:0,0:0:0:0:
148,81,124769,2,0,L|120:171,1,87.5,10|0,0:0|0:0,0:0:0:0:
319,225,125075,2,0,L|254:155,1,87.5,10|0,0:0|0:0,0:0:0:0:
290,328,125381,1,10,0:0:0:0:
422,274,125534,1,0,3:0:0:0:
422,274,125611,1,0,3:0:0:0:
422,274,125687,6,0,P|430:206|420:177,1,87.5,10|0,0:0|0:0,0:0:0:0:
369,64,125994,1,8,0:0:0:0:
231,172,126147,1,0,0:0:0:0:
231,172,126223,1,0,0:0:0:0:
231,172,126300,2,0,L|324:161,1,87.5,8|0,0:0|0:0,0:0:0:0:
170,263,126606,1,10,0:0:0:0:
124,130,126759,1,2,0:0:0:0:
124,130,126835,1,2,0:0:0:0:
124,130,126912,1,10,0:0:0:0:
34,164,127065,5,8,0:0:0:0:
212,86,127218,1,8,0:0:0:0:
126,44,127371,5,8,0:0:0:0:
304,122,127524,1,8,0:0:0:0:
215,164,127677,5,8,0:0:0:0:
393,86,127830,1,10,3:2:0:0:
407,95,127907,1,2,3:2:0:0:
419,107,127983,1,2,3:2:0:0:
430,119,128060,1,2,3:2:0:0:
440,133,128136,6,0,L|427:226,1,87.5,14|0,0:0|0:0,0:0:0:0:
348,345,128443,2,0,L|335:258,1,87.5,10|0,0:0|0:0,0:0:0:0:
244,95,128749,2,0,P|181:73|80:142,1,175,10|10,0:0|0:0,0:0:0:0:
72,293,129208,1,0,0:0:0:0:
181,336,129361,6,0,B|213:251|148:251|181:165,1,175,10|8,0:0|0:0,0:0:0:0:
323,109,129820,1,0,0:0:0:0:
360,217,129973,2,0,P|305:222|259:201,1,87.5,10|0,0:0|0:0,0:0:0:0:
290,8,130279,2,0,P|345:3|391:24,1,87.5,10|2,0:0|0:0,0:0:0:0:
202,102,130585,6,0,L|176:12,1,87.5,10|0,0:0|0:0,0:0:0:0:
275,211,130892,2,0,L|250:295,1,87.5,10|0,0:0|0:0,0:0:0:0:
369,152,131198,1,10,0:0:0:0:
185,196,131351,1,0,0:0:0:0:
380,248,131504,1,10,0:0:0:0:
257,118,131657,1,0,0:0:0:0:
385,151,131810,6,0,P|434:131|465:101,1,87.5,10|0,0:0|0:0,0:0:0:0:
148,17,132116,2,0,L|157:111,1,87.5,8|0,0:0|0:0,0:0:0:0:
256,287,132422,2,0,L|264:199,1,87.5,10|0,0:0|0:0,0:0:0:0:
36,130,132728,1,10,3:2:0:0:
32,147,132805,1,2,3:2:0:0:
30,164,132881,1,2,3:2:0:0:
33,181,132958,1,2,3:2:0:0:
38,197,133034,6,0,P|66:234|107:260,1,87.5,14|0,0:0|0:0,0:0:0:0:
282,178,133341,1,10,0:0:0:0:
158,139,133494,1,0,0:0:0:0:
300,71,133647,2,0,L|406:55,1,87.5,10|0,0:0|0:0,0:0:0:0:
139,125,133953,2,0,P|118:88|115:38,1,87.5,10|0,0:0|0:0,0:0:0:0:
264,194,134259,6,0,L|250:284,1,87.5,10|0,0:0|0:0,0:0:0:0:
351,358,134565,1,8,0:0:0:0:
461,291,134718,1,2,0:0:0:0:
461,291,134795,1,2,0:0:0:0:
461,291,134871,2,0,L|455:235,3,43.75,10|2|2|2,0:0|0:0|0:0|0:0,0:0:0:0:
390,203,135177,2,0,L|396:147,3,43.75,10|2|2|2,0:0|0:0|0:0|0:0,0:0:0:0:
458,106,135483,6,0,L|447:9,1,87.5,10|0,0:0|0:0,0:0:0:0:
249,59,135790,2,0,P|300:74|343:73,1,87.5,8|0,0:0|0:0,0:0:0:0:
177,158,136096,1,8,0:0:0:0:
127,37,136249,1,0,0:0:0:0:
57,143,136402,2,0,L|47:249,1,87.5,8|0,0:0|0:0,0:0:0:0:
203,354,136708,6,0,L|194:266,1,87.5,8|0,0:0|0:0,0:0:0:0:
236,84,137014,1,8,0:0:0:0:
361,211,137167,1,0,0:0:0:0:
465,121,137320,2,0,B|286:64|312:229|133:173,1,350,12|12,0:3|0:0,0:0:0:0:
256,192,138009,12,0,141606,0:0:0:0:
130,186,142830,6,0,P|124:132|190:142,1,140,2|0,0:0|0:0,0:0:0:0:
246,239,145892,6,0,P|278:243|318:232,2,70,2|2|2,0:0|0:0|0:0,0:0:0:0:
331,46,147728,6,0,B|377:79|440:69|440:69|397:127|428:178|428:178|372:197|370:256|401:287|442:296|475:264,1,419.999987182618,2|0,0:0|0:0,0:0:0:0:
269,123,150790,6,0,P|227:122|162:150,2,104.999996795654,2|2|2,0:0|0:0|0:0,0:0:0:0:
74,277,152626,6,0,B|60:321|3:314|-24:253|-4:181|117:157|166:253|122:320|182:343|249:341|279:293,1,406.874987583161,2|0,0:0|0:0,0:0:0:0:
221,255,155075,6,0,P|283:226|336:259,1,131.25,2|0,0:0|0:0,0:0:0:0:
398,293,156300,6,0,L|407:226,1,65.625,2|0,0:0|0:0,0:0:0:0:
478,219,157524,6,0,L|474:148,1,65.6250025033952,12|0,0:0|0:0,0:0:0:0:
377,62,157831,2,0,L|373:127,1,65.6250025033952
281,198,158136,2,0,P|240:204|213:197,2,65.6250025033952,8|0|0,0:0|0:0|0:0,0:0:0:0:
248,103,158596,1,0,0:0:0:0:
143,127,158749,6,0,P|114:179|137:260,1,131.25000500679,8|0,0:0|0:0,0:0:0:0:
221,285,159208,1,0,0:0:0:0:
136,344,159361,2,0,L|65:340,1,65.6250025033952,8|0,0:0|0:0,0:0:0:0:
240,273,159667,2,0,L|311:277,1,65.6250025033952
426,349,159973,6,0,L|449:203,1,131.25000500679,8|0,0:0|0:0,0:0:0:0:
348,164,160432,1,0,0:0:0:0:
434,42,160585,2,0,L|445:117,1,65.6250025033952,8|0,0:0|0:0,0:0:0:0:
230,90,160892,2,0,P|273:72|301:70,1,65.6250025033952
196,202,161198,6,0,P|150:201|74:158,1,131.25000500679,8|0,0:0|0:0,0:0:0:0:
131,52,161657,1,0,0:0:0:0:
278,200,161810,2,0,P|298:246|305:277,2,65.6250025033952,8|0|0,0:0|0:0|0:0,0:0:0:0:
214,326,162269,1,0,0:0:0:0:
385,204,162422,6,0,P|406:137|459:82,1,131.25000500679,8|0,0:0|0:0,0:0:0:0:
497,258,162881,1,0,0:0:0:0:
391,319,163034,2,0,P|340:310|320:296,1,65.6250025033952,8|0,0:0|0:0,0:0:0:0:
260,138,163341,2,0,P|277:186|275:210,1,65.6250025033952
207,295,163647,6,0,L|68:284,1,131.25000500679,8|0,0:0|0:0,0:0:0:0:
0,203,164106,1,0,0:0:0:0:
149,122,164259,2,0,L|149:201,2,65.6250025033952,8|0|0,0:0|0:0|0:0,0:0:0:0:
28,50,164718,1,0,0:0:0:0:
236,77,164871,6,0,P|190:31|122:27,1,131.25000500679,8|0,0:0|0:0,0:0:0:0:
53,146,165330,1,0,0:0:0:0:
247,175,165483,2,0,P|287:161|314:133,1,65.6250025033952,8|0,0:0|0:0,0:0:0:0:
141,203,165790,2,0,L|155:298,1,65.6250025033952
91,352,166096,5,8,0:0:0:0:
238,290,166249,1,0,0:0:0:0:
61,268,166402,1,0,0:0:0:0:
183,362,166555,1,0,0:0:0:0:
118,192,166708,2,0,P|82:175|40:174,1,65.6250025033952,8|0,0:0|0:0,0:0:0:0:
261,299,167014,2,0,P|293:294|322:279,1,65.6250025033952
252,42,167320,6,0,L|241:182,1,131.25000500679,8|0,0:0|0:0,0:0:0:0:
390,345,167779,1,0,0:0:0:0:
425,217,167932,2,0,P|379:210|350:218,2,65.6250025033952,8|0|0,0:0|0:0|0:0,0:0:0:0:
274,293,168392,1,0,0:0:0:0:
338,135,168545,6,0,P|401:128|474:152,1,131.25000500679,8|0,0:0|0:0,0:0:0:0:
248,192,169004,1,0,0:0:0:0:
177,110,169157,2,0,L|168:37,1,65.6250025033952,8|0,0:0|0:0,0:0:0:0:
109,199,169463,2,0,L|100:264,1,65.6250025033952
12,105,169769,6,0,P|57:102|86:112,1,65.6250025033952,8|0,0:0|0:0,0:0:0:0:
275,201,170075,2,0,P|243:207|210:203,1,65.6250025033952
293,89,170381,1,8,0:0:0:0:
376,183,170534,1,0,0:0:0:0:
422,107,170687,1,0,0:0:0:0:
336,263,170841,1,0,0:0:0:0:
275,201,170994,5,8,0:0:0:0:
397,329,171147,1,0,0:0:0:0:
474,290,171300,1,0,0:0:0:0:
323,374,171453,1,0,0:0:0:0:
402,195,171606,2,0,L|473:206,1,65.6250025033952,8|0,0:0|0:0,0:0:0:0:
298,262,171912,2,0,L|272:195,1,65.6250025033952
114,292,172218,6,0,P|189:301|233:357,1,131.25000500679,8|0,0:0|0:0,0:0:0:0:
30,362,172677,1,0,0:0:0:0:
11,267,172830,2,0,P|4:217|9:186,1,65.6250025033952,8|0,0:0|0:0,0:0:0:0:
125,119,173136,2,0,L|110:187,1,65.6250025033952
248,242,173443,6,0,L|392:224,1,131.25000500679,8|0,0:0|0:0,0:0:0:0:
468,161,173902,1,0,0:0:0:0:
401,68,174055,2,0,P|374:95|364:124,1,65.6250025033952,8|0,0:0|0:0,0:0:0:0:
268,116,174361,2,0,P|271:154|287:180,1,65.6250025033952
123,359,174667,6,0,P|150:332|160:303,1,65.6250025033952,8|0,0:0|0:0,0:0:0:0:
256,311,174973,2,0,P|252:272|236:246,1,65.6250025033952
131,92,175279,2,0,L|137:167,1,65.6250025033952,8|0,0:0|0:0,0:0:0:0:
48,264,175585,2,0,L|53:198,1,65.6250025033952
217,72,175892,5,8,0:0:0:0:
41,109,176045,1,0,0:0:0:0:
179,159,176198,1,0,0:0:0:0:
146,11,176351,1,0,0:0:0:0:
291,130,176504,1,10,0:0:0:0:
298,144,176580,1,2,0:0:0:0:
303,159,176657,1,2,0:0:0:0:
306,174,176733,1,2,0:0:0:0:
309,190,176810,1,2,0:0:0:0:
311,206,176886,1,2,0:0:0:0:
312,222,176963,1,2,0:0:0:0:
312,238,177040,1,2,0:0:0:0:
310,254,177116,6,0,L|303:288,24,32.8125012516976
136,153,180177,6,0,P|112:112|109:184,1,183.749994392395,4|0,0:3|0:0,0:0:0:0:
171,225,180790,6,0,L|271:210,1,87.5,4|0,0:0|0:0,0:0:0:0:
374,245,181096,1,8,0:0:0:0:
237,122,181249,1,2,0:0:0:0:
237,122,181325,1,2,0:0:0:0:
237,122,181402,2,0,L|337:137,1,87.5,2|0,0:0|0:0,0:0:0:0:
297,295,181708,1,8,0:0:0:0:
332,45,181861,1,2,0:0:0:0:
332,45,181937,1,2,0:0:0:0:
332,45,182014,2,0,L|424:85,1,87.5,2|0,0:0|0:0,0:0:0:0:
512,145,182320,5,8,0:0:0:0:
401,200,182473,1,0,0:0:0:0:
505,275,182626,2,0,P|501:328|479:368,1,87.5,2|0,0:0|0:0,0:0:0:0:
375,302,182932,2,0,P|337:340|295:356,1,87.5,10|0,0:0|0:0,0:0:0:0:
266,227,183238,6,0,P|262:174|240:134,1,87.5,2|0,0:0|0:0,0:0:0:0:
136,200,183544,2,0,P|98:161|56:145,1,87.5,10|0,0:0|0:0,0:0:0:0:
43,269,183851,2,0,L|54:366,1,87.5,2|2,0:0|0:0,0:0:0:0:
80,373,184080,1,2,0:0:0:0:
80,373,184157,2,0,P|136:365|162:340,1,87.5,10|0,0:0|0:0,0:0:0:0:
229,159,184463,6,0,P|207:211|216:246,1,87.5,2|0,0:0|0:0,0:0:0:0:
396,329,184769,2,0,P|361:284|326:274,1,87.5,10|0,0:0|0:0,0:0:0:0:
128,263,185075,1,2,0:0:0:0:
253,333,185228,1,0,0:0:0:0:
315,197,185381,2,0,L|308:107,1,87.5,10|0,0:0|0:0,0:0:0:0:
136,130,185687,6,0,P|187:157|225:160,1,87.5,2|0,0:0|0:0,0:0:0:0:
491,174,185994,2,0,P|440:147|402:144,1,87.5,10|0,0:0|0:0,0:0:0:0:
267,308,186300,1,2,0:0:0:0:
288,309,186376,1,2,0:0:0:0:
309,303,186453,1,2,0:0:0:0:
328,292,186529,1,2,0:0:0:0:
343,275,186606,2,0,P|354:245|356:221,3,43.75,10|2|2|2,0:0|0:0|0:0|0:0,0:0:0:0:
277,226,186912,6,0,L|165:234,1,87.5
55,307,187218,1,8,0:0:0:0:
0,197,187371,2,0,P|59:215|142:142,1,175
66,39,187830,2,0,L|55:129,1,87.5,10|0,0:0|0:0,0:0:0:0:
266,88,188136,6,0,P|204:84|175:66,1,87.5,2|0,0:0|0:0,0:0:0:0:
371,22,188443,2,0,L|470:32,1,87.5,10|0,0:0|0:0,0:0:0:0:
503,210,188749,1,0,0:0:0:0:
323,154,188902,1,0,0:0:0:0:
409,130,189055,2,0,L|417:224,1,87.5,8|0,0:0|0:0,0:0:0:0:
231,211,189361,6,0,P|211:156|221:106,1,87.5,2|0,0:0|0:0,0:0:0:0:
320,291,189667,2,0,P|282:335|234:352,1,87.5,10|0,0:0|0:0,0:0:0:0:
147,304,189973,1,2,0:0:0:0:
147,304,190050,1,2,0:0:0:0:
147,304,190126,1,2,0:0:0:0:
323,198,190279,2,0,L|416:205,1,87.5,10|0,0:0|0:0,0:0:0:0:
251,269,190585,6,0,P|219:214|248:120,1,157.499995193482,12|0,0:3|3:2,0:0:0:0:
377,46,191198,5,2,3:2:0:0:
382,67,191274,1,0,3:2:0:0:
387,88,191351,1,0,3:2:0:0:
392,109,191427,1,0,3:2:0:0:
397,130,191504,1,12,3:2:0:0:
378,247,191657,1,2,0:0:0:0:
378,247,191733,1,2,0:0:0:0:
378,247,191810,6,0,L|290:236,1,87.5,2|0,0:0|0:0,0:0:0:0:
153,343,192116,2,0,L|241:332,1,87.5,8|0,0:0|0:0,0:0:0:0:
204,158,192422,2,0,P|180:197|174:243,1,87.5,2|0,0:0|0:0,0:0:0:0:
211,57,192728,2,0,P|165:63|126:88,1,87.5,10|0,0:0|0:0,0:0:0:0:
336,121,193034,6,0,P|360:82|366:36,1,87.5,2|0,0:0|0:0,0:0:0:0:
329,222,193340,2,0,P|374:215|413:190,1,87.5,10|0,0:0|0:0,0:0:0:0:
204,158,193647,2,0,L|214:267,1,87.5,2|0,0:0|0:0,0:0:0:0:
134,349,193953,1,10,0:0:0:0:
30,272,194106,1,2,0:0:0:0:
30,272,194182,1,2,0:0:0:0:
30,272,194259,6,0,P|14:216|22:174,1,87.5,2|0,0:0|0:0,0:0:0:0:
70,71,194565,1,10,0:0:0:0:
132,183,194718,1,8,0:0:0:0:
198,78,194871,2,0,L|285:82,1,87.5,2|8,0:0|0:0,0:0:0:0:
465,167,195177,2,0,P|414:169|370:192,1,87.5,10|2,0:0|0:0,0:0:0:0:
363,205,195407,1,2,0:0:0:0:
363,205,195483,2,0,L|351:303,1,87.5,2|0,0:0|0:0,0:0:0:0:
161,217,195790,6,0,P|201:233|244:233,1,87.5,10|0,0:0|0:0,0:0:0:0:
124,99,196096,1,2,0:0:0:0:
102,98,196172,1,2,0:0:0:0:
80,103,196249,1,2,0:0:0:0:
61,113,196325,1,2,0:0:0:0:
44,127,196402,2,0,P|21:156|14:169,3,43.75,10|2|2|2,0:0|0:0|0:0|0:0,0:0:0:0:
74,222,196708,6,0,L|82:320,1,87.5,2|0,0:0|0:0,0:0:0:0:
154,154,197014,1,10,0:0:0:0:
184,277,197167,2,0,P|208:232|320:160,1,175,2|0,0:0|0:0,0:0:0:0:
496,80,197626,2,0,P|473:129|444:158,1,87.5,10|0,0:0|0:0,0:0:0:0:
323,5,197932,6,0,P|361:44|374:83,1,87.5,2|0,0:0|0:0,0:0:0:0:
436,311,198238,2,0,P|398:272|385:233,1,87.5,10|0,0:0|0:0,0:0:0:0:
307,162,198545,1,0,0:0:0:0:
243,243,198698,1,0,0:0:0:0:
105,143,198851,2,0,L|201:150,1,87.5,8|0,0:0|0:0,0:0:0:0:
163,359,199157,6,0,P|137:318|134:266,1,87.5,2|0,0:0|0:0,0:0:0:0:
337,83,199463,2,0,P|330:125|306:161,1,87.5,10|0,0:0|0:0,0:0:0:0:
71,60,199769,1,2,0:0:0:0:
71,60,199846,1,2,0:0:0:0:
71,60,199922,1,2,0:0:0:0:
169,157,200075,1,10,0:0:0:0:
169,157,200381,6,0,L|74:146,1,87.5,6|2,0:0|0:0,0:0:0:0:
241,55,200687,1,10,0:0:0:0:
305,161,200841,2,0,L|294:256,2,87.5,14|2|10,0:0|0:0|0:0,0:0:0:0:
200,259,201300,1,10,0:0:0:0:
337,336,201453,2,0,P|266:343|239:359,1,87.5,14|0,0:0|0:0,0:0:0:0:
111,292,201759,5,10,0:0:0:0:
289,228,201912,1,10,0:0:0:0:
156,164,202065,1,2,0:0:0:0:
297,93,202218,1,2,0:0:0:0:
318,87,202295,1,2,0:0:0:0:
339,85,202371,1,2,0:0:0:0:
361,85,202448,1,2,0:0:0:0:
382,87,202524,2,0,L|395:135,3,43.75,2|2|2|2,0:0|0:0|0:0|0:0,0:0:0:0:
481,130,202830,6,0,P|458:191|453:231,1,87.5,14|2,0:0|0:0,0:0:0:0:
449,350,203136,1,10,0:0:0:0:
317,188,203290,2,0,P|340:249|345:289,2,87.5,14|2|10,0:0|0:0|0:0,0:0:0:0:
258,356,203749,1,10,0:0:0:0:
199,230,203902,2,0,L|209:131,1,87.5,14|0,0:0|0:0,0:0:0:0:
296,75,204208,5,10,0:0:0:0:
111,93,204361,1,10,0:0:0:0:
197,18,204514,1,2,0:0:0:0:
207,142,204667,1,2,0:0:0:0:
204,163,204744,1,2,0:0:0:0:
198,183,204820,1,2,0:0:0:0:
188,202,204897,1,2,0:0:0:0:
176,220,204973,2,0,L|126:214,3,43.75,2|2|2|2,0:0|0:0|0:0|0:0,0:0:0:0:
229,285,205279,6,0,L|286:276,3,43.75,14|0|2|0,0:0|0:0|0:0|0:0,0:0:0:0:
323,214,205585,1,10,0:0:0:0:
405,325,205738,2,0,L|462:316,3,43.75,14|0|2|0,0:0|0:0|0:0|0:0,0:0:0:0:
499,254,206044,1,10,0:0:0:0:
426,150,206198,1,10,0:0:0:0:
323,214,206351,2,0,L|328:312,1,87.5,14|0,0:0|0:0,0:0:0:0:
211,216,206657,5,10,0:0:0:0:
308,105,206810,2,0,P|233:101|209:81,1,87.5,10|2,0:0|0:0,0:0:0:0:
38,106,207116,1,2,0:0:0:0:
59,99,207193,1,2,0:0:0:0:
80,97,207269,1,2,0:0:0:0:
101,100,207346,1,2,0:0:0:0:
121,107,207422,2,0,L|129:159,3,43.75,2|2|2|2,0:0|0:0|0:0|0:0,0:0:0:0:
86,222,207728,6,0,P|51:215|33:206,3,43.75,14|0|2|0,0:0|0:0|0:0|0:0,0:0:0:0:
169,221,208034,1,10,0:0:0:0:
286,145,208187,2,0,P|321:152|339:161,3,43.75,14|0|2|0,0:0|0:0|0:0|0:0,0:0:0:0:
203,146,208493,1,10,0:0:0:0:
290,263,208647,1,10,0:0:0:0:
418,197,208800,2,0,P|427:137|416:104,1,87.5,14|0,0:0|0:0,0:0:0:0:
490,266,209106,5,10,0:0:0:0:
328,155,209259,2,0,P|319:215|330:248,1,87.5,10|2,0:0|0:0,0:0:0:0:
239,335,209565,1,2,0:0:0:0:
217,328,209642,1,2,0:0:0:0:
195,324,209718,1,2,0:0:0:0:
173,322,209795,1,2,0:0:0:0:
151,322,209871,2,0,L|135:372,3,43.75,2|2|2|2,0:0|0:0|0:0|0:0,0:0:0:0:
81,294,210177,6,0,P|70:243|49:206,1,87.5,14|2,0:0|0:0,0:0:0:0:
90,87,210483,1,10,0:0:0:0:
184,182,210636,2,0,P|195:131|216:94,2,87.5,14|2|10,0:0|0:0|0:0,0:0:0:0:
260,286,211096,1,10,0:0:0:0:
399,166,211249,2,0,L|304:182,1,87.5,14|0,0:0|0:0,0:0:0:0:
479,103,211555,5,10,0:0:0:0:
392,250,211708,1,10,0:0:0:0:
349,83,211861,1,2,0:0:0:0:
494,183,212014,1,2,0:0:0:0:
498,204,212091,1,2,0:0:0:0:
500,225,212167,1,2,0:0:0:0:
498,246,212244,1,2,0:0:0:0:
493,267,212320,2,0,L|507:310,3,43.75,2|2|2|2,0:0|0:0|0:0|0:0,0:0:0:0:
392,250,212626,6,0,P|352:240|298:246,1,87.5,14|2,0:0|0:0,0:0:0:0:
209,333,212932,1,10,0:0:0:0:
190,129,213085,2,0,L|199:222,1,87.5,14|2,0:0|0:0,0:0:0:0:
306,339,213392,1,10,0:0:0:0:
130,276,213545,1,10,0:0:0:0:
283,156,213698,2,0,P|312:106|319:61,1,87.5,14|0,0:0|0:0,0:0:0:0:
182,13,214004,5,10,0:0:0:0:
56,113,214157,2,0,L|166:128,1,87.5,10|2,0:0|0:0,0:0:0:0:
341,249,214463,1,2,0:0:0:0:
319,246,214540,1,2,0:0:0:0:
297,247,214616,1,2,0:0:0:0:
276,253,214693,1,2,0:0:0:0:
256,262,214769,2,0,L|242:321,3,43.75,2|2|2|2,0:0|0:0|0:0|0:0,0:0:0:0:
183,351,215075,6,0,L|126:336,3,43.75,14|0|2|0,0:0|0:0|0:0|0:0,0:0:0:0:
123,263,215381,1,10,0:0:0:0:
319,355,215534,1,14,0:0:0:0:
340,349,215611,1,0,0:0:0:0:
360,343,215687,1,2,0:0:0:0:
381,337,215764,1,0,0:0:0:0:
402,331,215841,1,10,0:0:0:0:
343,227,215994,1,10,0:0:0:0:
463,227,216147,2,0,P|482:169|475:128,1,87.5,14|0,0:0|0:0,0:0:0:0:
379,36,216453,5,10,0:0:0:0:
256,115,216606,2,0,L|360:132,1,87.5,10|2,0:0|0:0,0:0:0:0:
211,219,216912,1,2,0:0:0:0:
189,222,216988,1,2,0:0:0:0:
168,229,217065,1,2,0:0:0:0:
148,239,217142,1,2,0:0:0:0:
130,251,217218,2,0,P|101:274|90:286,3,43.75,2|2|2|2,0:0|0:0|0:0|0:0,0:0:0:0:
41,220,217524,6,0,P|27:175|11:151,3,43.75,14|0|2|0,0:0|0:0|0:0|0:0,0:0:0:0:
20,298,217830,1,10,0:0:0:0:
115,156,217983,1,14,0:0:0:0:
120,134,218060,1,0,0:0:0:0:
122,112,218136,1,2,0:0:0:0:
122,89,218213,1,0,0:0:0:0:
118,67,218290,1,10,0:0:0:0:
13,79,218443,1,10,0:0:0:0:
207,121,218596,2,0,L|299:103,1,87.5,14|0,0:0|0:0,0:0:0:0:
464,120,218902,5,10,0:0:0:0:
317,194,219055,1,10,0:0:0:0:
444,234,219208,1,2,0:0:0:0:
390,325,219361,1,2,0:0:0:0:
372,337,219437,1,2,0:0:0:0:
351,344,219514,1,2,0:0:0:0:
329,347,219591,1,2,0:0:0:0:
307,347,219667,1,2,0:0:0:0:
285,343,219744,1,2,0:0:0:0:
264,335,219820,1,2,0:0:0:0:
244,324,219897,1,2,0:0:0:0:
231,312,219973,6,0,P|163:273|98:276,2,131.25,14|0|0,0:0|0:0|0:0,0:0:0:0:
251,131,221198,2,0,L|259:178,2,43.75
346,307,221810,2,0,P|357:274|366:255,1,43.75
433,209,222116,2,0,L|441:234,3,21.875,0|0|0|0,3:0|3:0|3:0|3:0,0:0:0:0:
453,182,222422,6,0,P|456:135|482:52,2,131.25
350,57,223647,2,0,P|333:31|316:14,2,43.75
269,200,224259,2,0,P|257:230|247:247,1,43.75
207,118,224565,2,0,P|198:91|197:84,3,21.875,0|0|0|0,3:0|3:0|3:0|3:0,0:0:0:0:
173,68,224871,6,0,P|110:49|57:59,1,104.999996795654,12|0,0:0|0:0,0:0:0:0:
16,149,225330,2,0,L|51:283,1,131.25
313,113,226096,1,8,0:0:0:0:
415,170,226402,1,0,0:0:0:0:
314,232,226708,1,0,0:0:0:0:
418,61,227014,1,0,0:0:0:0:
389,302,227320,6,0,P|342:338|272:328,1,131.25000500679,8|0,0:0|0:0,0:0:0:0:
193,274,227779,2,0,B|124:268|138:314|69:309,1,131.25
34,75,228545,1,8,0:0:0:0:
252,130,228851,1,0,0:0:0:0:
122,173,229157,1,8,0:0:0:0:
382,87,229463,1,12,0:0:0:0:
476,215,229769,6,0,L|466:308,1,87.5,12|0,0:0|0:0,0:0:0:0:
310,244,230075,2,0,L|361:235,2,43.75,8|0|0,0:0|0:0|0:0,0:0:0:0:
281,352,230381,2,0,P|228:354|181:331,1,87.5,8|0,0:0|0:0,0:0:0:0:
145,227,230687,1,8,0:0:0:0:
145,227,230764,1,0,0:0:0:0:
145,227,230841,1,0,0:0:0:0:
237,135,230994,6,0,L|326:122,1,87.5,8|0,0:0|0:0,0:0:0:0:
126,67,231300,2,0,L|71:56,2,43.75,8|0|0,0:0|0:0|0:0,0:0:0:0:
22,184,231606,2,0,P|16:242|29:276,1,87.5,8|0,0:0|0:0,0:0:0:0:
139,342,231912,1,8,0:0:0:0:
139,342,231988,1,0,0:0:0:0:
139,342,232065,1,0,0:0:0:0:
292,255,232218,6,0,L|183:241,1,87.5,8|0,0:0|0:0,0:0:0:0:
384,191,232524,2,0,L|431:186,2,43.75,8|0|0,0:0|0:0|0:0,0:0:0:0:
279,142,232830,2,0,P|257:81|258:42,1,87.5,8|0,0:0|0:0,0:0:0:0:
399,304,233136,1,8,0:0:0:0:
399,304,233213,1,0,0:0:0:0:
399,304,233290,1,0,0:0:0:0:
375,111,233443,6,0,P|421:97|468:99,1,87.5,8|0,0:0|0:0,0:0:0:0:
293,293,233749,2,0,P|260:302|230:303,2,43.75,8|0|0,0:0|0:0|0:0,0:0:0:0:
111,200,234055,2,0,P|75:156|101:75,1,131.25,12|0,0:3|0:0,0:0:0:0:
156,62,234361,2,0,L|184:203,1,131.25,12|0,0:3|0:0,0:0:0:0:
246,228,234667,6,0,L|335:199,1,87.5,12|0,0:0|0:0,0:0:0:0:
454,254,234973,1,8,0:0:0:0:
454,254,235050,1,0,0:0:0:0:
454,254,235126,1,0,0:0:0:0:
252,325,235279,2,0,P|194:311|167:283,1,87.5,8|0,0:0|0:0,0:0:0:0:
371,320,235585,2,0,P|397:348|407:365,2,43.75,8|0|0,0:0|0:0|0:0,0:0:0:0:
296,207,235892,6,0,P|289:156|298:116,1,87.5,8|0,0:0|0:0,0:0:0:0:
405,58,236198,1,8,0:0:0:0:
405,58,236274,1,0,0:0:0:0:
405,58,236351,1,0,0:0:0:0:
192,132,236504,2,0,L|99:112,1,87.5,8|0,0:0|0:0,0:0:0:0:
380,191,236810,2,0,L|426:183,2,43.75,8|0|0,0:0|0:0|0:0,0:0:0:0:
218,246,237116,6,0,P|165:272|141:298,1,87.5,8|0,0:0|0:0,0:0:0:0:
322,315,237422,1,8,0:0:0:0:
322,315,237499,1,0,0:0:0:0:
322,315,237575,1,0,0:0:0:0:
111,203,237728,2,0,P|56:182|26:153,1,87.5,8|0,0:0|0:0,0:0:0:0:
270,157,238034,2,0,L|317:146,2,43.75,8|0|0,0:0|0:0|0:0,0:0:0:0:
173,10,238341,5,8,3:2:0:0:
172,27,238417,1,0,3:2:0:0:
171,44,238494,1,0,3:2:0:0:
170,61,238570,1,0,3:2:0:0:
169,78,238647,2,0,L|120:66,4,43.75,8|0|0|0|8,3:2|3:2|3:2|3:2|3:2,0:0:0:0:
215,252,239259,1,2,0:0:0:0:
232,248,239335,1,2,0:0:0:0:
249,244,239412,1,2,0:0:0:0:
266,240,239488,1,2,0:0:0:0:
283,237,239565,6,0,P|332:241|386:266,1,87.5,14|0,0:0|0:0,0:0:0:0:
506,136,239871,2,0,P|464:150|421:153,1,87.5,10|0,0:0|0:0,0:0:0:0:
236,164,240177,2,0,P|280:227|291:341,1,175,10|10,0:0|0:0,0:0:0:0:
326,103,240636,1,0,0:0:0:0:
405,238,240790,6,0,P|410:179|430:139,1,87.5,10|0,0:0|0:0,0:0:0:0:
250,246,241096,2,0,P|209:277|162:292,1,87.5,8|0,0:0|0:0,0:0:0:0:
275,14,241402,2,0,L|298:116,1,87.5,10|0,0:0|0:0,0:0:0:0:
186,150,241708,1,10,0:0:0:0:
68,116,241861,1,2,0:0:0:0:
68,116,241937,1,0,0:0:0:0:
68,116,242014,1,10,0:0:0:0:
156,33,242167,5,0,0:0:0:0:
101,219,242320,2,0,P|83:266|56:303,1,87.5,10|0,0:0|0:0,0:0:0:0:
222,279,242626,2,0,P|218:235|203:195,1,87.5,10|0,0:0|0:0,0:0:0:0:
279,129,242932,2,0,P|322:154|353:187,1,87.5,10|0,0:0|0:0,0:0:0:0:
125,113,243238,6,0,P|110:64|110:10,1,87.5,10|0,0:0|0:0,0:0:0:0:
202,194,243545,2,0,P|167:231|120:258,1,87.5,8|0,0:0|0:0,0:0:0:0:
239,89,243851,2,0,P|288:100|335:127,1,87.5,10|0,0:0|0:0,0:0:0:0:
419,253,244157,1,10,0:0:0:0:
414,236,244233,1,2,0:0:0:0:
412,218,244310,1,2,0:0:0:0:
412,200,244386,1,2,0:0:0:0:
413,182,244463,6,0,P|429:133|454:98,1,87.5,14|0,0:0|0:0,0:0:0:0:
302,243,244769,2,0,P|325:279|338:321,1,87.5,8|0,0:0|0:0,0:0:0:0:
190,359,245075,2,0,L|88:345,1,87.5,10|0,0:0|0:0,0:0:0:0:
167,156,245381,2,0,L|191:248,1,87.5,10|0,0:0|0:0,0:0:0:0:
70,99,245687,6,0,P|123:50|222:58,1,175,10|10,0:0|0:0,0:0:0:0:
356,100,246147,1,0,0:0:0:0:
291,244,246300,2,0,P|262:193|259:148,1,87.5,10|0,0:0|0:0,0:0:0:0:
490,195,246606,2,0,L|384:205,1,87.5,10|0,0:0|0:0,0:0:0:0:
385,222,246835,1,0,0:0:0:0:
385,222,246912,1,10,0:0:0:0:
466,315,247065,5,0,0:0:0:0:
342,349,247218,2,0,L|240:335,1,87.5,8|0,0:0|0:0,0:0:0:0:
232,349,247448,1,0,0:0:0:0:
232,349,247524,1,8,0:0:0:0:
166,242,247677,1,0,0:0:0:0:
59,311,247830,1,10,0:0:0:0:
12,212,247983,1,2,0:0:0:0:
12,212,248060,1,2,0:0:0:0:
12,212,248136,6,0,P|-1:149|9:110,1,87.5,10|0,0:0|0:0,0:0:0:0:
201,149,248443,2,0,P|138:162|99:152,1,87.5,8|0,0:0|0:0,0:0:0:0:
155,27,248749,2,0,L|257:33,1,87.5,10|0,0:0|0:0,0:0:0:0:
427,114,249055,1,10,0:0:0:0:
409,114,249131,1,2,0:0:0:0:
391,117,249208,1,2,0:0:0:0:
374,121,249284,1,2,0:0:0:0:
357,127,249361,6,0,P|347:167|345:228,1,87.5,14|0,0:0|0:0,0:0:0:0:
270,327,249667,2,0,P|313:329|356:339,1,87.5,10|0,0:0|0:0,0:0:0:0:
227,211,249973,2,0,P|184:241|54:240,1,175,10|10,0:0|0:0,0:0:0:0:
13,133,250432,1,0,0:0:0:0:
145,56,250585,6,0,L|128:157,1,87.5,10|0,0:0|0:0,0:0:0:0:
327,129,250892,2,0,L|226:112,1,87.5,8|0,0:0|0:0,0:0:0:0:
350,246,251198,2,0,P|407:218|454:214,1,87.5,10|0,0:0|0:0,0:0:0:0:
332,359,251504,1,8,0:0:0:0:
241,215,251657,1,2,0:0:0:0:
214,329,251810,6,0,P|163:347|127:349,1,87.5,10|0,0:0|0:0,0:0:0:0:
15,176,252116,2,0,L|37:270,1,87.5,10|0,0:0|0:0,0:0:0:0:
156,187,252422,1,10,0:0:0:0:
96,110,252575,1,0,0:0:0:0:
120,271,252728,1,10,0:0:0:0:
252,179,252881,1,0,0:0:0:0:
25,297,253034,6,0,P|60:352|173:358,1,175,10|8,0:0|0:0,0:0:0:0:
236,259,253494,1,0,0:0:0:0:
140,188,253647,2,0,P|118:258|124:291,1,87.5,10|0,0:0|0:0,0:0:0:0:
294,362,253953,1,10,0:0:0:0:
311,361,254029,1,2,0:0:0:0:
328,358,254106,1,2,0:0:0:0:
344,353,254182,1,2,0:0:0:0:
359,345,254259,6,0,P|395:320|422:275,1,87.5,14|0,0:0|0:0,0:0:0:0:
323,218,254565,1,10,0:0:0:0:
446,169,254718,1,0,0:0:0:0:
361,27,254871,2,0,L|352:121,1,87.5,10|0,0:0|0:0,0:0:0:0:
233,271,255177,2,0,L|224:183,1,87.5,10|0,0:0|0:0,0:0:0:0:
83,25,255483,6,0,P|137:70|238:69,1,175,10|8,0:0|0:0,0:0:0:0:
72,161,255943,1,2,0:0:0:0:
72,161,256019,1,2,0:0:0:0:
72,161,256096,2,0,P|31:172|13:180,3,43.75,10|2|2|2,0:0|0:0|0:0|0:0,0:0:0:0:
139,210,256402,2,0,P|180:221|198:229,3,43.75,10|2|2|2,0:0|0:0|0:0|0:0,0:0:0:0:
66,244,256708,6,0,L|57:337,1,87.5,10|0,0:0|0:0,0:0:0:0:
167,132,257014,2,0,P|128:97|88:84,1,87.5,8|0,0:0|0:0,0:0:0:0:
256,273,257320,2,0,L|256:173,1,87.5,8|0,0:0|0:0,0:0:0:0:
416,85,257626,2,0,P|376:101|345:132,1,87.5,8|0,0:0|0:0,0:0:0:0:
454,331,257932,2,0,L|446:244,1,87.5,8|0,0:0|0:0,0:0:0:0:
212,352,258238,2,0,P|256:360|300:352,1,87.5,8|0,0:0|0:0,0:0:0:0:
387,185,258545,6,0,B|338:119|256:135|256:234|173:250|124:185,1,306.25,12|0,0:3|0:0,0:0:0:0:
106,157,259157,5,12,0:3:0:0:
201,81,259310,1,4,0:3:0:0:
286,84,259616,5,4,0:3:0:0:
119,76,259769,1,4,0:3:0:0:
52,11,260075,5,4,0:3:0:0:
240,151,260228,1,4,0:3:0:0:
267,48,260534,5,4,0:3:0:0:
217,246,260687,1,4,0:3:0:0:
146,174,260994,5,4,0:3:0:0:
280,314,261147,2,0,P|339:316|378:297,1,87.5,4|0,0:3|3:0,0:0:0:0:
382,293,261376,1,0,3:0:0:0:
382,293,261453,1,4,0:3:0:0:
309,180,261606,6,0,P|281:127|245:103,1,87.5,4|0,0:3|3:0,0:0:0:0:
239,102,261835,1,0,3:0:0:0:
239,102,261912,1,4,0:3:0:0:
182,221,262065,6,0,P|150:271|147:314,1,87.5,4|0,0:3|3:0,0:0:0:0:
149,320,262294,1,0,3:0:0:0:
149,320,262371,1,4,0:3:0:0:
280,314,262524,6,0,P|339:316|378:297,1,87.5,4|0,0:3|3:0,0:0:0:0:
290,116,262830,5,4,3:0:0:0:
290,116,262983,1,4,0:3:0:0:
133,89,263290,5,4,0:3:0:0:
133,89,263443,1,4,0:3:0:0:
305,218,263749,5,4,0:3:0:0:
305,218,263902,1,4,0:3:0:0:
245,37,264208,5,4,0:3:0:0:
245,37,264361,1,4,0:3:0:0:
194,238,264667,5,4,0:3:0:0:
194,238,264820,1,4,0:3:0:0:
60,78,265126,5,4,0:3:0:0:
60,78,265279,1,4,0:3:0:0:
326,122,265585,5,4,0:3:0:0:
326,122,265738,1,4,0:3:0:0:
13,206,266045,5,4,0:3:0:0:
13,206,266198,1,12,0:3:0:0:
256,192,267728,5,10,0:0:0:0:
256,192,267805,12,0,275075,0:0:0:0:
