osu file format v14

[General]
AudioFilename: lub.mp3
AudioLeadIn: 0
PreviewTime: 59733
Countdown: 0
SampleSet: Soft
StackLeniency: 0.7
Mode: 0
LetterboxInBreaks: 0
WidescreenStoryboard: 1

[Editor]
Bookmarks: 3116,116939,134586
DistanceSpacing: 0.8
BeatDivisor: 3
GridSize: 4
TimelineZoom: 1

[Metadata]
Title:Waizatsu Ideology
TitleUnicode:猥雑イデオロギー
Artist:BUTAOTOME
ArtistUnicode:豚乙女
Creator:Jounzan
Version:Hard
Source:
Tags:c86 EvilElvis Doubt ダウト Ranko ランコ Damnae Seikatu
BeatmapID:845013
BeatmapSetID:387136

[Difficulty]
HPDrainRate:6
CircleSize:4
OverallDifficulty:7
ApproachRate:7.5
SliderMultiplier:1
SliderTickRate:1

[Events]
//Background and Video events
0,0,"bgg.jpg",0,0
//Break Periods
2,163704,175232
//Storyboard Layer 0 (Background)
//Storyboard Layer 1 (Fail)
//Storyboard Layer 2 (Pass)
//Storyboard Layer 3 (Foreground)
//Storyboard Sound Samples

[TimingPoints]
469,441.176470588235,4,2,1,20,1,0
60469,-76.9230769230769,4,2,1,25,0,0
134586,-66.6666666666667,4,2,1,35,0,1
148704,-66.6666666666667,4,2,1,35,0,0
162821,-66.6666666666667,4,2,1,35,0,0
176939,-58.8235294117647,4,2,1,35,0,1
191057,-58.8235294117647,4,2,1,35,0,0
204733,-58.8235294117647,4,2,1,25,0,1
204880,-58.8235294117647,4,2,1,35,0,1
205027,-58.8235294117647,4,2,1,40,0,0

[Colours]
Combo1 : 17,254,176
Combo2 : 173,255,95
Combo3 : 255,88,100
Combo4 : 255,94,55

[HitObjects]
27,74,60469,6,0,P|68:77|137:69,1,86.6666626993817,4|0,1:0|0:0,0:0:0:0:
131,62,60910,1,8,0:3:0:0:
216,188,61204,1,0,1:0:0:0:
216,188,61351,2,0,P|213:140|215:99,1,86.6666626993817,0|0,1:0|0:0,0:0:0:0:
209,65,61792,2,0,L|315:59,1,86.6666626993817,8|0,0:3|0:0,0:0:0:0:
309,31,62233,5,0,1:0:0:0:
352,142,62527,1,0,1:0:0:0:
352,142,62674,2,0,P|348:191|354:231,1,86.6666626993817,8|0,1:3|0:0,0:0:0:0:
368,243,63116,2,0,L|257:249,1,86.6666626993817,0|0,1:0|0:0,0:0:0:0:
275,268,63557,1,8,0:3:0:0:
399,318,63851,5,0,0:0:0:0:
399,318,63998,2,0,L|499:318,1,86.6666626993817,0|0,1:0|0:0,0:0:0:0:
494,337,64439,1,8,0:3:0:0:
469,241,64733,1,0,1:0:0:0:
469,241,64880,2,0,P|465:191|474:148,1,86.6666626993817,0|0,1:0|0:0,0:0:0:0:
450,149,65321,1,8,0:3:0:0:
327,51,65616,5,0,0:0:0:0:
347,43,65763,2,0,P|351:93|342:136,1,86.6666626993817,0|0,1:0|1:0,0:0:0:0:
326,140,66204,2,0,L|216:133,1,86.6666626993817,8|0,1:3|1:0,0:0:0:0:
228,115,66645,2,2,P|218:175|236:253,1,129.999994049073,2|12,1:0|0:3,1:0:0:0:
222,262,67233,2,0,L|219:322,1,43.3333313496908,8|8,0:1|1:0,0:0:0:0:
229,336,67527,6,0,P|179:335|126:343,1,86.6666626993817,4|0,1:0|0:0,0:0:0:0:
123,328,67969,1,8,0:3:0:0:
30,224,68263,1,0,1:0:0:0:
30,224,68410,2,0,P|80:226|121:224,1,86.6666626993817,0|0,1:0|0:0,0:0:0:0:
133,237,68851,2,0,L|128:135,1,86.6666626993817,8|0,0:3|0:0,0:0:0:0:
143,134,69292,5,0,1:0:0:0:
274,58,69586,1,0,1:0:0:0:
274,58,69733,2,0,P|224:60|183:58,1,86.6666626993817,8|0,1:3|0:0,0:0:0:0:
166,53,70174,1,0,1:0:0:0:
269,142,70469,1,0,0:0:0:0:
269,142,70616,2,0,P|319:144|360:142,1,86.6666626993817,8|0,0:3|0:0,0:0:0:0:
359,163,71057,5,0,1:0:0:0:
446,223,71351,1,0,0:0:0:0:
446,223,71498,2,0,P|446:269|452:327,1,86.6666626993817,8|0,0:3|1:0,0:0:0:0:
445,330,71939,1,0,1:0:0:0:
346,346,72233,1,0,0:0:0:0:
346,346,72380,2,0,L|250:355,1,86.6666626993817,8|0,0:3|0:0,0:0:0:0:
242,367,72821,6,0,P|236:317|239:275,1,86.6666626993817,0|0,1:0|1:0,0:0:0:0:
219,268,73263,1,8,1:3:0:0:
294,195,73557,1,0,0:0:0:0:
314,186,73704,2,0,P|314:131|308:91,1,86.6666626993817,0|0,1:0|1:0,0:0:0:0:
320,80,74145,2,0,L|257:75,1,43.3333313496908,8|8,1:3|0:1,0:0:0:0:
226,25,74439,1,0,1:0:0:0:
226,25,74586,6,0,P|171:44|133:117,1,129.999994049073,4|8,1:0|0:3,0:0:0:0:
36,217,75321,1,0,1:0:0:0:
36,217,75468,2,0,P|47:262|51:311,1,86.6666626993817,2|0,1:3|0:0,0:0:0:0:
65,318,75910,2,0,L|13:328,2,43.3333313496908,8|0|0,0:3|1:0|1:0,0:0:0:0:
137,289,76351,6,0,P|163:328|266:340,1,129.999994049073,0|8,1:0|0:3,0:0:0:0:
348,237,77086,1,0,1:0:0:0:
348,237,77233,2,0,P|346:184|341:140,1,86.6666626993817,2|0,1:3|0:0,0:0:0:0:
352,131,77674,1,8,1:3:0:0:
205,45,77968,5,0,0:0:0:0:
205,45,78115,2,0,P|200:104|203:195,1,129.999994049073,0|8,1:0|0:3,0:0:0:0:
274,286,78851,1,0,1:0:0:0:
274,286,78998,2,0,L|171:295,1,86.6666626993817,2|0,1:3|0:0,0:0:0:0:
169,282,79439,1,8,1:3:0:0:
65,362,79733,5,0,0:0:0:0:
65,362,79880,2,0,P|43:304|68:220,2,129.999994049073,4|8|6,0:0|0:3|0:3,0:0:0:0:
195,364,81057,1,0,0:0:0:0:
195,364,81204,2,0,L|248:369,1,43.3333313496908,8|0,1:3|1:0,0:0:0:0:
297,326,81498,1,0,1:0:0:0:
297,326,81645,6,0,P|350:316|440:338,1,129.999994049073,4|8,1:0|0:3,0:0:0:0:
483,213,82380,1,0,1:0:0:0:
483,213,82527,2,0,P|434:220|394:212,1,86.6666626993817,2|0,1:3|1:0,0:0:0:0:
380,200,82968,1,8,1:3:0:0:
276,113,83263,5,0,0:0:0:0:
276,113,83410,2,0,L|281:251,1,129.999994049073,0|8,1:0|1:3,0:0:0:0:
199,367,84145,1,0,1:0:0:0:
199,367,84292,2,0,L|203:279,1,86.6666626993817,2|0,1:3|0:0,0:0:0:0:
196,259,84733,1,8,1:3:0:0:
141,144,85027,5,0,0:0:0:0:
141,144,85174,2,0,P|128:82|162:17,1,129.999994049073,0|8,1:0|0:3,0:0:0:0:
332,88,85910,1,0,1:0:0:0:
332,88,86057,2,0,P|272:82|236:93,1,86.6666626993817,2|0,1:3|0:0,0:0:0:0:
230,102,86498,1,8,1:3:0:0:
106,219,86792,5,0,0:0:0:0:
106,219,86939,2,0,P|166:213|202:224,1,86.6666626993817,0|0,1:0|1:0,0:0:0:0:
209,208,87380,2,0,L|212:255,1,43.3333313496908,8|0,1:3|1:0,0:0:0:0:
214,272,87674,1,8,0:1:0:0:
215,293,87821,1,4,0:0:0:0:
453,179,88557,5,0,0:0:0:0:
453,179,88704,2,0,P|397:185|354:177,1,86.6666626993817,4|0,1:0|0:0,0:0:0:0:
348,169,89145,1,8,1:3:0:0:
226,87,89439,1,0,0:0:0:0:
226,87,89586,2,0,P|156:80|83:109,1,129.999994049073,8|8,1:0|1:3,0:0:0:0:
46,233,90321,5,0,0:0:0:0:
46,233,90468,2,0,L|140:229,1,86.6666626993817,0|0,1:0|0:0,0:0:0:0:
143,248,90910,1,8,0:3:0:0:
228,356,91204,1,0,1:0:0:0:
228,356,91351,1,8,1:0:0:0:
235,250,91645,1,0,1:0:0:0:
235,250,91792,2,0,L|335:243,1,86.6666626993817,8|0,1:3|0:0,0:0:0:0:
339,255,92233,6,0,P|342:196|326:113,1,129.999994049073,6|8,1:0|1:3,0:0:0:0:
481,222,92968,1,0,0:0:0:0:
481,222,93116,2,0,P|481:161|486:136,1,86.6666626993817,10|2,1:0|0:1,0:0:0:0:
493,115,93557,1,8,1:3:0:0:
384,19,93851,5,2,0:1:0:0:
384,19,93999,2,0,P|391:79|389:104,1,86.6666626993817,2|8,1:0|1:0,0:0:0:0:
385,126,94439,2,0,L|291:132,1,86.6666626993817,8|2,1:3|1:0,0:0:0:0:
278,139,94880,1,10,1:0:0:0:
143,179,95174,1,0,0:0:0:0:
143,179,95321,2,0,P|137:126|142:92,1,86.6666626993817,8|0,1:3|0:0,0:0:0:0:
134,72,95763,6,0,L|233:67,1,86.6666626993817,0|0,1:0|0:0,0:0:0:0:
242,67,96204,1,8,1:3:0:0:
323,209,96498,1,0,0:0:0:0:
323,209,96645,2,0,P|325:258|321:308,1,86.6666626993817,8|0,1:0|0:0,0:0:0:0:
319,316,97086,1,8,1:3:0:0:
207,339,97380,5,0,1:0:0:0:
207,339,97527,2,0,P|152:336|102:343,1,86.6666626993817,0|0,1:0|1:0,0:0:0:0:
108,356,97968,1,8,1:3:0:0:
37,165,98263,1,0,1:0:0:0:
37,165,98410,2,0,P|92:162|142:169,1,86.6666626993817,8|0,1:0|1:0,0:0:0:0:
148,149,98851,1,8,1:3:0:0:
256,71,99145,5,0,1:0:0:0:
256,71,99292,2,0,B|272:139|237:139|253:208,1,129.999994049073,4|8,1:0|0:3,0:0:0:0:
337,334,100027,1,0,0:0:0:0:
337,334,100174,2,0,P|337:282|329:235,1,86.6666626993817,8|0,1:0|0:0,0:0:0:0:
329,226,100616,1,8,1:3:0:0:
171,203,100910,5,0,1:0:0:0:
171,203,101057,2,0,P|161:254|160:301,1,86.6666626993817,6|8,1:0|1:0,0:0:0:0:
162,310,101498,1,8,1:3:0:0:
254,240,101792,1,0,1:0:0:0:
254,240,101939,2,0,L|246:184,1,43.3333313496908,10|0,1:0|0:0,0:0:0:0:
274,130,102233,1,0,1:0:0:0:
274,130,102380,2,0,L|262:67,1,43.3333313496908,8|0,1:3|1:0,0:0:0:0:
318,29,102674,5,0,1:0:0:0:
318,29,102821,2,0,P|387:52|409:118,1,129.999994049073,4|8,1:0|1:3,0:0:0:0:
341,268,103557,1,0,1:0:0:0:
341,268,103704,2,0,L|337:167,1,86.6666626993817,8|0,1:0|1:0,0:0:0:0:
339,159,104145,1,8,1:3:0:0:
193,52,104439,5,0,1:0:0:0:
193,52,104586,2,0,L|197:153,1,86.6666626993817,0|0,1:0|0:0,0:0:0:0:
210,156,105027,2,0,P|157:164|114:162,1,86.6666626993817,8|0,1:3|0:0,0:0:0:0:
102,158,105468,1,8,1:0:0:0:
32,262,105763,1,0,0:0:0:0:
32,262,105910,2,0,L|129:256,1,86.6666626993817,8|0,1:3|0:0,0:0:0:0:
133,241,106351,6,0,P|199:275|219:336,1,129.999994049073,6|8,1:0|1:3,0:0:0:0:
239,192,107086,1,0,0:0:0:0:
239,192,107233,2,0,P|236:128|240:74,1,86.6666626993817,10|2,1:0|1:0,0:0:0:0:
238,83,107674,1,8,1:3:0:0:
350,130,107968,5,0,0:0:0:0:
350,130,108116,2,0,P|348:78|350:27,1,86.6666626993817,6|8,1:0|1:0,0:0:0:0:
337,25,108557,2,0,L|439:29,1,86.6666626993817,8|0,1:3|1:0,0:0:0:0:
445,29,108998,1,10,1:0:0:0:
265,114,109292,1,0,0:0:0:0:
265,114,109439,2,0,L|219:110,1,43.3333313496908,8|0,1:3|1:0,0:0:0:0:
166,64,109733,5,0,1:0:0:0:
166,64,109880,2,0,P|130:98|134:191,1,129.999994049073,4|8,1:0|1:3,0:0:0:0:
266,283,110616,1,0,0:0:0:0:
266,283,110763,2,0,P|269:236|259:181,1,86.6666626993817,8|0,1:0|0:0,0:0:0:0:
259,175,111204,1,8,1:3:0:0:
76,259,111498,5,0,1:0:0:0:
76,259,111645,2,0,L|180:253,1,86.6666626993817,0|0,1:0|0:0,0:0:0:0:
184,251,112086,1,8,1:3:0:0:
341,202,112380,1,0,0:0:0:0:
341,202,112527,2,0,L|452:211,1,86.6666626993817,8|0,1:0|1:0,0:0:0:0:
449,209,112968,1,8,1:3:0:0:
269,130,113263,5,0,1:0:0:0:
269,130,113410,2,0,L|122:136,1,129.999994049073,6|8,1:0|1:3,0:0:0:0:
272,41,114145,1,0,1:0:0:0:
272,41,114292,2,0,L|370:47,1,86.6666626993817,10|2,1:0|1:0,0:0:0:0:
380,46,114733,1,8,1:3:0:0:
485,21,115027,5,0,1:0:0:0:
485,21,115174,2,0,P|479:78|485:129,1,86.6666626993817,6|8,1:0|1:0,0:0:0:0:
463,120,115616,2,0,L|465:168,1,43.3333313496908,8|0,1:3|1:0,0:0:0:0:
448,188,115910,1,2,1:0:0:0:
446,218,116057,2,0,L|453:279,1,43.3333313496908,10|0,1:0|0:0,0:0:0:0:
423,273,116351,1,2,1:0:0:0:
433,301,116498,1,12,1:3:0:0:
431,330,116645,1,0,3:0:0:0:
421,358,116792,1,0,3:0:0:0:
394,372,116939,6,0,B|320:379|336:345|241:359,1,129.999994049073,4|12,1:0|0:3,0:0:0:0:
290,216,117674,1,0,3:0:0:0:
290,216,117821,2,0,P|291:170|280:105,1,86.6666626993817,8|0,1:0|0:0,0:0:0:0:
300,102,118263,1,12,1:3:0:0:
111,155,118557,5,4,0:3:0:0:
111,155,118704,2,0,P|110:109|121:44,1,86.6666626993817,0|4,1:0|3:0,0:0:0:0:
101,41,119146,1,12,1:3:0:0:
244,23,119439,1,0,3:0:0:0:
244,23,119586,2,0,L|349:32,1,86.6666626993817,8|0,1:0|0:0,0:0:0:0:
358,20,120027,2,0,L|352:75,1,43.3333313496908,10|0,0:3|3:0,0:0:0:0:
397,124,120321,5,0,3:0:0:0:
397,124,120468,2,0,P|419:170|411:255,1,129.999994049073,4|12,1:0|3:0,0:0:0:0:
279,231,121204,1,0,3:0:0:0:
279,231,121351,2,0,P|270:280|282:324,1,86.6666626993817,8|0,1:0|0:0,0:0:0:0:
271,345,121792,1,12,3:0:0:0:
502,291,122086,5,4,3:0:0:0:
502,291,122233,2,0,P|511:242|499:198,1,86.6666626993817,0|4,1:0|3:0,0:0:0:0:
497,176,122674,2,0,L|399:183,1,86.6666626993817,12|0,1:3|3:0,0:0:0:0:
380,185,123116,1,8,1:0:0:0:
265,124,123410,1,0,0:0:0:0:
265,124,123557,2,0,L|263:53,2,43.3333313496908,10|0|0,3:0|3:0|3:0,0:0:0:0:
183,91,123998,6,0,P|132:112|106:189,1,129.999994049073,4|12,1:0|1:3,0:0:0:0:
196,226,124733,1,0,3:0:0:0:
196,226,124880,2,0,L|307:221,1,86.6666626993817,8|0,1:0|3:0,0:0:0:0:
298,247,125321,1,12,1:3:0:0:
141,316,125616,5,4,3:3:0:0:
141,316,125763,2,0,L|30:311,1,86.6666626993817,0|4,1:0|3:0,0:0:0:0:
52,281,126204,1,12,1:3:0:0:
128,186,126498,1,4,3:0:0:0:
128,186,126645,1,4,1:0:0:0:
140,110,127086,5,4,1:0:0:0:
153,37,127527,6,0,L|165:180,1,129.999994049073,4|12,1:2|1:3,0:0:0:0:
197,345,128263,1,0,3:0:0:0:
197,345,128410,2,0,L|203:255,1,86.6666626993817,8|4,1:0|3:0,0:0:0:0:
205,228,128851,1,12,1:3:0:0:
353,137,129145,5,4,3:0:0:0:
353,137,129292,2,0,P|291:129|248:137,1,86.6666626993817,0|4,1:0|0:3,0:0:0:0:
238,140,129733,1,12,1:3:0:0:
361,246,130027,1,0,3:0:0:0:
361,246,130174,2,0,P|423:238|466:246,1,86.6666626993817,8|0,1:0|0:0,0:0:0:0:
476,246,130616,1,12,1:3:0:0:
279,320,130910,5,4,3:0:0:0:
279,320,131057,2,0,P|209:306|128:318,1,129.999994049073,6|12,1:0|1:3,0:0:0:0:
31,226,131792,1,0,3:0:0:0:
31,226,131939,2,0,P|72:218|125:216,1,86.6666626993817,10|2,1:0|1:0,0:0:0:0:
147,216,132380,1,12,1:3:0:0:
279,140,132674,5,4,3:0:0:0:
279,140,132821,2,0,P|236:133|181:131,1,86.6666626993817,2|0,1:0|0:0,0:0:0:0:
167,113,133263,2,0,L|119:116,1,43.3333313496908,8|0,1:0|1:0,0:0:0:0:
93,120,133557,1,0,1:0:0:0:
62,122,133704,1,2,1:3:0:0:
298,40,133998,5,4,3:0:0:0:
329,42,134145,1,4,3:0:0:0:
390,90,134439,1,0,0:0:0:0:
421,88,134586,6,0,B|451:142|451:142|436:238,1,150.000005722046,6|10,1:0|0:3,0:0:0:0:
211,212,135321,1,0,1:0:0:0:
211,212,135468,2,0,B|200:261|200:261|213:317,1,100.000003814697,8|0,1:0|1:0,0:0:0:0:
231,338,135910,2,0,L|336:327,1,100.000003814697,10|0,0:3|0:0,0:0:0:0:
360,345,136351,6,0,B|371:296|371:296|360:247,1,100.000003814697,6|0,1:0|1:0,0:0:0:0:
345,215,136792,1,10,1:3:0:0:
200,116,137086,1,0,0:0:0:0:
200,116,137233,2,0,L|92:136,1,100.000003814697,8|0,1:0|1:0,0:0:0:0:
67,141,137674,1,10,1:3:0:0:
271,193,137968,5,0,1:0:0:0:
271,193,138116,2,0,B|284:126|284:126|266:43,1,150.000005722046,6|10,1:0|1:3,0:0:0:0:
483,96,138851,1,0,1:0:0:0:
483,96,138998,2,0,B|430:88|430:88|375:101,1,100.000003814697,8|0,1:0|0:0,0:0:0:0:
356,119,139439,1,10,1:3:0:0:
232,290,139733,5,0,0:0:0:0:
232,290,139880,2,0,B|285:298|285:298|340:285,1,100.000003814697,6|2,1:0|1:0,0:0:0:0:
359,306,140321,2,0,L|351:198,1,100.000003814697,10|0,1:3|0:0,0:0:0:0:
317,199,140763,1,8,1:0:0:0:
166,356,141057,1,0,1:0:0:0:
166,356,141204,2,0,L|99:347,1,50.0000019073487,14|0,1:3|1:0,0:0:0:0:
45,373,141498,5,8,0:1:0:0:
45,373,141645,2,0,B|28:313|28:313|40:213,1,150.000005722046,6|10,1:0|1:3,0:0:0:0:
90,167,142233,1,0,1:0:0:0:
124,170,142380,1,0,1:0:0:0:
158,174,142527,2,0,L|154:106,1,50.0000019073487,8|2,1:0|1:0,0:0:0:0:
199,66,142821,1,2,0:0:0:0:
233,72,142968,2,0,L|238:22,2,50.0000019073487,10|2|0,1:3|1:2|0:0,0:0:0:0:
287,153,143410,6,0,B|336:166|336:166|387:156,1,100.000003814697,6|0,1:0|1:0,0:0:0:0:
409,132,143851,2,0,L|508:140,1,100.000003814697,10|2,1:3|1:0,0:0:0:0:
508,140,144292,1,8,1:0:0:0:
320,242,144586,1,0,0:0:0:0:
320,242,144733,2,0,B|312:295|312:295|323:342,1,100.000003814697,10|0,1:3|0:0,0:0:0:0:
293,359,145174,6,0,B|370:368|370:368|441:328,1,150.000005722046,2|10,1:0|1:3,0:0:0:0:
234,235,145910,1,0,1:0:0:0:
234,235,146057,2,0,B|183:253|183:253|116:240,1,100.000003814697,10|2,1:0|1:0,0:0:0:0:
104,234,146498,1,10,1:3:0:0:
281,163,146792,5,0,0:0:0:0:
281,163,146939,2,0,L|283:40,1,100.000003814697,6|8,1:0|1:0,0:0:0:0:
286,28,147380,1,10,1:3:0:0:
9,86,147674,1,0,1:0:0:0:
9,86,147821,2,0,B|60:95|60:95|120:83,1,100.000003814697,10|0,1:0|1:0,0:0:0:0:
137,65,148263,2,0,L|193:69,1,50.0000019073487,14|0,1:3|1:0,0:0:0:0:
194,152,148557,5,0,1:0:0:0:
194,152,148704,2,0,L|121:157,2,50.0000019073487,6|0|2,1:0|0:0|1:0,0:0:0:0:
256,203,149145,2,0,L|329:208,2,50.0000019073487,0|2|0,1:3|1:0|0:0,0:0:0:0:
191,243,149586,2,0,B|184:294|184:294|201:356,2,100.000003814697,10|2|2,1:0|1:0|1:0,0:0:0:0:
263,129,150321,5,0,1:0:0:0:
263,129,150468,2,0,B|272:78|272:78|254:12,1,100.000003814697,6|0,1:0|3:0,0:0:0:0:
225,23,150910,2,0,L|158:37,1,50.0000019073487,0|0,1:3|0:0,0:0:0:0:
136,99,151204,1,0,0:0:0:0:
136,99,151351,2,0,B|85:103|85:103|30:87,1,100.000003814697,10|2,1:0|0:1,0:0:0:0:
10,68,151792,1,0,1:3:0:0:
257,176,152086,5,2,1:0:0:0:
257,176,152233,2,0,L|260:231,2,50.0000019073487,2|0|2,1:0|0:0|0:1,0:0:0:0:
304,112,152674,2,0,L|307:57,2,50.0000019073487,0|2|0,1:3|1:0|0:1,0:0:0:0:
349,177,153116,2,0,B|396:184|396:184|465:169,2,100.000003814697,10|2|2,1:0|1:0|1:0,0:0:0:0:
186,219,153851,5,0,0:0:0:0:
186,219,153998,2,0,L|195:332,1,100.000003814697,2|2,1:0|1:0,0:0:0:0:
213,347,154439,2,2,B|163:360|163:360|105:348,1,100.000003814697,0|2,2:0|1:0,1:0:0:0:
84,334,154880,1,10,1:0:0:0:
257,181,155174,1,2,1:0:0:0:
257,181,155321,2,0,L|261:118,2,50.0000019073487,2|2|0,3:1|1:0|0:0,0:0:0:0:
297,250,155763,6,0,L|349:253,2,50.0000019073487,4|0|2,1:2|1:0|1:0,0:0:0:0:
212,267,156204,6,0,L|148:269,2,50.0000019073487,2|0|2,1:0|1:0|1:0,0:0:0:0:
120,180,156645,6,0,L|172:177,2,50.0000019073487,10|0|2,1:0|1:0|1:0,0:0:0:0:
388,172,157086,6,0,L|336:169,2,50.0000019073487,2|0|2,1:0|1:0|1:0,0:0:0:0:
151,97,157527,6,0,L|101:93,1,50.0000019073487,2|2,1:0|1:0,0:0:0:0:
223,69,157821,1,8,1:0:0:0:
331,63,157968,6,0,L|380:59,1,50.0000019073487,2|8,1:0|1:0,0:0:0:0:
276,16,158262,1,2,1:0:0:0:
248,142,158410,6,0,B|237:195|237:195|253:266,1,100.000003814697,10|2,1:0|1:0,0:0:0:0:
262,270,158851,1,2,1:0:0:0:
372,362,159145,5,0,0:0:0:0:
372,362,159292,2,0,L|384:258,1,100.000003814697,6|2,1:0|1:0,0:0:0:0:
477,229,159733,2,0,L|369:267,1,100.000003814697,2|0,1:0|0:0,0:0:0:0:
309,194,160174,2,0,L|389:268,1,100.000003814697,10|2,1:0|1:0,0:0:0:0:
161,332,160616,6,0,B|213:327|213:327|252:297,1,100.000003814697,2|2,1:0|1:0,0:0:0:0:
100,189,161057,2,0,B|82:241|82:241|103:289,1,100.000003814697,6|10,1:0|1:0,0:0:0:0:
256,211,161498,2,0,B|231:161|231:161|183:142,1,100.000003814697,2|10,1:0|1:0,0:0:0:0:
53,116,161939,6,0,L|-3:124,2,50.0000019073487,2|8|2,1:0|1:0|1:0,0:0:0:0:
103,53,162380,2,0,L|204:60,1,100.000003814697,2|2,0:0|0:0,0:0:0:0:
230,37,162821,5,4,0:0:0:0:
256,192,176057,12,6,176939,1:0:0:0:
118,173,177233,5,0,1:0:0:0:
118,173,177380,2,0,B|104:218|104:218|118:309,1,113.333335494995,10|0,1:3|1:0,0:0:0:0:
104,310,177821,2,0,L|169:317,1,56.6666677474976,10|0,1:0|0:0,0:0:0:0:
225,364,178116,1,0,1:0:0:0:
225,364,178263,2,0,B|253:362|253:362|286:366,1,56.6666677474976,10|2,1:3|1:0,0:0:0:0:
345,318,178557,5,0,1:0:0:0:
345,318,178704,2,0,B|474:304,1,113.333335494995,6|0,1:0|1:0,0:0:0:0:
459,273,179145,1,10,1:3:0:0:
314,215,179439,1,0,1:0:0:0:
314,215,179586,2,0,P|308:151|314:93,1,113.333335494995,10|0,1:0|0:0,0:0:0:0:
320,78,180027,1,10,1:3:0:0:
154,33,180321,5,0,1:0:0:0:
154,33,180468,2,0,P|167:96|167:155,1,113.333335494995,2|0,1:0|1:0,0:0:0:0:
166,174,180909,1,10,1:3:0:0:
49,304,181204,1,0,1:0:0:0:
49,304,181351,2,0,B|104:289|104:289|172:304,1,113.333335494995,10|0,1:0|1:0,0:0:0:0:
178,281,181792,1,10,1:3:0:0:
380,351,182086,5,0,1:0:0:0:
380,351,182233,2,0,P|385:299|372:221,1,113.333335494995,6|2,1:0|1:0,0:0:0:0:
369,215,182674,1,10,1:3:0:0:
266,164,182968,1,2,1:0:0:0:
266,164,183116,2,2,L|146:168,1,113.333335494995,8|0,1:0|0:0,1:0:0:0:
89,123,183557,2,0,L|24:131,2,56.6666677474976,14|0|0,0:3|1:0|3:0,0:0:0:0:
139,51,183998,6,0,P|196:74|259:69,1,113.333335494995,6|0,1:0|1:0,0:0:0:0:
273,62,184439,1,10,1:3:0:0:
436,169,184733,1,0,1:0:0:0:
436,169,184880,2,0,B|432:95,1,56.6666677474976,10|0,1:0|1:0,0:0:0:0:
358,116,185174,1,4,3:0:0:0:
358,116,185321,2,0,B|357:87|357:87|364:49,2,56.6666677474976,10|2|0,1:3|1:0|1:0,0:0:0:0:
332,202,185763,6,0,L|185:192,1,113.333335494995,6|2,1:0|1:0,0:0:0:0:
201,165,186204,2,0,P|152:172|95:215,1,113.333335494995,10|2,1:3|1:0,0:0:0:0:
72,205,186645,1,8,1:0:0:0:
178,366,186939,1,0,1:0:0:0:
178,366,187086,2,0,B|188:308|188:308|177:248,1,113.333335494995,10|0,1:3|1:0,0:0:0:0:
203,241,187527,1,6,1:0:0:0:
40,45,187821,5,0,1:0:0:0:
40,45,187968,2,0,B|22:101|22:101|38:157,1,113.333335494995,10|2,1:3|1:0,0:0:0:0:
23,178,188410,1,8,1:0:0:0:
214,98,188704,1,2,1:0:0:0:
214,98,188851,2,0,P|263:94|342:106,1,113.333335494995,10|2,1:3|1:0,0:0:0:0:
350,86,189292,5,6,1:0:0:0:
478,270,189586,1,0,1:0:0:0:
478,270,189733,2,0,P|429:274|350:262,1,113.333335494995,10|0,1:3|1:0,0:0:0:0:
295,298,190174,2,0,L|293:233,1,56.6666677474976,10|0,1:0|1:0,0:0:0:0:
238,188,190468,1,2,1:0:0:0:
238,188,190616,2,0,B|207:193|207:193|163:188,1,56.6666677474976,10|4,1:3|3:0,0:0:0:0:
137,249,190910,5,2,1:0:0:0:
137,249,191057,2,0,P|81:211|67:99,1,170.000003242493,6|10,1:0|1:3,0:0:0:0:
209,48,191792,1,0,1:0:0:0:
209,48,191939,2,0,L|322:51,1,113.333335494995,10|0,1:0|0:0,0:0:0:0:
386,92,192380,2,0,B|413:87|413:87|454:90,2,56.6666677474976,10|2|2,1:3|1:0|1:0,0:0:0:0:
315,129,192821,6,0,P|294:193|307:247,1,113.333335494995,4|4,1:0|3:0,0:0:0:0:
293,263,193263,1,10,1:3:0:0:
318,367,193557,1,0,0:0:0:0:
318,367,193704,2,0,P|256:345|192:355,1,113.333335494995,10|0,1:0|0:0,0:0:0:0:
189,271,194145,2,0,L|128:278,1,56.6666677474976,10|2,1:3|1:0,0:0:0:0:
65,315,194439,5,2,1:0:0:0:
65,315,194586,2,0,B|46:242|46:242|64:143,1,170.000003242493,6|10,1:0|1:3,0:0:0:0:
201,72,195321,1,4,0:3:0:0:
201,72,195468,2,0,B|146:91|146:91|74:71,1,113.333335494995,10|4,1:0|3:0,0:0:0:0:
73,55,195910,1,10,1:3:0:0:
227,187,196204,5,2,1:0:0:0:
227,187,196351,2,0,P|267:144|287:87,1,113.333335494995,6|2,1:0|1:0,0:0:0:0:
372,266,196792,2,0,P|316:249|243:267,1,113.333335494995,10|2,1:3|1:0,0:0:0:0:
383,99,197233,2,0,P|387:159|422:203,1,113.333335494995,10|0,1:0|1:0,0:0:0:0:
479,246,197674,2,0,P|466:278|456:318,1,56.6666677474976,14|2,0:3|1:0,0:0:0:0:
399,362,197968,5,2,1:0:0:0:
399,362,198116,2,0,B|298:375|326:320|209:332,1,170.000003242493,4|10,1:0|1:3,0:0:0:0:
132,201,198851,1,2,1:0:0:0:
132,201,198998,2,0,B|120:261|120:261|133:328,1,113.333335494995,10|2,1:0|1:0,0:0:0:0:
197,271,199439,2,0,L|252:219,1,56.6666677474976,10|2,1:3|1:0,0:0:0:0:
316,248,199733,5,0,1:0:0:0:
316,248,199880,2,0,P|300:183|242:155,1,113.333335494995,6|0,1:0|1:0,0:0:0:0:
256,131,200321,2,0,P|197:137|151:189,1,113.333335494995,10|0,1:3|1:0,0:0:0:0:
130,172,200763,1,10,1:0:0:0:
381,174,201057,1,2,1:0:0:0:
381,174,201204,2,0,L|386:51,1,113.333335494995,10|0,1:3|0:0,0:0:0:0:
497,28,201645,6,0,B|473:90|473:90|487:194,1,170.000003242493,6|10,1:0|1:3,0:0:0:0:
328,272,202380,1,0,1:0:0:0:
328,272,202527,2,0,P|248:281|205:269,1,113.333335494995,10|2,1:0|1:0,0:0:0:0:
190,283,202968,1,10,1:3:0:0:
51,186,203263,5,2,1:0:0:0:
51,186,203410,2,0,P|131:177|174:189,1,113.333335494995,6|0,1:0|1:0,0:0:0:0:
203,122,203851,2,0,L|338:110,1,113.333335494995,10|0,1:3|0:0,0:0:0:0:
370,56,204292,2,0,B|392:110|392:110|376:178,1,113.333335494995,10|0,1:0|1:0,0:0:0:0:
326,221,204733,5,4,1:2:0:0:
279,278,204880,1,4,1:2:0:0:
308,349,205027,1,4,1:2:0:0:
