osu file format v14

[General]
AudioFilename: audio.mp3
AudioLeadIn: 0
PreviewTime: 55699
Countdown: 0
SampleSet: Soft
StackLeniency: 0.7
Mode: 0
LetterboxInBreaks: 0
WidescreenStoryboard: 1

[Editor]
Bookmarks: 14866,20199,22866,44199,52199,56199,66865,69532,74865,77532,88199,96199,100199,110865,113532,134865,145532,156199,158865,169532,173532
DistanceSpacing: 0.3
BeatDivisor: 4
GridSize: 16
TimelineZoom: 2

[Metadata]
Title:Towa no Maigo
TitleUnicode:永久の迷子
Artist:BUTAOTOME
ArtistUnicode:豚乙女
Creator:Icekalt
Version:Insane
Source:東方永夜抄 ~ Imperishable Night.
Tags:touhou Project コンプ Comp ranko 少女煉獄 Girl Purgatory ランコ Kamishirasawa Keine Stage 3 Boss Theme プレインエイジア Plain Asia Eternal Lost Child of Eternity c86 ZUN Shoujo Rengoku reading owc japanese
BeatmapID:2239337
BeatmapSetID:1069288

[Difficulty]
HPDrainRate:5
CircleSize:4
OverallDifficulty:7
ApproachRate:8
SliderMultiplier:1.5
SliderTickRate:1

[Events]
//Background and Video events
0,0,"pog no maigo.jpg",0,0
//Break Periods
2,134976,144193
//Storyboard Layer 0 (Background)
//Storyboard Layer 1 (Fail)
//Storyboard Layer 2 (Pass)
//Storyboard Layer 3 (Foreground)
//Storyboard Layer 4 (Overlay)
//Storyboard Sound Samples

[TimingPoints]
14777,333.333333333333,4,2,1,65,1,0
23777,-100,4,2,1,55,0,0
42776,-100,4,2,1,60,0,0
43110,-100,4,2,0,60,0,0
44110,-100,4,2,1,60,0,0
56110,-83.3333333333333,4,2,1,70,0,1
66776,-100,4,2,0,35,0,0
69443,-100,4,2,1,60,0,0
77443,-100,4,2,1,55,0,0
87110,-100,4,2,0,55,0,0
88110,-100,4,2,1,60,0,0
100110,-83.3333333333333,4,2,1,70,0,1
110776,-100,4,2,0,35,0,0
113443,-100,4,2,1,60,0,0
145443,-83.3333333333333,4,2,1,70,0,1
156110,-83.3333333333333,4,2,0,35,0,0
158776,-83.3333333333333,4,2,1,65,0,0
171943,-166.666666666667,4,2,1,60,0,0
173443,-166.666666666667,4,2,1,15,0,0

[Colours]
Combo1 : 173,51,48
Combo2 : 148,73,73
Combo3 : 218,74,5

[HitObjects]
129,204,14777,5,4,0:0:0:0:
179,140,14943,2,0,L|165:95,2,37.5,2|2|8,0:3|0:3|0:0,0:0:0:0:
257,157,15277,1,2,0:3:0:0:
309,76,15443,1,2,0:0:0:0:
414,102,15609,1,2,0:3:0:0:
414,102,15693,1,0,0:0:0:0:
414,102,15776,1,8,0:0:0:0:
414,102,15943,1,2,0:3:0:0:
399,207,16110,5,4,0:0:0:0:
436,284,16277,2,0,L|478:294,2,37.5,2|2|8,0:3|0:3|0:0,0:0:0:0:
358,319,16610,1,2,0:3:0:0:
289,245,16777,1,2,0:0:0:0:
233,320,16943,1,2,0:3:0:0:
233,320,17027,1,2,0:3:0:0:
233,320,17110,1,8,0:0:0:0:
233,320,17277,1,2,0:3:0:0:
93,328,17443,5,4,0:0:0:0:
36,258,17610,2,0,L|-12:269,2,37.5,2|2|8,0:3|0:3|0:0,0:0:0:0:
71,178,17943,1,2,0:3:0:0:
9,102,18110,5,2,0:0:0:0:
9,102,18277,1,2,0:3:0:0:
109,91,18443,1,8,0:0:0:0:
109,91,18610,1,2,0:3:0:0:
203,179,18777,5,4,0:0:0:0:
296,156,18943,1,2,0:3:0:0:
296,156,19027,1,2,0:3:0:0:
296,156,19110,1,8,0:0:0:0:
296,156,19277,1,2,0:3:0:0:
371,264,19443,1,2,0:0:0:0:
278,241,19609,1,2,0:3:0:0:
278,241,19693,1,2,0:3:0:0:
278,241,19776,1,8,0:0:0:0:
278,241,19943,1,2,0:3:0:0:
417,160,20110,5,2,0:0:0:0:
417,160,20610,1,2,0:3:0:0:
417,160,20777,1,2,0:0:0:0:
417,160,21277,1,2,0:3:0:0:
417,160,21444,5,2,0:0:0:0:
237,146,21777,1,4,0:0:0:0:
57,132,22110,1,4,0:0:0:0:
66,297,22777,5,4,0:0:0:0:
66,297,22943,1,0,0:0:0:0:
152,336,23110,1,8,0:0:0:0:
152,336,23277,1,2,0:3:0:0:
227,223,23443,2,0,L|248:325,1,75,2|0,0:0|0:0,0:0:0:0:
317,375,23777,1,8,0:0:0:0:
345,277,23944,1,8,0:0:0:0:
475,323,24110,5,2,0:0:0:0:
442,234,24277,1,2,0:3:0:0:
475,323,24443,1,10,0:0:0:0:
442,234,24610,1,2,0:3:0:0:
412,140,24777,2,0,L|492:122,1,75,2|0,0:0|0:0,0:0:0:0:
361,33,25110,1,8,0:0:0:0:
394,122,25277,1,8,0:0:0:0:
297,213,25443,6,0,L|302:139,1,75,2|0,0:0|0:0,0:0:0:0:
343,299,25777,1,8,0:0:0:0:
343,299,25943,1,2,0:3:0:0:
220,279,26110,2,0,L|204:203,1,75,2|0,0:0|0:0,0:0:0:0:
242,361,26443,1,8,0:0:0:0:
242,361,26610,1,8,0:0:0:0:
54,365,26777,5,2,0:0:0:0:
151,335,26943,1,2,0:3:0:0:
54,365,27110,1,10,0:0:0:0:
151,335,27276,1,2,0:3:0:0:
68,263,27443,2,0,L|44:174,1,75,2|0,0:0|0:0,0:0:0:0:
170,256,27777,1,8,0:0:0:0:
192,159,27943,1,8,0:0:0:0:
254,298,28110,5,2,0:0:0:0:
254,298,28277,1,2,0:3:0:0:
354,344,28443,1,10,0:0:0:0:
354,344,28610,1,2,0:3:0:0:
305,229,28777,2,0,P|294:185|300:81,1,150,2|8,0:0|0:0,0:0:0:0:
259,159,29277,1,8,0:0:0:0:
388,84,29443,5,2,0:0:0:0:
491,127,29610,1,2,0:3:0:0:
388,84,29777,1,10,0:0:0:0:
491,127,29944,1,2,0:3:0:0:
392,221,30110,2,0,P|355:193|257:158,1,150,2|8,0:0|0:0,0:0:0:0:
345,151,30610,1,8,0:0:0:0:
244,247,30777,6,0,P|275:314|327:281,1,150,2|8,0:0|0:0,0:0:0:0:
392,221,31277,1,2,0:3:0:0:
258,158,31443,1,2,0:0:0:0:
348,95,31610,1,2,0:3:0:0:
258,158,31776,1,8,0:0:0:0:
348,95,31943,1,8,0:0:0:0:
258,158,32110,5,0,0:0:0:0:
247,246,32276,1,2,0:3:0:0:
237,335,32443,1,10,0:0:0:0:
247,246,32610,1,2,0:3:0:0:
327,370,32776,1,2,0:0:0:0:
327,370,33110,1,2,0:3:0:0:
442,135,33443,5,4,0:0:0:0:
442,135,33609,1,0,0:0:0:0:
343,110,33776,1,8,0:0:0:0:
343,110,33943,1,2,0:3:0:0:
281,225,34109,2,0,L|254:152,1,75,2|0,0:0|0:0,0:0:0:0:
184,108,34443,1,8,0:0:0:0:
167,207,34610,1,8,0:0:0:0:
16,166,34776,5,2,0:0:0:0:
108,147,34943,1,2,0:3:0:0:
16,166,35109,1,10,0:0:0:0:
108,147,35276,1,2,0:3:0:0:
12,260,35443,2,0,L|95:276,1,75,2|0,0:0|0:0,0:0:0:0:
130,366,35776,1,8,0:0:0:0:
196,299,35943,1,8,0:0:0:0:
323,377,36109,6,0,L|335:292,1,75,2|2,0:0|0:3,0:0:0:0:
265,218,36443,1,8,0:0:0:0:
265,218,36609,1,2,0:3:0:0:
414,260,36776,2,0,L|398:184,1,75,2|0,0:0|0:0,0:0:0:0:
433,344,37109,1,8,0:0:0:0:
433,344,37276,1,8,0:0:0:0:
333,302,37443,5,2,0:0:0:0:
236,332,37609,1,2,0:3:0:0:
333,302,37776,1,10,0:0:0:0:
236,332,37942,1,2,0:3:0:0:
117,288,38109,2,0,L|136:360,1,75,2|0,0:0|0:0,0:0:0:0:
26,332,38443,1,8,0:0:0:0:
41,249,38609,1,8,0:0:0:0:
155,193,38776,5,2,0:0:0:0:
155,193,38943,1,2,0:3:0:0:
78,137,39109,1,10,0:0:0:0:
78,137,39276,1,2,0:3:0:0:
204,113,39443,2,0,P|195:187|209:260,1,150,2|8,0:0|0:0,0:0:0:0:
155,193,39943,1,8,0:0:0:0:
299,248,40109,5,2,0:0:0:0:
400,207,40276,1,2,0:3:0:0:
299,248,40443,1,10,0:0:0:0:
400,207,40610,1,2,0:3:0:0:
387,343,40776,2,0,P|447:338|465:255,1,150,2|8,0:0|0:0,0:0:0:0:
400,207,41276,1,8,0:0:0:0:
474,111,41443,5,2,0:0:0:0:
474,111,41610,1,2,0:3:0:0:
374,88,41776,1,8,0:0:0:0:
374,88,41943,1,2,0:3:0:0:
300,230,42110,5,2,0:0:0:0:
400,207,42277,1,2,0:3:0:0:
300,230,42443,1,8,0:0:0:0:
400,207,42610,1,8,0:0:0:0:
260,138,42776,1,0,0:0:0:0:
83,355,43110,5,2,0:0:0:0:
288,313,43442,1,2,0:0:0:0:
494,271,43776,1,2,0:0:0:0:
302,191,44110,6,0,L|291:20,1,150,4|8,0:0|0:0,0:0:0:0:
412,184,44610,1,2,0:3:0:0:
359,272,44776,1,2,0:0:0:0:
359,272,45110,1,8,0:0:0:0:
257,296,45276,1,2,0:3:0:0:
154,321,45443,6,0,L|136:233,1,75,2|0,0:0|0:0,0:0:0:0:
257,296,45776,2,0,L|239:208,1,75,8|0,0:0|0:0,0:0:0:0:
359,272,46110,1,2,0:0:0:0:
359,272,46276,1,2,0:3:0:0:
443,223,46443,1,8,0:0:0:0:
431,328,46610,1,2,0:3:0:0:
365,185,46776,6,0,L|331:24,1,150,4|8,0:0|0:0,0:0:0:0:
284,213,47276,1,2,0:3:0:0:
194,259,47443,1,2,0:0:0:0:
194,259,47776,1,8,0:0:0:0:
99,211,47943,1,2,0:3:0:0:
5,163,48110,6,0,B|43:90,1,75,2|0,0:0|0:0,0:0:0:0:
99,211,48443,2,0,B|137:138,1,75,8|0,0:0|0:0,0:0:0:0:
194,259,48776,1,2,0:0:0:0:
194,259,48943,1,2,0:3:0:0:
105,313,49110,1,8,0:0:0:0:
197,366,49276,1,2,0:3:0:0:
316,309,49443,6,0,P|338:261|337:141,1,150,4|8,0:0|0:0,0:0:0:0:
375,254,49943,1,2,0:3:0:0:
440,156,50110,2,0,P|461:186|475:242,1,75,2|0,0:0|0:0,0:0:0:0:
450,326,50443,1,8,0:0:0:0:
450,326,50610,1,2,0:3:0:0:
316,309,50776,6,0,L|217:288,1,75,2|0,0:0|0:0,0:0:0:0:
123,263,51110,2,0,L|24:242,1,75,8|0,0:0|0:0,0:0:0:0:
372,227,51443,6,0,L|273:206,1,75,2|2,0:0|0:3,0:0:0:0:
115,169,51777,2,0,L|16:148,1,75,8|2,0:0|0:3,0:0:0:0:
225,109,52110,5,4,0:0:0:0:
225,109,52276,1,2,0:3:0:0:
225,109,52443,1,2,0:3:0:0:
208,206,52610,1,2,0:0:0:0:
195,313,52776,1,2,0:0:0:0:
195,313,52943,1,2,0:3:0:0:
195,313,53110,1,2,0:3:0:0:
306,225,53276,6,0,P|381:204|466:213,1,150,2|2,0:0|0:3,0:0:0:0:
368,125,53776,1,8,0:0:0:0:
368,125,53943,1,2,0:3:0:0:
463,89,54110,1,2,0:0:0:0:
464,76,54193,1,2,0:0:0:0:
465,64,54276,1,2,0:0:0:0:
467,53,54360,1,2,0:0:0:0:
469,41,54443,1,2,0:0:0:0:
377,32,54610,1,2,0:3:0:0:
450,175,54776,1,2,0:0:0:0:
371,123,55610,5,0,0:0:0:0:
371,123,55776,1,2,0:3:0:0:
371,123,55943,1,2,0:3:0:0:
389,255,56110,6,0,L|446:172,1,89.9999972534181,4|2,0:0|0:3,0:0:0:0:
283,223,56443,2,0,L|279:104,1,89.9999972534181,8|2,0:0|0:3,0:0:0:0:
193,260,56776,1,2,0:0:0:0:
214,357,56943,1,2,0:3:0:0:
214,357,57110,1,8,0:0:0:0:
83,275,57276,6,0,B|92:157|92:157|143:107,1,179.999994506836,2|2,0:3|0:3,0:0:0:0:
268,88,57776,1,8,0:0:0:0:
215,167,57943,1,2,0:3:0:0:
186,11,58110,1,2,0:0:0:0:
186,11,58276,1,2,0:3:0:0:
268,88,58443,1,8,0:0:0:0:
186,11,58610,1,8,0:0:0:0:
353,50,58776,6,0,L|385:152,1,89.9999972534181,4|2,0:0|0:3,0:0:0:0:
215,167,59110,2,0,L|310:218,1,89.9999972534181,8|2,0:0|0:3,0:0:0:0:
361,288,59443,1,2,0:0:0:0:
350,373,59610,1,2,0:3:0:0:
431,215,59776,1,10,0:0:0:0:
431,215,59943,1,2,0:3:0:0:
300,141,60110,5,2,0:0:0:0:
179,197,60276,1,2,0:3:0:0:
300,141,60443,1,10,0:0:0:0:
179,197,60609,1,2,0:3:0:0:
98,91,60776,1,2,0:0:0:0:
222,48,60943,1,8,0:0:0:0:
222,48,61026,1,8,0:0:0:0:
222,48,61110,1,8,0:0:0:0:
222,48,61276,1,0,0:0:0:0:
179,197,61443,6,0,L|201:294,1,89.9999972534181,4|2,0:0|0:3,0:0:0:0:
399,236,61776,2,0,L|338:325,1,89.9999972534181,8|2,0:0|0:3,0:0:0:0:
294,191,62110,1,2,0:0:0:0:
313,99,62276,1,2,0:3:0:0:
294,191,62443,1,8,0:0:0:0:
229,37,62610,6,0,P|158:65|84:155,1,179.999994506836,2|2,0:3|0:3,0:0:0:0:
98,259,63110,1,8,0:0:0:0:
189,184,63276,1,2,0:3:0:0:
98,259,63443,1,2,0:0:0:0:
98,259,63610,1,2,0:3:0:0:
194,324,63776,1,8,0:0:0:0:
307,252,63943,6,0,P|321:171|302:50,1,179.999994506836,8|2,0:0|0:3,0:0:0:0:
417,192,64443,1,8,0:0:0:0:
467,111,64610,1,2,0:3:0:0:
507,295,64776,1,2,0:0:0:0:
507,295,64943,1,2,0:3:0:0:
417,192,65110,1,10,0:0:0:0:
507,295,65276,1,2,0:3:0:0:
354,356,65443,6,0,P|315:300|171:273,1,179.999994506836,2|10,0:0|0:0,0:0:0:0:
89,312,65943,1,2,0:3:0:0:
31,193,66110,1,2,0:0:0:0:
168,125,66276,1,8,0:0:0:0:
168,125,66360,1,8,0:0:0:0:
168,125,66443,1,8,0:0:0:0:
168,125,66610,1,8,0:0:0:0:
268,190,66776,5,6,0:0:0:0:
271,188,66943,1,0,0:0:0:0:
274,186,67110,1,0,0:0:0:0:
277,184,67276,1,0,0:0:0:0:
280,182,67610,1,2,0:0:0:0:
283,180,67776,1,0,0:0:0:0:
286,178,67943,1,0,0:0:0:0:
289,176,68277,1,2,0:0:0:0:
292,174,68443,1,0,0:0:0:0:
295,172,68610,1,0,0:0:0:0:
298,170,69110,1,2,0:0:0:0:
102,79,69443,5,4,0:0:0:0:
152,159,69610,2,0,L|200:164,2,37.5,2|2|8,0:3|0:3|0:0,0:0:0:0:
76,216,69943,1,2,0:3:0:0:
169,266,70110,1,2,0:0:0:0:
170,273,70193,1,2,0:3:0:0:
171,280,70276,1,2,0:3:0:0:
172,287,70360,1,2,0:3:0:0:
173,294,70443,1,8,0:0:0:0:
185,383,70610,1,8,0:0:0:0:
278,272,70776,5,4,0:0:0:0:
335,348,70943,2,0,L|325:384,2,37.5,2|2|8,0:3|0:3|0:0,0:0:0:0:
415,298,71276,1,2,0:3:0:0:
358,203,71443,1,2,0:0:0:0:
356,195,71526,1,2,0:3:0:0:
354,187,71610,1,2,0:3:0:0:
352,179,71693,1,2,0:3:0:0:
350,171,71776,1,8,0:0:0:0:
388,92,71943,1,8,0:0:0:0:
291,28,72110,5,4,0:0:0:0:
229,88,72276,1,2,0:3:0:0:
221,89,72360,1,2,0:3:0:0:
213,90,72443,1,8,0:0:0:0:
205,91,72526,1,2,0:3:0:0:
197,92,72610,1,2,0:3:0:0:
189,93,72693,1,2,0:3:0:0:
181,94,72776,1,2,0:0:0:0:
97,48,72943,2,0,L|109:-5,2,37.5,2|2|8,0:3|0:3|0:0,0:0:0:0:
51,127,73276,1,8,0:0:0:0:
131,223,73443,5,4,0:0:0:0:
42,261,73610,2,0,L|-4:246,2,37.5,2|0|8,0:3|0:0|0:0,0:0:0:0:
39,354,73943,1,2,0:3:0:0:
153,317,74110,1,2,0:0:0:0:
160,315,74193,1,2,0:3:0:0:
169,314,74276,1,2,0:3:0:0:
176,312,74360,1,2,0:3:0:0:
185,311,74443,1,8,0:0:0:0:
247,384,74610,1,8,0:0:0:0:
300,232,74776,5,2,0:0:0:0:
300,232,75276,1,2,0:3:0:0:
300,232,75443,1,2,0:0:0:0:
300,232,75943,1,2,0:3:0:0:
300,232,76110,5,2,0:0:0:0:
159,122,76443,1,4,0:0:0:0:
18,12,76776,1,4,0:0:0:0:
343,52,77443,5,4,0:0:0:0:
343,52,77609,1,2,0:3:0:0:
380,141,77776,1,8,0:0:0:0:
380,141,77943,1,2,0:3:0:0:
281,194,78109,2,0,L|295:103,1,75,2|0,0:0|0:0,0:0:0:0:
360,235,78443,1,8,0:0:0:0:
458,209,78610,1,8,0:0:0:0:
389,330,78776,5,2,0:0:0:0:
297,305,78943,1,2,0:3:0:0:
389,330,79109,1,10,0:0:0:0:
297,305,79276,1,2,0:3:0:0:
216,356,79443,2,0,L|140:333,1,75,2|0,0:0|0:0,0:0:0:0:
73,264,79776,1,8,0:0:0:0:
27,350,79943,1,8,0:0:0:0:
169,242,80109,6,0,L|180:167,1,75,2|2,0:0|0:3,0:0:0:0:
134,97,80443,1,8,0:0:0:0:
134,97,80609,1,2,0:3:0:0:
275,167,80776,2,0,L|259:91,1,75,2|0,0:0|0:0,0:0:0:0:
198,35,81109,1,8,0:0:0:0:
198,35,81276,1,8,0:0:0:0:
323,6,81443,5,2,0:0:0:0:
420,36,81609,1,2,0:3:0:0:
323,6,81776,1,10,0:0:0:0:
420,36,81942,1,2,0:3:0:0:
467,129,82109,2,0,L|443:209,1,75,2|0,0:0|0:0,0:0:0:0:
353,258,82443,1,8,0:0:0:0:
337,160,82609,1,8,0:0:0:0:
227,294,82776,6,0,L|146:311,1,75,2|2,0:0|0:3,0:0:0:0:
310,352,83109,1,10,0:0:0:0:
310,352,83276,1,2,0:3:0:0:
268,216,83443,2,0,P|239:170|146:186,1,150,2|8,0:0|0:0,0:0:0:0:
237,126,83943,1,8,0:0:0:0:
91,108,84110,6,0,L|81:13,1,75,2|2,0:0|0:3,0:0:0:0:
11,157,84443,1,10,0:0:0:0:
72,232,84610,1,2,0:3:0:0:
6,366,84776,2,0,P|43:338|141:303,1,150,2|8,0:0|0:0,0:0:0:0:
218,364,85276,1,8,0:0:0:0:
318,281,85443,5,2,0:0:0:0:
318,281,85610,1,2,0:3:0:0:
375,363,85776,1,8,0:0:0:0:
375,363,85943,1,2,0:3:0:0:
416,223,86110,5,2,0:0:0:0:
473,305,86277,1,2,0:3:0:0:
416,223,86443,1,8,0:0:0:0:
473,305,86610,1,10,0:3:0:0:
324,190,86776,1,2,0:0:0:0:
141,36,87110,5,2,0:0:0:0:
100,133,87442,1,2,0:0:0:0:
59,230,87776,1,2,0:0:0:0:
234,353,88110,6,0,B|246:323|246:323|212:183,1,150,4|8,0:0|0:0,0:0:0:0:
294,73,88610,1,2,0:3:0:0:
337,185,88776,1,2,0:0:0:0:
337,185,89110,1,8,0:0:0:0:
229,124,89276,1,2,0:3:0:0:
131,63,89443,6,0,L|84:129,1,75,2|0,0:0|0:0,0:0:0:0:
229,124,89776,2,0,L|182:190,1,75,8|0,0:0|0:0,0:0:0:0:
337,185,90110,1,2,0:0:0:0:
337,185,90276,1,2,0:3:0:0:
372,286,90443,1,8,0:0:0:0:
445,207,90610,1,2,0:3:0:0:
270,264,90776,6,0,B|235:292|235:292|112:267,1,150,6|8,0:0|0:0,0:0:0:0:
70,363,91276,1,2,0:3:0:0:
9,240,91443,1,2,0:0:0:0:
9,240,91776,1,8,0:0:0:0:
125,197,91943,1,2,0:3:0:0:
240,156,92110,6,0,B|214:74,1,75,2|0,0:0|0:0,0:0:0:0:
125,197,92443,2,0,B|99:115,1,75,8|0,0:0|0:0,0:0:0:0:
217,266,92776,1,2,0:0:0:0:
217,266,92943,1,2,0:3:0:0:
120,302,93110,1,8,0:0:0:0:
201,358,93276,1,2,0:3:0:0:
328,325,93443,6,0,P|350:277|302:163,1,150,4|8,0:0|0:0,0:0:0:0:
234,171,93943,1,2,0:3:0:0:
349,103,94110,2,0,P|332:62|284:30,1,75,2|0,0:0|0:0,0:0:0:0:
219,75,94443,1,8,0:0:0:0:
219,75,94610,1,2,0:3:0:0:
106,19,94776,6,0,L|91:98,1,75,2|0,0:0|0:0,0:0:0:0:
71,200,95110,2,0,L|56:279,1,75,8|0,0:0|0:0,0:0:0:0:
251,329,95443,6,0,L|237:255,1,75,2|2,0:0|0:3,0:0:0:0:
203,112,95777,2,0,L|189:38,1,75,8|2,0:0|0:3,0:0:0:0:
289,181,96110,5,4,0:0:0:0:
289,181,96276,1,2,0:3:0:0:
289,181,96443,1,2,0:3:0:0:
350,99,96610,1,2,0:0:0:0:
431,176,96776,1,2,0:0:0:0:
431,176,96943,1,2,0:3:0:0:
431,176,97110,1,2,0:3:0:0:
326,269,97276,6,0,P|263:218|183:207,1,150,2|2,0:0|0:3,0:0:0:0:
132,274,97776,1,8,0:0:0:0:
132,274,97943,1,2,0:3:0:0:
114,170,98110,1,2,0:0:0:0:
114,158,98193,1,2,0:0:0:0:
114,146,98276,1,2,0:0:0:0:
114,134,98360,1,2,0:0:0:0:
115,122,98443,1,2,0:0:0:0:
196,205,98610,1,2,0:3:0:0:
39,238,98776,1,2,0:0:0:0:
434,357,99610,5,0,0:0:0:0:
434,357,99776,1,2,0:3:0:0:
434,357,99943,1,2,0:3:0:0:
486,213,100110,6,0,L|515:306,1,89.9999972534181,4|2,0:0|0:3,0:0:0:0:
330,242,100443,2,0,L|336:335,1,89.9999972534181,8|2,0:0|0:3,0:0:0:0:
396,155,100776,1,2,0:0:0:0:
396,155,100943,1,2,0:3:0:0:
313,101,101110,1,8,0:0:0:0:
235,226,101276,6,0,L|41:208,1,179.999994506836,2|2,0:3|0:3,0:0:0:0:
0,86,101776,1,8,0:0:0:0:
90,121,101943,1,2,0:3:0:0:
179,52,102110,1,2,0:0:0:0:
269,87,102277,1,2,0:3:0:0:
179,52,102443,1,8,0:0:0:0:
179,52,102610,1,8,0:0:0:0:
168,227,102776,6,0,L|200:125,1,89.9999972534181,4|2,0:0|0:3,0:0:0:0:
282,292,103110,2,0,L|347:227,1,89.9999972534181,8|2,0:0|0:3,0:0:0:0:
196,312,103443,1,2,0:0:0:0:
268,379,103610,1,2,0:3:0:0:
256,211,103776,1,10,0:0:0:0:
256,211,103943,1,2,0:3:0:0:
241,91,104110,5,2,0:0:0:0:
362,147,104276,1,2,0:3:0:0:
241,91,104443,1,10,0:0:0:0:
362,147,104609,1,2,0:3:0:0:
340,38,104776,1,2,0:0:0:0:
282,180,104943,1,8,0:0:0:0:
282,180,105026,1,8,0:0:0:0:
282,180,105110,1,8,0:0:0:0:
282,180,105276,1,0,0:0:0:0:
198,284,105443,6,0,L|175:198,1,89.9999972534181,4|2,0:0|0:3,0:0:0:0:
104,370,105776,2,0,L|20:317,1,89.9999972534181,8|2,0:0|0:3,0:0:0:0:
46,190,106110,1,2,0:0:0:0:
107,268,106276,1,2,0:3:0:0:
46,190,106443,1,8,0:0:0:0:
156,88,106610,6,0,P|240:86|276:168,1,179.999994506836,2|2,0:3|0:3,0:0:0:0:
350,52,107110,1,8,0:0:0:0:
350,52,107276,1,2,0:3:0:0:
370,149,107443,1,2,0:0:0:0:
393,245,107610,1,2,0:3:0:0:
370,149,107776,1,8,0:0:0:0:
329,325,107943,6,0,P|268:255|176:253,1,179.999994506836,8|2,0:0|0:3,0:0:0:0:
136,327,108443,1,8,0:0:0:0:
136,327,108610,1,2,0:3:0:0:
106,186,108776,1,2,0:0:0:0:
45,295,108943,1,2,0:3:0:0:
106,186,109110,1,10,0:0:0:0:
45,295,109277,1,2,0:3:0:0:
8,133,109443,6,0,P|47:77|168:49,1,179.999994506836,2|10,0:0|0:0,0:0:0:0:
210,122,109943,1,2,0:3:0:0:
281,31,110110,1,2,0:0:0:0:
330,155,110276,1,8,0:0:0:0:
330,155,110360,1,8,0:0:0:0:
330,155,110443,1,8,0:0:0:0:
330,155,110610,1,8,0:0:0:0:
424,77,110776,5,4,0:0:0:0:
425,73,110943,1,0,0:0:0:0:
426,70,111110,1,0,0:0:0:0:
427,66,111276,1,0,0:0:0:0:
428,63,111610,1,2,0:0:0:0:
429,59,111776,1,0,0:0:0:0:
430,56,111943,1,0,0:0:0:0:
431,52,112277,1,2,0:0:0:0:
432,49,112443,1,0,0:0:0:0:
433,45,112610,1,0,0:0:0:0:
434,42,113110,1,2,0:0:0:0:
334,100,113443,6,0,L|330:137,3,37.5,4|0|2|2,0:0|0:0|0:2|0:3,0:0:0:0:
236,155,113776,2,0,L|248:190,3,37.5,10|0|2|0,0:0|0:0|0:3|0:0,0:0:0:0:
170,246,114110,2,0,L|196:272,3,37.5,2|0|2|0,0:3|0:3|0:3|0:3,0:0:0:0:
148,356,114443,2,0,L|183:368,3,37.5,8|0|8|0,0:0|0:0|0:0|0:0,0:0:0:0:
277,320,114776,5,2,0:2:0:0:
288,319,114860,1,2,0:3:0:0:
299,318,114943,1,2,0:3:0:0:
310,317,115026,1,0,0:0:0:0:
321,315,115110,2,0,L|371:323,3,37.5,10|0|2|0,0:0|0:0|0:3|0:0,0:0:0:0:
436,272,115443,5,2,0:2:0:0:
437,261,115527,1,0,0:2:0:0:
438,250,115610,1,2,0:2:0:0:
439,239,115693,1,2,0:3:0:0:
440,228,115777,2,0,L|434:190,3,37.5,10|0|10|0,0:0|0:0|0:0|0:0,0:0:0:0:
343,145,116110,6,0,L|337:192,4,37.5,2|2|2|2|8,0:3|0:3|0:3|0:3|0:0,0:0:0:0:
246,92,116610,2,0,L|235:44,1,37.5,2|2,0:3|0:3,0:3:0:0:
181,180,116860,2,0,L|198:213,6,37.5,2|8|0|2|0|8|0,0:2|0:2|0:3|0:0|0:0|0:0|0:0,0:0:0:0:
151,286,117443,5,2,0:0:0:0:
140,288,117526,1,0,0:3:0:0:
128,290,117610,1,8,0:2:0:0:
117,292,117693,1,0,0:3:0:0:
106,294,117776,1,2,0:0:0:0:
95,296,117860,1,0,0:3:0:0:
84,298,117943,1,8,0:2:0:0:
73,301,118026,1,0,0:3:0:0:
62,304,118110,1,2,0:0:0:0:
16,224,118276,1,8,0:0:0:0:
16,224,118360,1,8,0:0:0:0:
16,224,118443,1,8,0:0:0:0:
16,224,118610,1,8,0:0:0:0:
72,136,118776,6,0,L|59:77,2,37.5,2|2|2,0:0|0:3|0:3,0:0:0:0:
172,184,119110,1,10,0:0:0:0:
172,184,119193,1,2,0:3:0:0:
172,184,119276,1,2,0:3:0:0:
230,88,119443,2,0,L|217:29,2,37.5,2|0|2,0:0|0:3|0:2,0:0:0:0:
330,136,119777,1,8,0:0:0:0:
330,136,119860,1,0,0:3:0:0:
330,136,119943,1,8,0:2:0:0:
259,249,120110,6,0,L|201:254,7,37.5,2|2|2|2|2|0|8|2,0:3|0:3|0:3|0:3|0:0|0:3|0:2|0:2,0:0:0:0:
335,343,120860,1,2,0:2:0:0:
336,331,120943,1,8,0:2:0:0:
337,319,121026,1,0,0:3:0:0:
338,307,121110,1,2,0:0:0:0:
339,295,121193,1,0,0:0:0:0:
340,283,121276,1,8,0:0:0:0:
413,210,121443,5,2,0:3:0:0:
413,210,121526,1,2,0:3:0:0:
413,210,121610,1,10,0:0:0:0:
320,136,121776,1,2,0:0:0:0:
407,110,121943,1,8,0:2:0:0:
305,124,122110,1,2,0:0:0:0:
229,100,122277,1,2,0:3:0:0:
193,129,122443,1,8,0:0:0:0:
193,129,122610,1,2,0:3:0:0:
80,337,122943,6,0,L|67:256,1,75,2|0,0:0|0:0,0:0:0:0:
235,315,123276,2,0,L|222:234,1,75,2|0,0:0|0:0,0:0:0:0:
396,291,123610,1,8,0:2:0:0:
396,291,123693,1,8,0:2:0:0:
396,291,123776,1,8,0:2:0:0:
396,291,123943,1,10,0:2:0:0:
351,381,124110,6,0,L|396:367,3,37.5,2|2|2|0,0:0|0:3|0:3|0:0,0:0:0:0:
266,307,124443,2,0,L|312:313,3,37.5,8|2|2|0,0:0|0:3|0:3|0:0,0:0:0:0:
220,204,124776,2,0,L|259:229,3,37.5,2|2|2|0,0:0|0:3|0:3|0:0,0:0:0:0:
221,91,125110,2,0,L|246:130,3,37.5,8|2|0|0,0:0|0:3|0:0|0:0,0:0:0:0:
354,115,125443,6,0,L|335:174,3,37.5,2|2|2|2,0:0|0:2|0:2|0:3,0:0:0:0:
380,224,125776,1,8,0:0:0:0:
390,227,125860,1,0,0:3:0:0:
400,230,125943,1,8,0:2:0:0:
410,233,126026,1,0,0:3:0:0:
420,236,126110,2,0,L|432:297,3,37.5,2|2|2|2,0:0|0:2|0:2|0:3,0:0:0:0:
368,349,126443,1,8,0:2:0:0:
358,352,126527,1,0,0:3:0:0:
348,355,126610,1,8,0:2:0:0:
338,358,126693,1,0,0:3:0:0:
328,361,126776,1,2,0:0:0:0:
226,298,126943,6,0,L|258:272,5,37.5,8|0|2|0|2|0,0:2|0:3|0:0|0:3|0:2|0:3,0:0:0:0:
227,189,127443,2,0,L|269:181,3,37.5,2|0|8|0,0:0|0:3|0:2|0:3,0:0:0:0:
145,241,127776,1,2,0:0:0:0:
133,240,127860,1,2,0:3:0:0:
121,239,127943,1,8,0:2:0:0:
109,238,128026,1,2,0:3:0:0:
97,237,128110,1,2,0:0:0:0:
35,161,128276,6,0,L|23:120,2,37.5,8|2|2,0:2|0:3|0:0,0:0:0:0:
134,142,128610,1,2,0:2:0:0:
134,142,128693,1,2,0:3:0:0:
134,142,128776,1,2,0:0:0:0:
230,182,128943,1,8,0:2:0:0:
234,171,129026,1,8,0:2:0:0:
238,160,129110,1,10,0:0:0:0:
204,76,129276,1,8,0:2:0:0:
331,127,129443,5,6,0:0:0:0:
408,70,129610,2,0,L|392:15,5,37.5,8|2|2|0|8|0,0:2|0:3|0:0|0:0|0:0|0:0,0:0:0:0:
439,176,130110,6,0,L|428:222,1,37.5,2|0,0:0|0:0,0:0:0:0:
447,188,130276,2,0,L|436:234,1,37.5,8|0,0:2|0:0,0:0:0:0:
455,200,130443,2,0,L|444:246,1,37.5,2|0,0:0|0:0,0:0:0:0:
463,212,130610,2,0,L|452:258,1,37.5,10|0,0:2|0:0,0:0:0:0:
386,303,130776,6,0,L|333:291,1,37.5,2|0,0:0|0:0,0:0:0:0:
274,276,130943,2,0,L|221:264,1,37.5,8|0,0:2|0:0,0:0:0:0:
385,292,131110,2,0,L|332:280,1,37.5,2|0,0:0|0:0,0:0:0:0:
273,265,131277,2,0,L|220:253,1,37.5,10|0,0:2|0:0,0:0:0:0:
384,281,131443,2,0,L|331:269,1,37.5,2|0,0:0|0:0,0:0:0:0:
272,254,131610,2,0,L|219:242,1,37.5,8|0,0:2|0:0,0:0:0:0:
383,270,131776,2,0,L|330:258,1,37.5,2|0,0:0|0:0,0:0:0:0:
271,243,131943,2,0,L|218:231,1,37.5,10|0,0:2|0:0,0:0:0:0:
176,160,132110,6,0,L|175:115,2,37.5,8|2|8,0:0|0:3|0:2,0:0:0:0:
131,243,132443,1,2,0:0:0:0:
31,207,132610,1,8,0:0:0:0:
31,207,132693,1,2,0:3:0:0:
31,207,132776,1,2,0:3:0:0:
31,207,132943,1,2,0:0:0:0:
17,327,133110,2,0,L|58:320,2,37.5,8|2|8,0:0|0:3|0:2,0:0:0:0:
127,384,133443,5,2,0:0:0:0:
196,325,133610,1,8,0:0:0:0:
196,325,133693,1,2,0:3:0:0:
196,325,133776,1,2,0:3:0:0:
196,325,133943,1,8,0:2:0:0:
285,384,134110,1,8,0:0:0:0:
288,373,134193,1,10,0:2:0:0:
291,362,134276,1,10,0:2:0:0:
277,269,134443,1,2,0:0:0:0:
260,190,134610,1,2,0:3:0:0:
270,167,134776,5,2,0:0:0:0:
92,33,144943,5,2,0:3:0:0:
99,122,145110,1,2,0:0:0:0:
107,211,145276,1,2,0:3:0:0:
208,296,145443,6,0,L|230:207,1,89.9999972534181,4|2,0:0|0:3,0:0:0:0:
288,384,145776,2,0,L|338:306,1,89.9999972534181,8|2,0:0|0:3,0:0:0:0:
401,214,146109,1,2,0:0:0:0:
401,214,146276,1,2,0:3:0:0:
425,346,146443,1,8,0:0:0:0:
506,192,146609,6,0,L|324:146,1,179.999994506836,2|2,0:3|0:3,0:0:0:0:
260,278,147109,1,8,0:0:0:0:
209,191,147276,1,2,0:3:0:0:
171,332,147443,1,2,0:0:0:0:
171,332,147610,1,2,0:3:0:0:
247,373,147776,1,8,0:0:0:0:
171,332,147943,1,8,0:0:0:0:
209,191,148109,6,0,L|226:85,1,89.9999972534181,4|2,0:0|0:3,0:0:0:0:
91,249,148443,2,0,L|73:157,1,89.9999972534181,8|2,0:0|0:3,0:0:0:0:
247,276,148776,1,2,0:0:0:0:
247,276,148943,1,2,0:3:0:0:
322,191,149109,1,10,0:0:0:0:
353,304,149276,1,2,0:3:0:0:
406,135,149443,5,2,0:0:0:0:
276,104,149609,1,2,0:3:0:0:
406,135,149776,1,10,0:0:0:0:
276,104,149942,1,2,0:3:0:0:
360,38,150109,1,2,0:0:0:0:
333,202,150276,1,8,0:0:0:0:
333,202,150359,1,8,0:0:0:0:
333,202,150443,1,8,0:0:0:0:
333,202,150609,1,0,0:0:0:0:
221,300,150776,6,0,L|220:205,1,89.9999972534181,4|2,0:0|0:3,0:0:0:0:
353,346,151109,2,0,L|416:275,1,89.9999972534181,8|2,0:0|0:3,0:0:0:0:
264,384,151443,1,2,0:0:0:0:
165,375,151609,1,2,0:3:0:0:
133,286,151776,1,8,0:0:0:0:
220,210,151943,6,0,P|186:142|84:159,1,179.999994506836,2|2,0:3|0:3,0:0:0:0:
187,46,152443,1,8,0:0:0:0:
187,46,152609,1,2,0:3:0:0:
271,113,152776,1,2,0:0:0:0:
328,21,152943,1,2,0:3:0:0:
271,113,153109,1,8,0:0:0:0:
325,221,153276,6,0,P|412:213|468:145,1,179.999994506836,8|2,0:0|0:3,0:0:0:0:
512,266,153776,1,8,0:0:0:0:
512,266,153943,1,2,0:3:0:0:
365,332,154109,1,2,0:0:0:0:
487,358,154276,1,2,0:3:0:0:
365,332,154443,1,10,0:0:0:0:
487,358,154610,1,2,0:3:0:0:
336,241,154776,6,0,P|266:239|169:308,1,179.999994506836,2|10,0:0|0:0,0:0:0:0:
149,145,155276,1,2,0:3:0:0:
94,228,155443,1,2,0:0:0:0:
253,158,155609,1,8,0:0:0:0:
253,158,155693,1,8,0:0:0:0:
253,158,155776,1,8,0:0:0:0:
253,158,155943,1,8,0:0:0:0:
336,241,156109,5,4,0:0:0:0:
337,237,156276,1,0,0:0:0:0:
338,234,156443,1,0,0:0:0:0:
339,230,156609,1,0,0:0:0:0:
340,227,156943,1,2,0:0:0:0:
341,223,157109,1,0,0:0:0:0:
342,220,157276,1,0,0:0:0:0:
343,216,157610,1,2,0:0:0:0:
344,213,157776,1,0,0:0:0:0:
345,209,157943,1,0,0:0:0:0:
346,206,158443,1,2,0:0:0:0:
88,296,158776,6,0,L|56:200,1,89.9999972534181,4|2,0:0|0:3,0:0:0:0:
163,359,159110,1,8,0:0:0:0:
163,359,159276,1,0,0:0:0:0:
223,283,159443,2,0,L|244:183,1,89.9999972534181,2|2,0:0|0:3,0:0:0:0:
151,219,159776,1,8,0:0:0:0:
116,99,159943,6,0,P|175:52|297:85,1,179.999994506836,2|2,0:3|0:3,0:0:0:0:
325,150,160443,1,8,0:0:0:0:
325,150,160610,1,2,0:3:0:0:
433,122,160776,1,2,0:0:0:0:
433,122,160943,1,2,0:3:0:0:
325,150,161110,1,10,0:0:0:0:
433,122,161276,1,2,0:3:0:0:
258,228,161443,6,0,L|228:328,1,89.9999972534181,2|2,0:0|0:3,0:0:0:0:
374,238,161776,2,0,L|387:344,1,89.9999972534181,10|2,0:0|0:3,0:0:0:0:
325,150,162110,1,2,0:0:0:0:
372,60,162276,1,2,0:3:0:0:
325,150,162443,1,10,0:0:0:0:
242,1,162610,2,0,P|171:28|168:131,1,179.999994506836,2|2,0:3|0:3,0:0:0:0:
88,214,163110,1,10,0:0:0:0:
63,115,163276,1,2,0:3:0:0:
205,231,163443,1,2,0:0:0:0:
275,162,163610,1,8,0:0:0:0:
275,162,163693,1,8,0:0:0:0:
275,162,163776,1,8,0:0:0:0:
275,162,163943,1,8,0:0:0:0:
321,288,164110,6,0,L|411:312,1,89.9999972534181,4|2,0:0|0:3,0:0:0:0:
188,335,164443,2,0,L|269:388,1,89.9999972534181,8|0,0:0|0:0,0:0:0:0:
226,240,164776,1,2,0:0:0:0:
121,264,164943,1,2,0:3:0:0:
100,159,165110,1,8,0:0:0:0:
229,89,165276,5,2,0:3:0:0:
229,89,165443,1,2,0:0:0:0:
285,163,165610,1,2,0:3:0:0:
373,117,165776,1,8,0:0:0:0:
328,0,165943,5,2,0:3:0:0:
328,0,166110,1,2,0:0:0:0:
285,163,166276,1,2,0:3:0:0:
305,80,166443,1,10,0:0:0:0:
285,163,166610,1,2,0:3:0:0:
347,237,166776,6,0,L|366:342,1,89.9999972534181,2|2,0:0|0:3,0:0:0:0:
242,271,167110,2,0,L|222:369,1,89.9999972534181,10|2,0:0|0:3,0:0:0:0:
161,211,167443,1,2,0:0:0:0:
161,211,167610,1,2,0:3:0:0:
67,301,167776,1,10,0:0:0:0:
45,181,167943,1,2,0:3:0:0:
136,65,168110,5,2,0:0:0:0:
136,65,168276,1,2,0:3:0:0:
258,105,168443,1,8,0:0:0:0:
136,65,168610,1,2,0:3:0:0:
198,197,168776,1,2,0:0:0:0:
198,197,168860,1,0,0:0:0:0:
198,197,168943,1,8,0:3:0:0:
331,160,169110,1,8,0:0:0:0:
462,124,169276,1,2,0:0:0:0:
462,124,171776,5,8,0:0:0:0:
391,169,171943,2,0,B|355:223|354:286|354:286|392:228|351:143|285:123|285:123|319:155|314:209,1,404.999987640381,4|0,0:0|0:0,0:0:0:0:
