osu file format v14

[General]
AudioFilename: Buta-Otome - Get Lost Forever.mp3
AudioLeadIn: 0
PreviewTime: 55609
Countdown: 0
SampleSet: Soft
StackLeniency: 0.7
Mode: 0
LetterboxInBreaks: 1
WidescreenStoryboard: 0

[Editor]
DistanceSpacing: 1.1
BeatDivisor: 4
GridSize: 32
TimelineZoom: 1.7

[Metadata]
Title:Towa no Maigo
TitleUnicode:永久の迷子
Artist:BUTAOTOME
ArtistUnicode:豚乙女
Creator:BarkingMadDog
Version:EXTRA
Source:東方永夜抄 ~ Imperishable Night.
Tags:Touhou Project コンプ Comp 少女煉獄 Girl Purgatory ランコ Ranko 東方永夜抄 ~ Imperishable Night Kamishirasawa Keine Stage 3 Boss Theme プレインエイジア Plain Asia Touhou Eternal Lost Child of Eternity
BeatmapID:785416
BeatmapSetID:356973

[Difficulty]
HPDrainRate:6.7
CircleSize:4
OverallDifficulty:8.5
ApproachRate:9.4
SliderMultiplier:1.91
SliderTickRate:1

[Events]
//Background and Video events
0,0,"bae.jpg",0,0
//Break Periods
2,136033,144200
//Storyboard Layer 0 (Background)
//Storyboard Layer 1 (Fail)
//Storyboard Layer 2 (Pass)
//Storyboard Layer 3 (Foreground)
//Storyboard Sound Samples

[TimingPoints]
14860,333.333333333333,4,2,1,40,1,0
20193,-100,4,2,2,45,0,0
21860,-100,4,2,1,45,0,0
22860,-95.2380952380952,4,2,1,45,0,0
23776,-95.2380952380952,4,2,1,5,0,0
23860,-95.2380952380952,4,2,1,45,0,0
26443,-95.2380952380952,4,2,1,5,0,0
26526,-95.2380952380952,4,2,1,45,0,0
33193,-95.2380952380952,4,2,2,45,0,0
33526,-100,4,2,1,50,0,0
41109,-100,4,2,1,5,0,0
41193,-100,4,2,1,50,0,0
43193,-117.647058823529,4,2,2,50,0,0
43443,-117.647058823529,4,2,2,5,0,0
43526,-86.9565217391304,4,2,2,65,0,0
43776,-86.9565217391304,4,2,2,5,0,0
43859,-76.9230769230769,4,2,2,80,0,0
44109,-76.9230769230769,4,2,2,5,0,0
44193,-95.2380952380952,4,2,1,55,0,0
50359,-95.2380952380952,4,2,5,55,0,0
50443,-95.2380952380952,4,2,1,5,0,0
50526,-95.2380952380952,4,2,1,55,0,0
52193,-95.2380952380952,4,2,1,55,0,0
52359,-95.2380952380952,4,2,2,55,0,0
52859,-95.2380952380952,4,2,1,55,0,0
53026,-95.2380952380952,4,2,2,55,0,0
53359,-95.2380952380952,4,2,1,55,0,0
54193,-95.2380952380952,4,2,2,45,0,0
54526,-95.2380952380952,4,2,2,35,0,0
54859,-95.2380952380952,4,2,1,55,0,0
56193,-86.9565217391304,4,2,1,60,0,1
59359,-86.9565217391304,4,2,6,60,0,1
59443,-86.9565217391304,4,2,1,5,0,1
59526,-86.9565217391304,4,2,1,60,0,1
62359,-86.9565217391304,4,2,6,60,0,1
62443,-86.9565217391304,4,2,1,5,0,1
62526,-86.9565217391304,4,2,1,60,0,1
66859,-95.2380952380952,4,2,1,40,0,0
74859,-95.2380952380952,4,2,2,45,0,0
76526,-95.2380952380952,4,2,1,45,0,0
77526,-100,4,2,1,45,0,0
86859,-100,4,2,2,50,0,0
87109,-100,4,2,2,5,0,0
87193,-125,4,2,1,30,0,0
87443,-125,4,2,1,5,0,0
87526,-90.9090909090909,4,2,1,45,0,0
87776,-90.9090909090909,4,2,1,5,0,0
87859,-80,4,2,1,60,0,0
88109,-80,4,2,1,5,0,0
88193,-100,4,2,1,55,0,0
96193,-100,4,2,1,55,0,0
96359,-100,4,2,2,55,0,0
96859,-100,4,2,1,55,0,0
97026,-100,4,2,2,55,0,0
97359,-100,4,2,1,55,0,0
98193,-100,4,2,1,45,0,0
98526,-100,4,2,2,35,0,0
98859,-100,4,2,1,55,0,0
100193,-83.3333333333333,4,2,1,60,0,1
101026,-83.3333333333333,4,2,6,60,0,1
101109,-83.3333333333333,4,2,1,5,0,1
101193,-83.3333333333333,4,2,1,60,0,1
103359,-83.3333333333333,4,2,6,60,0,1
103443,-83.3333333333333,4,2,1,5,0,1
103526,-83.3333333333333,4,2,1,60,0,1
110859,-83.3333333333333,4,2,1,55,0,0
113526,-95.2380952380952,4,2,3,50,0,0
123026,-95.2380952380952,4,2,2,50,0,0
124193,-86.9565217391304,4,2,3,50,0,0
132526,-80,4,2,3,50,0,0
132776,-86.9565217391304,4,2,3,50,0,0
133526,-74.0740740740741,4,2,3,50,0,0
133776,-86.9565217391304,4,2,3,50,0,0
134526,-86.9565217391304,4,2,3,40,0,0
134693,-86.9565217391304,4,2,3,35,0,0
134859,-86.9565217391304,4,2,3,30,0,0
145526,-83.3333333333333,4,2,1,60,0,1
146359,-83.3333333333333,4,2,6,60,0,1
146443,-83.3333333333333,4,2,1,5,0,1
146526,-83.3333333333333,4,2,1,60,0,1
147693,-83.3333333333333,4,2,6,60,0,1
147776,-83.3333333333333,4,2,1,5,0,1
147859,-83.3333333333333,4,2,1,60,0,1
149526,-74.0740740740741,4,2,1,60,0,1
150193,-83.3333333333333,4,2,1,60,0,1
156193,-90.9090909090909,4,2,1,60,0,0
158859,-90.9090909090909,4,2,3,50,0,0
168859,-90.9090909090909,4,2,1,60,0,0
169026,-90.9090909090909,4,2,2,65,0,0
169359,-90.9090909090909,4,2,2,70,0,0
171859,-90.9090909090909,4,2,1,70,0,0
172026,-90.9090909090909,4,2,1,80,0,0

[HitObjects]
320,208,14860,5,6,0:0:0:0:
192,128,15026,1,8,0:0:0:0:
192,128,15110,1,8,0:0:0:0:
192,128,15193,1,8,0:0:0:0:
160,312,15360,1,8,0:0:0:0:
192,128,15526,1,2,0:0:0:0:
232,224,15693,1,8,0:0:0:0:
232,224,15776,1,8,0:0:0:0:
232,224,15860,1,8,0:0:0:0:
304,84,16026,1,8,0:0:0:0:
424,176,16193,6,0,L|484:172,2,47.75,6|0|0,0:0|0:0|0:0,0:0:0:0:
304,84,16526,1,8,0:0:0:0:
232,224,16693,1,8,0:0:0:0:
424,176,16860,1,2,0:0:0:0:
192,128,17026,1,8,0:0:0:0:
164,124,17110,1,8,0:0:0:0:
136,120,17193,1,8,0:0:0:0:
128,252,17360,1,8,0:0:0:0:
332,200,17526,5,6,0:0:0:0:
220,20,17693,1,8,0:0:0:0:
216,40,17776,1,8,0:0:0:0:
212,60,17860,1,8,0:0:0:0:
180,236,18026,1,8,0:0:0:0:
332,200,18193,1,2,0:0:0:0:
136,120,18360,2,0,P|100:112|64:112,2,47.75,8|8|8,0:0|0:0|0:0,0:0:0:0:
268,256,18693,1,8,0:0:0:0:
352,124,18860,5,6,0:0:0:0:
432,296,19026,1,8,0:0:0:0:
432,296,19110,1,8,0:0:0:0:
432,296,19193,1,8,0:0:0:0:
248,168,19360,1,8,0:0:0:0:
204,312,19526,1,2,0:0:0:0:
408,220,19693,2,0,B|432:216|432:216|480:224,1,47.75,8|8,0:0|0:0,0:0:0:0:
248,168,19860,1,8,0:0:0:0:
192,352,20026,1,8,0:0:0:0:
408,220,20193,5,6,0:0:0:0:
408,220,20693,1,2,0:0:0:0:
84,192,20860,1,6,0:0:0:0:
56,188,21360,5,2,0:0:0:0:
248,168,21526,1,6,0:0:0:0:
328,156,21860,5,6,0:0:0:0:
408,144,22193,5,6,0:0:0:0:
408,144,22860,6,0,L|416:276,1,100.27499693985,6|0,0:0|0:0,0:0:0:0:
256,352,23193,2,0,L|260:248,1,100.27499693985,8|8,0:0|0:0,0:0:0:0:
224,76,23526,2,0,P|156:56|40:76,1,150.412495409775,2|0,0:0|0:0,0:0:0:0:
24,120,23860,1,8,0:0:0:0:
224,76,24026,1,8,0:0:0:0:
108,28,24193,5,2,0:0:0:0:
72,232,24360,1,0,0:0:0:0:
260,180,24526,1,8,0:0:0:0:
148,120,24693,1,8,0:0:0:0:
108,352,24860,1,2,0:0:0:0:
340,256,25026,1,0,0:0:0:0:
108,352,25193,1,8,0:0:0:0:
340,256,25360,1,8,0:0:0:0:
116,180,25526,6,0,L|112:300,1,100.27499693985,2|0,0:0|0:0,0:0:0:0:
245,80,25860,2,0,L|261:192,1,100.27499693985,8|8,0:0|0:0,0:0:0:0:
416,328,26193,2,0,P|440:272|404:172,1,150.412495409775,2|0,0:0|0:0,0:0:0:0:
368,128,26526,1,8,0:0:0:0:
416,328,26693,1,8,0:0:0:0:
192,252,26860,1,2,0:0:0:0:
340,256,27026,1,0,0:0:0:0:
108,352,27193,1,8,0:0:0:0:
232,188,27360,5,8,0:0:0:0:
256,340,27526,1,2,0:0:0:0:
96,256,27693,1,0,0:0:0:0:
96,256,27776,1,0,0:0:0:0:
96,256,27860,1,8,0:0:0:0:
256,340,28026,1,8,0:0:0:0:
72,248,28193,6,0,L|64:144,1,100.27499693985,2|0,0:0|0:0,0:0:0:0:
256,340,28526,1,8,0:0:0:0:
256,340,28610,1,0,0:0:0:0:
256,340,28693,2,0,L|252:220,1,100.27499693985,8|2,0:0|0:0,0:0:0:0:
368,136,29026,1,0,0:0:0:0:
424,256,29193,1,8,0:0:0:0:
216,152,29360,1,8,0:0:0:0:
160,296,29526,5,2,0:0:0:0:
344,216,29693,1,0,0:0:0:0:
216,152,29860,1,8,0:0:0:0:
256,340,30026,1,8,0:0:0:0:
424,256,30193,1,2,0:0:0:0:
424,256,30276,1,0,0:0:0:0:
424,256,30360,1,0,0:0:0:0:
184,224,30526,1,8,0:0:0:0:
344,216,30693,1,8,0:0:0:0:
184,224,30860,6,0,L|196:24,1,200.5499938797,2|8,0:0|0:0,0:0:0:0:
196,23,31360,1,8,0:0:0:0:
320,116,31526,1,2,0:0:0:0:
340,112,31610,1,0,0:0:0:0:
360,108,31693,1,0,0:0:0:0:
104,164,31859,1,8,0:0:0:0:
116,84,32026,1,8,0:0:0:0:
184,224,32193,5,2,0:0:0:0:
40,116,32359,1,0,0:0:0:0:
264,188,32526,1,8,0:0:0:0:
108,260,32693,1,8,0:0:0:0:
196,23,32859,1,2,0:0:0:0:
196,23,33193,5,4,0:0:0:0:
264,188,33526,6,0,L|372:184,1,95.5,6|0,0:0|0:0,0:0:0:0:
108,260,33859,2,0,L|12:264,1,95.5,8|8,0:0|0:0,0:0:0:0:
196,23,34193,2,0,L|392:16,1,191,2|8,0:0|0:0,0:0:0:0:
386,16,34693,1,8,0:0:0:0:
448,240,34859,5,2,0:0:0:0:
416,124,35026,1,0,0:0:0:0:
336,328,35193,1,8,0:0:0:0:
376,228,35359,1,8,0:0:0:0:
168,192,35526,1,2,0:0:0:0:
168,192,35609,1,0,0:0:0:0:
168,192,35693,1,0,0:0:0:0:
196,280,35859,1,8,0:0:0:0:
292,160,36026,1,8,0:0:0:0:
140,108,36193,5,2,0:0:0:0:
104,256,36359,1,0,0:0:0:0:
240,216,36526,1,8,0:0:0:0:
76,164,36693,1,8,0:0:0:0:
128,328,36859,1,2,0:0:0:0:
216,124,37026,1,0,0:0:0:0:
268,304,37193,1,8,0:0:0:0:
292,160,37359,1,8,0:0:0:0:
196,316,37526,5,2,0:0:0:0:
368,168,37693,1,0,0:0:0:0:
104,256,37859,1,8,0:0:0:0:
360,252,38026,1,8,0:0:0:0:
144,144,38193,1,2,0:0:0:0:
144,144,38276,1,0,0:0:0:0:
144,144,38359,1,0,0:0:0:0:
76,328,38526,1,8,0:0:0:0:
360,252,38693,1,8,0:0:0:0:
360,252,38859,6,0,L|368:144,1,95.5,2|0,0:0|0:0,0:0:0:0:
136,48,39193,2,0,L|144:148,1,95.5,8|8,0:0|0:0,0:0:0:0:
156,292,39526,1,2,0:0:0:0:
264,192,39693,1,0,0:0:0:0:
264,192,39776,1,0,0:0:0:0:
264,192,39859,1,8,0:0:0:0:
144,144,40026,1,8,0:0:0:0:
264,192,40193,6,0,L|368:188,1,95.5,2|0,0:0|0:0,0:0:0:0:
156,292,40526,2,0,L|280:280,1,95.5,8|8,0:0|0:0,0:0:0:0:
64,212,40859,2,0,P|40:148|72:68,1,143.25,2|0,0:0|0:0,0:0:0:0:
116,24,41193,1,8,0:0:0:0:
144,144,41359,1,8,0:0:0:0:
256,72,41526,5,2,0:0:0:0:
144,144,41693,1,0,0:0:0:0:
368,192,41859,1,8,0:0:0:0:
144,144,42026,1,8,0:0:0:0:
332,116,42193,1,2,0:0:0:0:
140,220,42359,1,0,0:0:0:0:
408,264,42526,1,8,0:0:0:0:
144,144,42693,1,8,0:0:0:0:
128,328,42859,5,2,0:0:0:0:
408,264,43026,1,8,0:0:0:0:
408,264,43109,1,8,0:0:0:0:
408,264,43193,6,0,L|252:256,1,121.762502322435,6|0,0:0|0:0,0:0:0:0:
140,220,43526,6,0,L|344:208,1,164.737503142119,6|0,0:0|0:0,0:0:0:0:
448,144,43859,6,0,B|392:128|392:128|360:148|360:148|316:104|228:144,1,186.224991475296,6|0,0:0|0:0,0:0:0:0:
200,56,44193,6,0,L|316:48,1,100.27499693985,6|2,0:0|0:1,0:0:0:0:
144,144,44526,2,0,L|40:152,1,100.27499693985,8|8,0:0|0:0,0:0:0:0:
132,296,44859,1,2,0:0:0:0:
224,136,45026,1,2,0:1:0:0:
224,136,45109,1,0,0:0:0:0:
224,136,45193,1,8,0:0:0:0:
288,232,45359,1,8,0:0:0:0:
144,144,45526,5,2,0:0:0:0:
144,144,45693,1,2,0:1:0:0:
356,272,45859,1,8,0:0:0:0:
356,272,46026,1,8,0:0:0:0:
256,360,46193,1,2,0:0:0:0:
356,192,46359,1,2,0:1:0:0:
420,328,46526,1,8,0:0:0:0:
420,328,46609,1,0,0:0:0:0:
420,328,46693,1,8,0:0:0:0:
196,272,46859,5,2,0:0:0:0:
196,272,47026,1,2,0:1:0:0:
332,72,47193,1,8,0:0:0:0:
332,72,47359,1,8,0:0:0:0:
424,240,47526,1,2,0:0:0:0:
256,192,47693,1,2,0:1:0:0:
448,156,47859,1,8,0:0:0:0:
288,260,48026,1,8,0:0:0:0:
424,240,48193,5,2,0:0:0:0:
216,128,48359,1,2,0:1:0:0:
424,240,48526,1,8,0:0:0:0:
196,272,48693,1,8,0:0:0:0:
424,240,48859,1,2,0:0:0:0:
136,200,49026,1,2,0:1:0:0:
288,260,49193,1,8,0:0:0:0:
104,284,49359,1,8,0:0:0:0:
347,162,49526,6,0,L|463:154,1,100.27499693985,6|2,0:0|0:1,0:0:0:0:
160,64,49859,2,0,L|24:60,1,100.27499693985,8|8,0:0|0:0,0:0:0:0:
137,342,50193,2,0,P|157:274|129:190,1,150.412495409775,2|0,0:0|0:0,0:0:0:0:
64,160,50526,2,0,L|188:152,1,100.27499693985,8|8,0:0|0:0,0:0:0:0:
448,52,50859,6,0,L|328:60,1,100.27499693985,2|2,0:0|0:1,0:0:0:0:
308,284,51193,2,0,L|452:276,1,100.27499693985,8|8,0:0|0:0,0:0:0:0:
160,64,51526,2,0,L|52:72,1,100.27499693985,2|2,0:0|0:1,0:0:0:0:
59,71,51859,1,8,0:0:0:0:
32,240,52026,1,8,0:0:0:0:
224,156,52193,5,6,0:0:0:0:
308,284,52359,1,8,0:1:0:0:
308,284,52526,1,8,0:1:0:0:
208,132,52693,1,0,0:0:0:0:
120,340,52859,5,6,0:0:0:0:
264,220,53026,1,8,0:1:0:0:
264,220,53193,1,8,0:1:0:0:
59,71,53359,1,6,0:0:0:0:
59,71,53693,5,0,0:0:0:0:
260,48,53859,1,8,0:0:0:0:
104,152,54026,1,0,0:0:0:0:
164,24,54193,1,2,0:0:0:0:
264,220,54359,1,0,0:0:0:0:
312,112,54526,1,4,0:0:0:0:
396,332,54693,1,4,0:0:0:0:
228,288,54859,5,4,0:0:0:0:
228,288,56193,6,0,L|108:284,1,109.825002094746,6|8,0:0|0:0,0:0:0:0:
312,112,56526,2,0,L|432:116,1,109.825002094746,2|8,0:0|0:0,0:0:0:0:
104,152,56859,2,0,P|92:104|120:24,1,109.825002094746,2|8,0:0|0:0,0:0:0:0:
228,288,57193,1,2,0:0:0:0:
312,112,57359,1,8,0:0:0:0:
352,196,57526,5,2,0:0:0:0:
104,152,57693,1,8,0:0:0:0:
352,196,57859,1,2,0:0:0:0:
118,284,58026,1,8,0:0:0:0:
312,112,58193,1,2,0:0:0:0:
312,112,58276,1,0,0:0:0:0:
312,112,58359,1,8,0:0:0:0:
200,60,58526,1,2,0:0:0:0:
168,212,58693,1,8,0:0:0:0:
392,128,58859,6,0,L|512:124,1,109.825002094746,2|8,0:0|0:0,0:0:0:0:
232,368,59193,2,0,L|240:168,1,164.737503142119,2|0,0:0|0:0,0:0:0:0:
240,128,59526,1,2,0:0:0:0:
336,272,59693,1,8,0:0:0:0:
168,212,59859,1,2,0:0:0:0:
312,112,60026,1,8,0:0:0:0:
336,272,60193,5,2,0:0:0:0:
88,188,60359,1,8,0:0:0:0:
368,244,60526,1,2,0:0:0:0:
116,272,60693,1,8,0:0:0:0:
424,200,60859,1,2,0:0:0:0:
424,200,60943,1,0,0:0:0:0:
424,200,61026,1,8,0:0:0:0:
424,200,61109,1,8,0:0:0:0:
424,200,61193,1,8,0:0:0:0:
220,36,61359,1,8,0:0:0:0:
220,36,61526,6,0,L|212:184,1,109.825002094746,6|8,0:0|0:0,0:0:0:0:
433,309,61859,2,8,L|421:169,1,109.825002094746,2|8,0:0|0:0,0:0:0:0:
116,272,62193,2,0,P|168:304|296:284,1,164.737503142119,2|0,0:0|0:0,0:0:0:0:
336,260,62526,1,2,0:0:0:0:
116,272,62693,1,8,0:0:0:0:
116,272,62859,6,0,L|104:160,1,109.825002094746,2|8,0:0|0:0,0:0:0:0:
40,328,63193,1,2,0:0:0:0:
196,216,63359,1,8,0:0:0:0:
252,352,63526,2,0,L|372:344,1,109.825002094746,2|8,0:0|0:0,0:0:0:0:
464,124,63859,2,0,L|308:132,1,109.825002094746,2|8,0:0|0:0,0:0:0:0:
216,112,64193,6,0,P|204:64|212:4,1,109.825002094746,2|8,0:0|0:0,0:0:0:0:
196,216,64526,1,2,0:0:0:0:
354,129,64693,1,8,0:0:0:0:
128,96,64859,1,2,0:0:0:0:
200,232,65026,1,8,0:0:0:0:
276,164,65193,1,2,0:0:0:0:
104,192,65359,1,8,0:0:0:0:
224,304,65526,5,2,0:0:0:0:
224,304,65693,1,8,0:0:0:0:
352,208,65859,2,0,L|480:200,1,109.825002094746,2|8,0:0|0:0,0:0:0:0:
200,132,66193,1,2,0:0:0:0:
128,268,66359,1,8,0:0:0:0:
128,268,66443,1,8,0:0:0:0:
128,268,66526,1,8,0:0:0:0:
352,208,66693,1,8,0:0:0:0:
128,96,66859,5,6,0:0:0:0:
128,96,69526,5,6,0:0:0:0:
96,256,69693,2,0,L|84:316,2,50.137498469925,8|8|8,0:0|0:0|0:0,0:0:0:0:
128,96,70026,1,8,0:0:0:0:
228,192,70193,1,2,0:0:0:0:
48,160,70359,1,8,0:0:0:0:
48,160,70443,1,8,0:0:0:0:
48,160,70526,1,8,0:0:0:0:
192,276,70693,1,8,0:0:0:0:
260,124,70859,5,6,0:0:0:0:
352,248,71026,2,0,L|416:244,2,50.137498469925,8|8|8,0:0|0:0|0:0,0:0:0:0:
136,180,71359,2,0,L|80:176,2,50.137498469925,8|0|2,0:0|0:0|0:0,0:0:0:0:
328,92,71693,1,8,0:0:0:0:
328,92,71776,1,8,0:0:0:0:
328,92,71859,1,8,0:0:0:0:
352,248,72026,1,8,0:0:0:0:
200,156,72193,1,6,0:0:0:0:
344,112,72359,5,8,0:0:0:0:
344,112,72443,1,8,0:0:0:0:
344,112,72526,1,8,0:0:0:0:
304,252,72693,1,8,0:0:0:0:
148,104,72859,1,2,0:0:0:0:
360,132,73026,1,8,0:0:0:0:
144,208,73193,1,8,0:0:0:0:
256,48,73359,1,8,0:0:0:0:
304,252,73526,5,6,0:0:0:0:
304,252,73693,2,0,L|316:304,2,50.137498469925,8|8|8,0:0|0:0|0:0,0:0:0:0:
148,104,74026,2,0,L|160:36,2,50.137498469925,8|0|2,0:0|0:0|0:0,0:0:0:0:
108,336,74359,1,8,0:0:0:0:
112,310,74443,1,8,0:0:0:0:
117,285,74526,1,8,0:0:0:0:
268,172,74693,1,8,0:0:0:0:
340,332,74859,5,6,0:0:0:0:
340,332,75359,1,2,0:0:0:0:
268,172,75526,1,6,0:0:0:0:
117,285,76026,5,2,0:0:0:0:
384,240,76193,1,6,0:0:0:0:
320,104,76526,5,6,0:0:0:0:
268,172,76859,5,6,0:0:0:0:
268,172,77526,6,0,L|148:168,1,95.5,6|0,0:0|0:0,0:0:0:0:
64,96,77859,2,0,L|164:92,1,95.5,8|8,0:0|0:0,0:0:0:0:
236,252,78193,1,2,0:0:0:0:
96,164,78359,1,0,0:0:0:0:
48,260,78526,1,8,0:0:0:0:
164,212,78693,1,8,0:0:0:0:
96,164,78859,5,2,0:0:0:0:
72,348,79026,1,0,0:0:0:0:
216,340,79193,2,0,L|332:336,1,95.5,8|8,0:0|0:0,0:0:0:0:
488,200,79526,2,0,L|276:196,1,191,2|8,0:0|0:0,0:0:0:0:
297,196,80026,1,8,0:0:0:0:
312,28,80193,6,0,L|304:132,1,95.5,2|0,0:0|0:0,0:0:0:0:
400,364,80526,2,0,L|392:256,1,95.5,8|8,0:0|0:0,0:0:0:0:
136,77,80859,2,0,P|216:65|312:137,1,191,2|8,0:0|0:0,0:0:0:0:
288,292,81359,1,8,0:0:0:0:
89,157,81526,2,0,P|105:109|169:61,1,95.5,2|0,0:0|0:0,0:0:0:0:
68,316,81859,2,0,P|41:272|45:193,1,95.5,8|8,0:0|0:0,0:0:0:0:
312,28,82193,2,0,L|332:216,1,143.25,2|0,0:0|0:0,0:0:0:0:
336,240,82526,1,8,0:0:0:0:
220,160,82693,1,8,0:0:0:0:
68,316,82859,6,0,L|168:312,1,95.5,2|0,0:0|0:0,0:0:0:0:
431,243,83193,2,0,L|311:239,1,95.5,8|8,0:0|0:0,0:0:0:0:
202,68,83526,2,0,P|222:124|210:184,1,95.5,2|0,0:0|0:0,0:0:0:0:
68,316,83859,2,0,L|72:208,1,95.5,8|8,0:0|0:0,0:0:0:0:
233,349,84193,6,0,L|217:141,1,191,2|8,0:0|0:0,0:0:0:0:
218,158,84693,1,8,0:0:0:0:
71,220,84859,1,2,0:0:0:0:
312,296,85026,1,0,0:0:0:0:
312,296,85109,1,0,0:0:0:0:
312,296,85193,1,8,0:0:0:0:
204,136,85359,1,8,0:0:0:0:
68,316,85526,5,2,0:0:0:0:
304,200,85693,1,0,0:0:0:0:
304,200,85859,1,8,0:0:0:0:
312,296,86026,1,8,0:0:0:0:
204,136,86193,1,2,0:0:0:0:
180,220,86359,1,0,0:0:0:0:
360,112,86526,1,8,0:0:0:0:
224,56,86693,1,8,0:0:0:0:
224,56,86859,6,0,L|40:48,1,143.25,6|0,0:0|0:0,0:0:0:0:
32,160,87193,6,0,B|124:148|124:148|92:128,1,114.6
334,210,87526,6,0,B|238:202|238:202|170:222,1,157.575004808808
68,332,87859,6,0,B|132:316|132:316|172:332|172:332|280:308,1,179.0625
335,324,88193,6,0,L|231:316,1,95.5,6|0,0:0|0:0,0:0:0:0:
84,223,88526,2,0,L|192:219,1,95.5,8|8,0:0|0:0,0:0:0:0:
408,120,88859,2,0,L|276:116,1,95.5,2|2,0:0|0:1,0:0:0:0:
68,48,89193,2,0,L|184:44,1,95.5,8|8,0:0|0:0,0:0:0:0:
312,117,89526,6,0,P|320:176|308:232,1,95.5,2|2,0:0|0:1,0:0:0:0:
260,264,89776,1,0,0:0:0:0:
260,264,89859,2,0,L|152:260,1,95.5,8|8,0:0|0:0,0:0:0:0:
48,152,90193,2,0,L|144:148,1,95.5,2|2,0:0|0:1,0:0:0:0:
216,121,90443,1,0,0:0:0:0:
216,121,90526,2,0,L|328:117,1,95.5,8|8,0:0|0:0,0:0:0:0:
320,336,90859,6,0,L|448:328,1,95.5,2|0,0:0|0:0,0:0:0:0:
152,256,91193,2,0,L|44:252,1,95.5,8|8,0:0|0:0,0:0:0:0:
311,116,91526,2,0,L|423:108,1,95.5,2|2,0:0|0:1,0:0:0:0:
120,40,91859,2,0,L|16:36,1,95.5,8|8,0:0|0:0,0:0:0:0:
244,192,92193,6,0,L|124:188,1,95.5,2|2,0:0|0:1,0:0:0:0:
80,152,92443,1,0,0:0:0:0:
80,152,92526,2,0,L|196:148,1,95.5,8|8,0:0|0:0,0:0:0:0:
340,204,92859,2,0,P|352:252|344:300,1,95.5,2|2,0:0|0:1,0:0:0:0:
345,296,93109,1,0,0:0:0:0:
345,296,93193,1,8,0:0:0:0:
244,192,93359,1,8,0:0:0:0:
160,312,93526,6,0,L|56:308,1,95.5,6|0,0:0|0:0,0:0:0:0:
244,192,93859,2,0,L|136:196,1,95.5,8|8,0:0|0:0,0:0:0:0:
344,56,94193,2,0,L|224:68,1,95.5,2|2,0:0|0:1,0:0:0:0:
464,200,94526,2,0,P|472:144|452:84,1,95.5,8|8,0:0|0:0,0:0:0:0:
244,192,94859,6,0,P|236:240|252:304,1,95.5,2|2,0:0|0:1,0:0:0:0:
244,285,95109,1,0,0:0:0:0:
244,285,95193,1,8,0:0:0:0:
464,200,95359,1,8,0:0:0:0:
344,56,95526,1,2,0:0:0:0:
296,124,95693,1,2,0:1:0:0:
463,106,95859,1,8,0:0:0:0:
252,48,96026,1,8,0:0:0:0:
252,48,96109,1,0,0:0:0:0:
252,48,96193,5,6,0:0:0:0:
172,240,96359,1,8,0:1:0:0:
172,240,96526,1,8,0:1:0:0:
348,192,96693,1,0,0:0:0:0:
104,140,96859,5,6,0:0:0:0:
348,192,97026,1,8,0:1:0:0:
348,192,97193,1,8,0:1:0:0:
172,240,97359,1,6,0:0:0:0:
172,240,97693,5,0,0:0:0:0:
252,48,97859,1,8,0:0:0:0:
172,240,98026,1,8,0:0:0:0:
224,60,98193,1,2,0:0:0:0:
252,312,98359,1,0,0:0:0:0:
204,148,98526,1,8,0:0:0:0:
204,148,98609,1,8,0:0:0:0:
204,148,98693,1,12,0:0:0:0:
260,332,98859,5,6,0:0:0:0:
260,332,100193,6,0,L|388:324,1,114.599996502686,6|8,0:0|0:0,0:0:0:0:
136,176,100526,2,0,L|256:180,1,114.599996502686,2|8,0:0|0:0,0:0:0:0:
472,44,100859,2,0,L|280:36,1,171.899994754028,2|0,0:0|0:0,0:0:0:0:
224,32,101193,1,2,0:0:0:0:
100,244,101359,1,8,0:0:0:0:
324,112,101526,6,0,L|192:108,1,114.599996502686,2|8,0:0|0:0,0:0:0:0:
112,40,101859,1,2,0:0:0:0:
100,244,102026,1,8,0:0:0:0:
244,180,102193,1,2,0:0:0:0:
40,108,102359,1,8,0:0:0:0:
40,108,102443,1,0,0:0:0:0:
40,108,102526,1,2,0:0:0:0:
32,328,102693,1,8,0:0:0:0:
192,256,102859,6,0,L|312:252,1,114.599996502686,2|8,0:0|0:0,0:0:0:0:
480,348,103193,2,0,L|264:340,1,171.899994754028,2|0,0:0|0:0,0:0:0:0:
232,336,103526,1,2,0:0:0:0:
344,84,103693,1,8,0:0:0:0:
388,248,103859,1,2,0:0:0:0:
144,144,104026,1,8,0:0:0:0:
388,248,104193,5,2,0:0:0:0:
124,184,104359,1,8,0:0:0:0:
388,248,104526,1,2,0:0:0:0:
88,288,104693,1,8,0:0:0:0:
276,212,104859,1,2,0:0:0:0:
232,336,105026,1,8,0:0:0:0:
232,336,105109,1,8,0:0:0:0:
232,336,105193,1,10,0:0:0:0:
124,184,105359,1,8,0:0:0:0:
260,80,105526,6,0,P|318:72|396:80,1,114.599996502686,6|8,0:0|0:0,0:0:0:0:
124,184,105859,2,0,P|184:172|276:176,1,114.599996502686,2|8,0:0|0:0,0:0:0:0:
460,332,106193,2,0,P|368:316|312:284,1,114.599996502686,2|8,0:0|0:0,0:0:0:0:
349,307,106443,1,0,0:0:0:0:
349,307,106526,1,2,0:0:0:0:
112,104,106693,1,8,0:0:0:0:
112,104,106859,6,0,L|104:256,1,114.599996502686,2|8,0:0|0:0,0:0:0:0:
105,218,107193,1,2,0:0:0:0:
336,192,107359,1,8,0:0:0:0:
336,192,107443,1,0,0:0:0:0:
336,192,107526,2,0,L|216:184,1,114.599996502686,2|8,0:0|0:0,0:0:0:0:
32,336,107859,2,0,L|180:332,1,114.599996502686,2|8,0:0|0:0,0:0:0:0:
256,108,108193,5,2,0:0:0:0:
349,307,108359,1,8,0:0:0:0:
105,218,108526,1,2,0:0:0:0:
336,112,108693,1,8,0:0:0:0:
105,218,108859,1,2,0:0:0:0:
349,307,109026,1,8,0:0:0:0:
68,236,109193,1,2,0:0:0:0:
392,228,109359,1,8,0:0:0:0:
392,228,109526,6,0,L|272:224,1,114.599996502686,2|8,0:0|0:0,0:0:0:0:
176,188,109859,1,2,0:0:0:0:
104,324,110026,1,8,0:0:0:0:
349,307,110193,1,2,0:0:0:0:
156,216,110359,1,8,0:0:0:0:
156,216,110443,1,8,0:0:0:0:
156,216,110526,1,8,0:0:0:0:
256,356,110693,1,8,0:0:0:0:
368,152,110859,5,6,0:0:0:0:
368,152,113526,5,14,0:0:0:0:
344,148,113609,1,0,0:0:0:0:
320,144,113693,1,8,0:1:0:0:
296,140,113776,1,0,0:0:0:0:
272,136,113859,1,10,0:0:0:0:
248,132,113943,1,0,0:0:0:0:
224,128,114026,1,8,0:1:0:0:
200,124,114109,1,0,0:0:0:0:
176,116,114193,2,0,P|168:84|168:32,3,50.137498469925,10|0|8|0,0:0|0:0|0:1|0:0,0:0:0:0:
48,208,114526,6,0,P|40:248|24:288,3,50.137498469925,10|0|8|0,0:0|0:0|0:1|0:0,0:0:0:0:
156,308,114859,1,10,0:0:0:0:
204,324,114943,1,0,0:0:0:0:
252,320,115026,1,8,0:1:0:0:
296,296,115109,1,0,0:0:0:0:
324,252,115193,1,10,0:0:0:0:
328,204,115276,1,0,0:0:0:0:
312,156,115359,1,8,0:1:0:0:
288,112,115443,1,0,0:0:0:0:
268,64,115526,6,0,P|256:8|256:0,1,50.137498469925,10|0,0:0|0:0,0:0:0:0:
100,100,115693,1,8,0:1:0:0:
144,124,115776,1,0,0:0:0:0:
192,132,115859,1,10,0:0:0:0:
240,124,115943,1,0,0:0:0:0:
288,112,116026,1,8,0:1:0:0:
336,100,116109,1,0,0:0:0:0:
388,104,116193,6,0,P|432:112|476:112,1,50.137498469925,10|0,0:0|0:0,0:0:0:0:
328,204,116359,2,0,L|400:200,1,50.137498469925,8|0,0:1|0:0,0:0:0:0:
252,320,116526,5,10,0:0:0:0:
204,316,116609,1,0,0:0:0:0:
160,288,116693,1,8,0:1:0:0:
132,244,116776,1,0,0:0:0:0:
128,196,116859,1,10,0:0:0:0:
140,148,116943,1,0,0:0:0:0:
176,116,117026,1,8,0:1:0:0:
220,96,117109,1,0,0:0:0:0:
272,92,117193,5,10,0:0:0:0:
316,112,117276,1,0,0:0:0:0:
364,120,117359,1,8,0:1:0:0:
412,108,117443,1,0,0:0:0:0:
456,80,117526,6,0,P|472:48|480:16,3,50.137498469925,10|0|8|0,0:0|0:0|0:1|0:0,0:0:0:0:
420,208,117859,2,0,P|412:248|412:284,1,50.137498469925,10|0,0:0|0:0,0:0:0:0:
272,92,118026,2,0,P|272:144|284:184,1,50.137498469925,8|0,0:1|0:0,0:0:0:0:
132,244,118193,5,10,0:0:0:0:
132,244,118276,1,0,0:0:0:0:
132,244,118359,2,0,L|144:180,1,50.137498469925,8|8,0:1|0:1,0:0:0:0:
284,80,118526,2,0,L|288:152,1,50.137498469925,10|0,0:0|0:0,0:0:0:0:
108,256,118693,2,0,L|124:164,1,50.137498469925,8|0,0:1|0:0,0:0:0:0:
296,68,118859,5,14,0:0:0:0:
336,36,118943,1,0,0:0:0:0:
384,32,119026,1,8,0:1:0:0:
432,48,119109,1,0,0:0:0:0:
452,92,119193,5,10,0:0:0:0:
424,136,119276,1,0,0:0:0:0:
420,184,119359,1,8,0:1:0:0:
440,232,119443,1,0,0:0:0:0:
456,276,119526,5,10,0:0:0:0:
412,256,119609,1,0,0:0:0:0:
364,248,119693,1,8,0:1:0:0:
316,248,119776,1,0,0:0:0:0:
268,260,119859,5,10,0:0:0:0:
272,280,119943,1,0,0:0:0:0:
276,300,120026,1,8,0:1:0:0:
280,320,120109,1,0,0:0:0:0:
284,340,120193,6,0,P|336:336|368:336,3,50.137498469925,10|0|8|0,0:0|0:0|0:1|0:0,0:0:0:0:
164,296,120526,6,0,L|104:292,5,33.42499897995,10|0|0|8|0|0,0:0|0:0|0:0|0:1|0:0|0:0,0:0:0:0:
208,192,120859,2,0,L|248:188,5,33.42499897995,10|0|0|8|0|0,0:0|0:0|0:0|0:1|0:0|0:0,0:0:0:0:
144,92,121193,2,0,L|92:88,5,33.42499897995,10|0|0|8|0|0,0:0|0:0|0:0|0:1|0:0|0:0,0:0:0:0:
252,48,121526,6,0,L|292:44,2,33.42499897995,10|0|0,0:0|0:0|0:0,0:0:0:0:
336,112,121693,2,0,L|384:108,3,33.42499897995,8|0|0|10,0:1|0:0|0:0|0:0,0:0:0:0:
232,156,122026,5,8,0:1:0:0:
336,112,122193,1,10,0:0:0:0:
312,208,122359,1,8,0:1:0:0:
144,160,122526,5,10,0:0:0:0:
336,112,122693,1,8,0:1:0:0:
148,344,123026,5,6,0:0:0:0:
336,112,123359,1,6,0:0:0:0:
336,112,123693,1,8,0:0:0:0:
336,112,123776,1,8,0:0:0:0:
336,112,123859,1,8,0:0:0:0:
380,244,124026,1,8,0:0:0:0:
232,212,124193,5,14,0:0:0:0:
232,212,124276,1,0,0:0:0:0:
232,212,124359,2,0,L|152:208,1,54.9125010473728,8|0,0:1|0:0,0:0:0:0:
384,44,124526,1,10,0:0:0:0:
384,44,124609,1,0,0:0:0:0:
384,44,124693,2,0,L|448:44,1,54.9125010473728,8|0,0:1|0:0,0:0:0:0:
156,76,124859,1,10,0:0:0:0:
156,76,124943,1,0,0:0:0:0:
156,76,125026,6,0,P|148:36|152:8,1,54.9125010473728,8|0,0:1|0:0,0:0:0:0:
300,268,125193,1,10,0:0:0:0:
300,268,125276,1,0,0:0:0:0:
300,268,125359,2,0,P|312:308|312:336,1,54.9125010473728,8|0,0:1|0:0,0:0:0:0:
104,208,125526,5,10,0:0:0:0:
144,164,125609,1,0,0:0:0:0:
204,152,125693,1,8,0:1:0:0:
264,168,125776,1,0,0:0:0:0:
308,208,125859,5,10,0:0:0:0:
284,152,125943,1,0,0:0:0:0:
288,92,126026,1,8,0:1:0:0:
320,40,126109,1,0,0:0:0:0:
380,24,126193,5,10,0:0:0:0:
348,76,126276,1,0,0:0:0:0:
288,92,126359,1,8,0:1:0:0:
228,72,126443,1,0,0:0:0:0:
168,60,126526,1,10,0:0:0:0:
108,68,126609,1,0,0:0:0:0:
56,100,126693,1,8,0:1:0:0:
36,156,126776,1,0,0:0:0:0:
36,216,126859,6,0,P|40:268|48:304,1,54.9125010473728,10|0,0:0|0:0,0:0:0:0:
204,152,127026,1,8,0:1:0:0:
144,164,127109,1,0,0:0:0:0:
120,220,127193,1,10,0:0:0:0:
148,276,127276,1,0,0:0:0:0:
208,284,127359,1,8,0:1:0:0:
264,264,127443,1,0,0:0:0:0:
324,248,127526,1,10,0:0:0:0:
384,256,127609,1,0,0:0:0:0:
432,292,127693,2,0,P|444:324|448:360,1,54.9125010473728,8|0,0:1|0:0,0:0:0:0:
276,184,127859,6,0,P|280:140|288:92,1,54.9125010473728,10|0,0:0|0:0,0:0:0:0:
432,56,128026,1,8,0:1:0:0:
432,56,128109,1,0,0:0:0:0:
432,56,128193,5,10,0:0:0:0:
400,52,128276,1,0,0:0:0:0:
368,48,128359,1,8,0:1:0:0:
336,44,128443,1,0,0:0:0:0:
304,40,128526,1,10,0:0:0:0:
272,36,128609,1,0,0:0:0:0:
240,32,128693,1,8,0:1:0:0:
208,28,128776,1,0,0:0:0:0:
224,68,128859,5,10,0:0:0:0:
232,112,128943,1,0,0:0:0:0:
224,156,129026,1,8,0:1:0:0:
196,192,129109,1,8,0:1:0:0:
176,152,129193,5,10,0:0:0:0:
224,156,129276,1,0,0:0:0:0:
260,180,129359,1,8,0:1:0:0:
272,224,129443,1,0,0:0:0:0:
260,268,129526,5,14,0:0:0:0:
112,208,129693,2,0,P|104:160|104:128,1,54.9125010473728,8|0,0:1|0:0,0:0:0:0:
64,352,129859,5,10,0:0:0:0:
116,332,129943,1,0,0:0:0:0:
172,324,130026,1,8,0:1:0:0:
228,332,130109,1,0,0:0:0:0:
276,356,130193,6,0,L|356:348,1,54.9125010473728,10|0,0:0|0:0,0:0:0:0:
476,280,130359,2,0,L|396:288,1,54.9125010473728,8|0,0:1|0:0,0:0:0:0:
272,224,130526,2,0,L|352:216,1,54.9125010473728,10|0,0:0|0:0,0:0:0:0:
476,160,130693,2,0,L|388:168,1,54.9125010473728,8|0,0:1|0:0,0:0:0:0:
232,104,130859,2,0,L|324:108,1,54.9125010473728,10|0,0:0|0:0,0:0:0:0:
404,28,131026,2,0,P|400:68|372:100,1,54.9125010473728,8|0,0:1|0:0,0:0:0:0:
152,108,131193,2,0,P|156:68|184:36,1,54.9125010473728,10|0,0:0|0:0,0:0:0:0:
344,268,131359,6,0,P|340:308|312:340,1,54.9125010473728,8|0,0:1|0:0,0:0:0:0:
340,120,131526,2,0,P|368:116|444:136,1,54.9125010473728,10|0,0:0|0:0,0:0:0:0:
176,192,131693,2,0,P|148:196|72:176,1,54.9125010473728,8|0,0:1|0:0,0:0:0:0:
260,44,131859,2,0,P|256:92|248:140,1,54.9125010473728,10|0,0:0|0:0,0:0:0:0:
248,188,132026,2,0,L|256:256,1,54.9125010473728,8|0,0:1|0:0,0:0:0:0:
118,327,132193,6,0,L|126:283,7,27.4562505236864,10|0|0|0|8|0|0|0,0:0|0:0|0:0|0:0|0:1|0:0|0:0|0:0,0:0:0:0:
118,327,132526,6,0,L|110:175,1,119.375,10|8,0:0|0:1,0:0:0:0:
160,120,132776,6,0,L|144:84,8,27.4562505236864,0|0|10|0|0|0|8|0|0,0:0|0:0|0:0|0:0|0:0|0:0|0:1|0:0|0:0,0:0:0:0:
256,156,133193,2,0,L|272:132,7,27.4562505236864,10|0|0|0|8|0|0|0,0:0|0:0|0:0|0:0|0:1|0:0|0:0|0:0,0:0:0:0:
320,200,133526,6,0,L|452:188,1,128.92500049181,10|8,0:0|0:1,0:0:0:0:
472,112,133776,6,0,L|480:64,8,27.4562505236864,0|0|10|0|0|0|8|0|0,0:0|0:0|0:0|0:0|0:0|0:0|0:1|0:0|0:0,0:0:0:0:
320,200,134193,2,0,L|312:252,8,27.4562505236864,2|0|0|0|0|0|0|0|8,0:0|0:0|0:0|0:0|0:0|0:0|0:0|0:0|0:1,0:0:0:0:
352,76,134693,5,2,0:0:0:0:
460,312,134859,1,4,0:0:0:0:
256,284,145526,6,0,L|384:280,1,114.599996502686,6|8,0:0|0:0,0:0:0:0:
168,96,145859,2,0,L|32:92,1,114.599996502686,2|8,0:0|0:0,0:0:0:0:
360,208,146193,2,0,P|384:124|340:44,1,171.899994754028,2|0,0:0|0:0,0:0:0:0:
280,20,146526,1,2,0:0:0:0:
168,236,146693,1,8,0:0:0:0:
272,132,146859,5,2,0:0:0:0:
360,344,147026,1,8,0:0:0:0:
168,236,147193,2,0,L|288:232,1,114.599996502686,2|8,0:0|0:0,0:0:0:0:
443,132,147526,2,0,L|263:132,1,171.899994754028,2|0,0:0|0:0,0:0:0:0:
192,128,147859,1,2,0:0:0:0:
280,20,148026,1,8,0:0:0:0:
360,208,148193,5,2,0:0:0:0:
208,56,148359,1,8,0:0:0:0:
208,56,148443,1,0,0:0:0:0:
208,56,148526,1,2,0:0:0:0:
168,236,148693,1,8,0:0:0:0:
448,132,148859,2,0,L|312:128,1,114.599996502686,2|8,0:0|0:0,0:0:0:0:
192,332,149193,1,2,0:0:0:0:
360,208,149359,1,8,0:0:0:0:
64,132,149526,6,0,L|208:128,1,128.92500049181,2|8,0:0|0:0,0:0:0:0:
368,336,149859,1,2,0:0:0:0:
168,236,150026,1,8,0:0:0:0:
448,64,150193,6,0,L|324:60,1,114.599996502686,2|8,0:0|0:0,0:0:0:0:
333,60,150443,1,8,0:0:0:0:
333,60,150526,1,2,0:0:0:0:
168,236,150693,1,8,0:0:0:0:
360,208,150859,5,6,0:0:0:0:
208,56,151026,1,8,0:0:0:0:
152,268,151193,1,2,0:0:0:0:
280,192,151359,1,8,0:0:0:0:
188,156,151526,1,2,0:0:0:0:
128,344,151693,1,8,0:0:0:0:
420,272,151859,2,0,L|280:268,1,114.599996502686,2|8,0:0|0:0,0:0:0:0:
96,192,152193,6,0,P|88:132|96:60,1,114.599996502686,2|8,0:0|0:0,0:0:0:0:
64,288,152526,1,2,0:0:0:0:
216,232,152693,1,8,0:0:0:0:
348,340,152859,2,0,L|220:336,1,114.599996502686,2|8,0:0|0:0,0:0:0:0:
400,160,153193,1,2,0:0:0:0:
420,272,153359,1,8,0:0:0:0:
216,232,153526,5,2,0:0:0:0:
420,272,153693,1,8,0:0:0:0:
200,248,153859,1,2,0:0:0:0:
412,216,154026,1,8,0:0:0:0:
136,272,154193,1,2,0:0:0:0:
288,164,154359,1,8,0:0:0:0:
288,164,154443,1,0,0:0:0:0:
288,164,154526,1,2,0:0:0:0:
348,340,154693,1,8,0:0:0:0:
136,176,154859,5,2,0:0:0:0:
348,340,155026,1,8,0:0:0:0:
188,116,155193,1,2,0:0:0:0:
196,320,155359,1,8,0:0:0:0:
424,148,155526,1,2,0:0:0:0:
396,144,155609,1,0,0:0:0:0:
368,140,155693,1,8,0:0:0:0:
444,288,155859,1,10,0:0:0:0:
288,164,156026,1,8,0:0:0:0:
196,320,156193,5,4,0:0:0:0:
196,320,158859,5,14,0:0:0:0:
152,196,159026,1,8,0:1:0:0:
260,228,159193,1,10,0:0:0:0:
92,288,159359,1,8,0:1:0:0:
124,128,159526,2,0,L|140:20,1,105.050003205872,10|8,0:0|0:1,0:0:0:0:
260,228,159859,2,0,L|256:112,1,105.050003205872,10|8,0:0|0:1,0:0:0:0:
432,324,160193,6,0,P|368:312|296:320,1,105.050003205872,10|8,0:0|0:1,0:0:0:0:
256,123,160526,2,0,L|388:111,1,105.050003205872,10|8,0:0|0:1,0:0:0:0:
196,320,160859,1,10,0:0:0:0:
260,228,161026,1,8,0:1:0:0:
328,313,161193,1,10,0:0:0:0:
172,236,161359,1,8,0:1:0:0:
172,236,161443,1,0,0:0:0:0:
172,236,161526,5,10,0:0:0:0:
392,208,161693,1,8,0:1:0:0:
172,236,161859,1,10,0:0:0:0:
316,188,162026,1,8,0:1:0:0:
164,160,162193,1,10,0:0:0:0:
464,224,162359,1,8,0:1:0:0:
164,160,162526,1,10,0:0:0:0:
372,128,162693,1,8,0:1:0:0:
372,128,163026,5,8,0:1:0:0:
240,176,163193,1,10,0:0:0:0:
392,208,163359,1,8,0:1:0:0:
228,96,163526,1,10,0:0:0:0:
168,296,163693,1,8,0:1:0:0:
168,296,163776,1,8,0:1:0:0:
168,296,163859,1,8,0:1:0:0:
304,240,164026,1,8,0:1:0:0:
144,188,164193,5,14,0:0:0:0:
228,96,164359,1,8,0:1:0:0:
304,240,164526,1,10,0:0:0:0:
304,240,164693,1,8,0:1:0:0:
144,108,164859,5,10,0:0:0:0:
220,224,165026,1,8,0:1:0:0:
328,132,165193,1,10,0:0:0:0:
328,132,165359,1,8,0:1:0:0:
132,84,165526,5,10,0:0:0:0:
80,264,165693,1,8,0:1:0:0:
304,240,165859,1,10,0:0:0:0:
220,160,166026,1,8,0:1:0:0:
168,296,166193,1,10,0:0:0:0:
380,232,166359,1,8,0:1:0:0:
152,216,166526,1,10,0:0:0:0:
264,340,166693,1,8,0:1:0:0:
264,340,166776,1,0,0:0:0:0:
264,340,166859,5,10,0:0:0:0:
352,156,167026,1,8,0:1:0:0:
264,340,167193,1,10,0:0:0:0:
280,100,167359,1,8,0:1:0:0:
348,300,167526,1,10,0:0:0:0:
280,100,167693,1,8,0:1:0:0:
264,340,167859,1,10,0:0:0:0:
388,228,168026,1,8,0:1:0:0:
172,188,168193,5,10,0:0:0:0:
388,228,168359,1,8,0:1:0:0:
96,256,168526,1,10,0:0:0:0:
280,208,168693,1,8,0:1:0:0:
96,256,168859,1,10,0:0:0:0:
236,144,169026,1,4,0:0:0:0:
236,144,169109,1,0,0:0:0:0:
236,144,169193,1,4,0:0:0:0:
264,340,169359,1,4,0:0:0:0:
304,96,171859,5,8,0:0:0:0:
264,340,172026,1,14,0:0:0:0:
