osu file format v14

[General]
AudioFilename: audio.mp3
AudioLeadIn: 0
PreviewTime: 70397
Countdown: 1
SampleSet: None
StackLeniency: 0.7
Mode: 0
LetterboxInBreaks: 0
WidescreenStoryboard: 0

[Editor]
Bookmarks: 13491,25491,43491,55491,68991,82491,94491,112491,127491,139491,151491,157491,169491,184491,196491,208491,220491,232491,244491
DistanceSpacing: 0.6
BeatDivisor: 4
GridSize: 4
TimelineZoom: 1.4

[Metadata]
Title:The fear is oneself
TitleUnicode:The fear is oneself
Artist:BUTAOTOME
ArtistUnicode:豚乙女
Creator:PandaHero
Version:Collab Lunatic
Source:東方地霊殿 ~ Subterranean Animism.
Tags:Mirash Reiji-RJ IceBeam sadkangaroo collaboration 少女さとり ~ 3rd eye Stage 4 Boss Theme Satori Komeiji touhou chireiden 東方project コンプ Ranko ランコ Reitaisai 7 Kaiten Mokuba 東方回転木馬 Team Shanghai Alice ZUN
BeatmapID:1534777
BeatmapSetID:726950

[Difficulty]
HPDrainRate:6
CircleSize:4
OverallDifficulty:8
ApproachRate:9
SliderMultiplier:1.6
SliderTickRate:1

[Events]
//Background and Video events
0,0,"gege.jpg",0,0
//Break Periods
2,152991,156891
//Storyboard Layer 0 (Background)
//Storyboard Layer 1 (Fail)
//Storyboard Layer 2 (Pass)
//Storyboard Layer 3 (Foreground)
//Storyboard Sound Samples

[TimingPoints]
1491,375,4,2,0,40,1,0
1491,-142.857142857143,4,2,0,40,0,0
7491,-111.111111111111,4,2,0,60,0,0
25491,-111.111111111111,4,2,1,60,0,0
37866,-50,4,2,1,70,0,0
38428,-111.111111111111,4,2,1,60,0,0
39366,-50,4,2,1,70,0,0
39928,-111.111111111111,4,2,1,60,0,0
40866,-50,4,2,1,70,0,0
41428,-111.111111111111,4,2,1,60,0,0
52491,-100,4,2,1,60,0,0
52866,-83.3333333333333,4,2,1,60,0,0
53241,-71.4285714285714,4,2,1,60,0,0
55491,-111.111111111111,4,2,1,50,0,0
66366,-111.111111111111,4,2,1,30,0,0
66741,-111.111111111111,4,2,1,40,0,0
67116,-111.111111111111,4,2,1,50,0,0
67491,-111.111111111111,4,2,1,60,0,0
68991,-111.111111111111,4,2,1,50,0,0
70491,-83.3333333333333,4,2,1,70,0,0
94491,-83.3333333333333,4,3,0,60,0,0
98991,-83.3333333333333,4,3,1,60,0,0
100491,-111.111111111111,4,2,1,60,0,0
112491,-111.111111111111,4,2,1,50,0,0
120178,-111.111111111111,4,2,0,50,0,0
120272,-111.111111111111,4,2,1,50,0,0
123366,-111.111111111111,4,2,0,30,0,0
123741,-111.111111111111,4,2,0,40,0,0
124116,-111.111111111111,4,2,1,50,0,0
124491,-111.111111111111,4,2,1,60,0,0
127491,-83.3333333333333,4,2,1,70,0,0
157491,-166.666666666667,4,2,1,40,0,0
181491,-166.666666666667,4,2,0,60,0,0
182991,-166.666666666667,4,2,0,50,0,0
184491,-83.3333333333333,4,2,1,70,0,0
208491,-100,4,2,1,60,0,0
232491,-111.111111111111,4,2,0,60,0,0
243741,-111.111111111111,4,2,0,70,0,0
243928,-111.111111111111,4,2,1,70,0,0
244303,-111.111111111111,4,2,0,50,0,0

[Colours]
Combo1 : 107,78,163
Combo2 : 163,78,120

[HitObjects]
32,160,1491,5,0,0:0:0:0:
32,160,1678,1,0,3:2:0:0:
136,200,2053,1,0,3:2:0:0:
136,200,2241,1,2,3:2:0:0:
136,200,2428,1,0,3:2:0:0:
85,317,2803,2,0,L|29:314,2,55.9999982910157,0|2|0,3:0|3:2|3:0,0:0:0:0:
213,262,3553,1,0,3:0:0:0:
213,262,3741,2,0,L|208:340,1,55.9999982910157,2|0,3:2|3:0,0:0:0:0:
314,251,4116,2,0,L|317:183,1,55.9999982910157,2|0,3:2|3:0,0:0:0:0:
468,264,4491,5,2,3:2:0:0:
468,264,4678,1,0,3:0:0:0:
388,343,5053,1,0,3:0:0:0:
388,343,5241,1,2,3:2:0:0:
388,343,5428,1,0,3:0:0:0:
397,219,5803,2,0,L|404:151,2,55.9999982910157,0|2|0,3:0|3:2|3:0,0:0:0:0:
301,143,6553,1,0,3:0:0:0:
301,143,6741,2,0,L|301:70,1,55.9999982910157,2|0,3:2|3:0,0:0:0:0:
408,25,7116,1,2,3:2:0:0:
403,54,7303,1,4,3:2:0:0:
219,94,7491,6,0,L|59:104,1,143.999995605469,4|2,1:0|3:2,0:0:0:0:
24,153,8053,1,0,3:0:0:0:
105,197,8241,1,2,3:2:0:0:
105,197,8428,1,2,3:2:0:0:
227,19,8803,1,0,3:0:0:0:
248,115,8991,1,2,3:2:0:0:
248,115,9178,1,2,3:2:0:0:
115,290,9553,5,0,3:0:0:0:
115,290,9741,2,0,B|72:288|72:288|29:293,1,71.9999978027344,2|0,3:2|3:0,0:0:0:0:
202,257,10116,1,2,3:2:0:0:
201,348,10303,1,0,3:0:0:0:
315,244,10491,6,0,L|328:302,1,35.9999989013672,0|2,3:0|0:0,0:0:0:0:
341,352,10678,1,0,3:0:0:0:
445,228,10866,2,0,L|435:271,1,35.9999989013672,0|2,3:0|0:0,0:0:0:0:
381,180,11053,1,0,3:0:0:0:
485,110,11241,1,2,3:2:0:0:
485,110,11428,1,2,3:2:0:0:
234,49,11803,5,0,3:0:0:0:
196,214,11991,1,2,3:2:0:0:
43,187,12178,1,2,3:2:0:0:
43,187,12553,5,0,3:0:0:0:
196,214,12741,1,0,3:0:0:0:
234,49,12928,1,0,3:0:0:0:
78,25,13116,1,0,3:0:0:0:
43,187,13303,1,4,3:0:0:0:
50,207,13397,1,8,3:0:0:0:
57,227,13491,2,0,L|43:309,1,71.9999978027344,4|0,1:0|0:0,1:0:0:0:
200,377,13866,5,0,1:0:0:0:
134,279,14053,1,4,3:0:0:0:
134,279,14147,1,8,3:0:0:0:
134,279,14241,1,4,3:0:0:0:
289,231,14428,1,0,0:0:0:0:
351,195,14616,2,0,P|404:195|439:195,1,71.9999978027344,0|4,1:0|3:0,0:0:0:0:
290,353,14991,5,4,3:0:0:0:
212,259,15178,1,0,0:0:0:0:
276,144,15366,1,0,1:0:0:0:
234,68,15553,1,4,3:0:0:0:
234,68,15647,1,8,3:0:0:0:
234,68,15741,1,4,3:0:0:0:
195,176,15928,1,2,0:0:0:0:
305,278,16116,1,0,1:0:0:0:
175,349,16303,1,4,3:0:0:0:
175,349,16397,1,8,3:0:0:0:
175,349,16491,2,0,P|172:290|167:255,1,71.9999978027344,4|0,3:0|0:0,0:0:0:0:
43,45,16866,5,0,1:0:0:0:
106,101,17053,1,4,3:0:0:0:
106,101,17147,1,8,3:0:0:0:
106,101,17241,2,0,P|164:94|188:90,1,71.9999978027344,4|0,3:0|0:0,0:0:0:0:
243,37,17616,2,0,P|296:39|339:43,1,71.9999978027344,0|4,1:0|3:0,0:0:0:0:
314,40,17897,1,8,3:0:0:0:
314,40,17991,1,4,3:0:0:0:
381,110,18178,1,0,0:0:0:0:
367,195,18366,1,0,1:0:0:0:
197,309,18553,1,4,3:0:0:0:
195,287,18647,1,8,3:0:0:0:
193,265,18741,2,0,L|201:185,1,71.9999978027344,4|0,3:0|0:0,0:0:0:0:
303,303,19116,2,0,L|295:374,1,71.9999978027344,0|0,1:0|1:0,0:0:0:0:
51,336,19491,5,4,1:0:0:0:
20,262,19678,1,0,0:0:0:0:
91,229,19866,1,0,1:0:0:0:
127,308,20053,1,4,3:0:0:0:
127,308,20147,1,8,3:0:0:0:
127,308,20241,2,0,P|128:358|127:386,1,71.9999978027344,4|0,3:0|0:0,0:0:0:0:
306,344,20616,5,0,1:0:0:0:
246,292,20803,1,4,3:0:0:0:
246,292,20897,1,8,3:0:0:0:
246,292,20991,2,0,P|246:257|248:214,1,71.9999978027344,4|0,3:0|0:0,0:0:0:0:
339,68,21366,2,0,P|374:68|417:70,1,71.9999978027344,0|4,1:0|3:0,0:0:0:0:
410,69,21647,1,8,3:0:0:0:
410,69,21741,1,4,3:0:0:0:
417,165,21928,1,0,0:0:0:0:
253,128,22116,1,0,1:0:0:0:
247,33,22303,1,8,3:0:0:0:
228,123,22491,6,0,P|229:170|232:207,1,71.9999978027344,4|0,1:0|0:0,0:0:0:0:
132,42,22866,1,0,1:0:0:0:
70,94,23053,1,4,3:0:0:0:
70,94,23147,1,8,3:0:0:0:
70,94,23241,2,0,P|69:141|66:178,1,71.9999978027344,4|0,3:0|0:0,0:0:0:0:
112,325,23616,2,0,P|159:326|196:329,1,71.9999978027344,0|4,1:0|3:0,0:0:0:0:
200,316,23897,1,8,3:0:0:0:
219,308,23991,2,0,P|266:309|303:312,1,71.9999978027344,4|0,3:0|0:0,0:0:0:0:
361,374,24366,1,0,1:0:0:0:
505,270,24553,1,4,3:0:0:0:
501,232,24647,1,4,0:0:0:0:
497,194,24741,1,0,1:0:0:0:
497,194,25491,6,2,B|447:175|447:175|366:184,1,107.999996704102,6|0,1:0|0:0,1:0:0:0:
371,177,25866,1,8,1:0:0:0:
245,41,26053,1,0,0:0:0:0:
247,62,26147,1,8,0:0:0:0:
249,83,26241,1,0,0:0:0:0:
336,61,26428,1,2,0:3:0:0:
270,174,26616,1,8,0:0:0:0:
160,113,26803,1,8,1:0:0:0:
279,330,26991,5,4,1:2:0:0:
187,321,27178,1,2,1:0:0:0:
377,284,27366,2,0,L|375:369,1,71.9999978027344,8|4,1:0|0:0,0:0:0:0:
479,192,27741,1,2,1:3:0:0:
479,213,27834,1,0,0:0:0:0:
478,234,27928,1,8,0:0:0:0:
477,255,28022,1,0,1:0:0:0:
476,276,28116,1,8,1:0:0:0:
375,197,28303,5,4,0:0:0:0:
162,247,28491,1,4,1:0:0:0:
95,191,28678,1,0,0:0:0:0:
253,95,28866,1,8,1:0:0:0:
274,178,29053,1,2,0:0:0:0:
126,61,29241,2,0,B|60:70|60:70|6:56,2,107.999996704102,8|2|8,0:0|0:3|1:0,0:0:0:0:
353,27,29991,5,4,1:2:0:0:
353,27,30178,2,0,L|348:120,1,71.9999978027344,2|8,0:0|1:0,0:0:0:0:
498,176,30553,1,0,1:0:0:0:
476,171,30647,1,0,0:0:0:0:
457,181,30741,1,2,1:3:0:0:
435,177,30834,1,0,1:0:0:0:
415,168,30928,1,0,1:0:0:0:
254,182,31116,1,0,1:0:0:0:
273,173,31209,1,0,1:0:0:0:
294,170,31303,1,2,1:3:0:0:
158,255,31491,6,2,B|123:245|123:245|32:257,1,107.999996704102,6|0,1:0|0:0,1:0:0:0:
36,269,31866,1,8,1:0:0:0:
121,359,32053,1,0,0:0:0:0:
142,353,32147,1,8,0:0:0:0:
163,349,32241,2,0,B|211:338|211:338|292:345,1,107.999996704102,2|0,0:3|0:0,0:0:0:0:
288,353,32616,1,8,0:0:0:0:
394,366,32803,1,8,1:0:0:0:
482,304,32991,1,4,1:2:0:0:
317,268,33178,1,2,1:0:0:0:
303,160,33366,1,8,1:0:0:0:
402,201,33553,1,4,0:0:0:0:
218,230,33741,5,2,1:3:0:0:
196,231,33834,1,0,0:0:0:0:
174,232,33928,1,8,0:0:0:0:
152,232,34022,1,0,1:0:0:0:
130,234,34116,1,8,1:0:0:0:
14,343,34303,5,4,0:0:0:0:
4,235,34491,2,2,L|14:144,1,71.9999978027344,6|0,1:0|0:0,1:0:0:0:
174,58,34866,2,2,L|167:129,1,71.9999978027344,10|0,1:0|0:0,1:0:0:0:
147,135,35147,1,8,0:0:0:0:
126,142,35241,1,0,0:0:0:0:
21,30,35428,1,8,0:0:0:0:
269,89,35616,2,0,L|266:135,1,35.9999989013672,2|0,0:3|0:0,0:0:0:0:
285,89,35803,2,0,L|282:135,1,35.9999989013672,8|0,1:0|0:0,0:0:0:0:
301,92,35991,5,4,1:0:0:0:
333,194,36178,1,4,0:0:0:0:
483,203,36366,1,0,1:0:0:0:
501,96,36553,1,2,0:0:0:0:
272,264,36741,1,8,1:0:0:0:
318,361,36928,1,0,1:0:0:0:
411,159,37116,5,2,1:0:0:0:
404,131,37209,1,0,0:0:0:0:
418,105,37303,1,2,1:0:0:0:
410,76,37397,1,2,1:0:0:0:
412,47,37491,5,4,1:0:0:0:
412,47,37678,1,4,1:0:0:0:
412,47,37866,2,2,B|272:-35|254:189|79:75,1,320,2|2,3:1|0:1,1:0:0:0:
117,96,38428,6,0,L|192:137,1,71.9999978027344,12|0,1:0|0:0,0:0:0:0:
72,177,38803,2,0,L|138:211,1,71.9999978027344,12|0,1:0|0:0,0:0:0:0:
32,309,39178,1,12,1:0:0:0:
98,346,39366,2,2,B|238:428|256:204|431:318,1,320,2|2,3:1|0:1,1:0:0:0:
392,296,39928,6,0,L|399:377,1,71.9999978027344,12|0,1:0|0:0,0:0:0:0:
473,269,40303,2,0,L|479:342,1,71.9999978027344,12|0,1:0|0:0,0:0:0:0:
353,202,40678,1,12,1:0:0:0:
353,202,40866,2,2,B|213:120|195:344|20:230,1,320,2|2,3:1|0:1,1:0:0:0:
58,251,41428,6,0,L|58:171,1,71.9999978027344,8|0,1:0|0:0,0:0:0:0:
144,96,41803,2,0,L|144:167,1,71.9999978027344,12|0,1:0|0:0,0:0:0:0:
306,105,42178,2,0,L|219:108,1,71.9999978027344,8|8,1:0|1:0,0:0:0:0:
377,36,42553,1,2,0:0:0:0:
413,255,42741,1,0,1:0:0:0:
481,97,42928,1,0,1:0:0:0:
293,223,43116,1,4,3:0:0:0:
318,209,43209,1,8,3:0:0:0:
343,194,43303,1,4,3:0:0:0:
294,341,43491,6,0,P|244:337|146:339,1,143.999995605469,4|8,1:0|1:3,0:0:0:0:
62,343,44053,1,0,0:0:0:0:
62,343,44147,1,2,0:3:0:0:
62,343,44241,2,0,P|62:285|61:261,1,71.9999978027344,0|2,0:0|0:3,0:0:0:0:
151,184,44616,2,0,P|151:242|152:266,1,71.9999978027344,8|0,1:3|0:0,0:0:0:0:
57,183,44991,2,0,P|59:115|60:83,1,71.9999978027344,2|0,0:3|0:0,0:0:0:0:
153,35,45366,2,0,P|153:93|154:117,1,71.9999978027344,8|0,1:3|0:0,0:0:0:0:
217,167,45741,1,2,0:3:0:0:
288,171,45928,1,0,0:0:0:0:
360,167,46116,1,8,1:3:0:0:
440,176,46303,1,0,1:0:0:0:
440,176,46397,1,4,0:3:0:0:
440,176,46491,2,0,P|430:231|422:273,1,71.9999978027344,6|0,1:3|0:0,0:0:0:0:
231,361,46866,5,8,1:3:0:0:
259,276,47053,1,0,0:0:0:0:
226,348,47241,2,0,P|281:345|322:343,1,71.9999978027344,2|0,0:3|0:0,0:0:0:0:
181,276,47616,2,0,P|126:273|85:271,1,71.9999978027344,8|0,1:3|0:0,0:0:0:0:
11,182,47991,5,2,3:3:0:0:
8,146,48084,1,0,0:0:0:0:
12,110,48178,1,0,0:0:0:0:
12,75,48272,1,2,0:3:0:0:
12,75,48366,2,0,L|97:81,1,71.9999978027344,8|2,1:3|0:3,0:0:0:0:
104,70,48647,1,0,0:0:0:0:
125,60,48741,2,0,L|200:63,1,71.9999978027344,8|0,0:0|0:0,0:0:0:0:
218,52,49022,1,0,0:0:0:0:
240,42,49116,1,8,1:3:0:0:
320,64,49303,1,4,0:0:0:0:
467,25,49491,6,0,P|458:86|447:182,1,143.999995605469,4|8,1:0|1:3,0:0:0:0:
333,227,50053,1,0,0:0:0:0:
333,227,50147,1,0,0:3:0:0:
333,227,50241,2,0,P|281:217|245:210,1,71.9999978027344,2|0,0:3|0:0,0:0:0:0:
383,301,50616,2,0,P|434:293|463:290,1,71.9999978027344,8|0,1:3|0:0,0:0:0:0:
295,324,50991,5,2,0:3:0:0:
221,298,51178,1,0,0:0:0:0:
147,318,51366,1,8,1:3:0:0:
96,384,51553,1,8,0:0:0:0:
157,341,51741,1,2,0:3:0:0:
55,326,51928,1,0,1:0:0:0:
55,326,52022,1,0,0:0:0:0:
55,326,52116,1,8,1:3:0:0:
116,276,52303,1,4,0:0:0:0:
120,199,52491,6,2,P|120:147|115:95,1,80,6|0,1:0|0:0,1:0:0:0:
211,205,52866,6,2,P|211:153|201:76,1,95.9999970703126,2|0,1:0|0:0,1:0:0:0:
305,206,53241,6,2,P|305:154|292:68,1,111.999996582031,6|0,1:0|0:0,1:0:0:0:
434,51,53616,5,8,1:3:0:0:
419,104,53709,1,2,0:0:0:0:
431,158,53803,1,8,1:3:0:0:
420,213,53897,1,2,0:0:0:0:
420,213,53991,2,0,P|424:279|423:337,1,111.999996582031,4|0,1:0|0:0,0:0:0:0:
132,345,54366,1,8,1:3:0:0:
198,291,54553,1,8,0:0:0:0:
198,291,54647,1,0,0:0:0:0:
198,291,54741,2,0,P|194:225|195:167,1,111.999996582031,2|0,0:3|0:0,0:0:0:0:
50,66,55116,1,0,1:3:0:0:
48,99,55209,1,0,1:0:0:0:
48,132,55303,1,8,1:0:0:0:
45,165,55397,1,4,1:2:0:0:
43,198,55491,6,0,L|177:195,1,107.999996704102,4|0,1:0|0:0,0:0:0:0:
171,190,55866,1,4,1:3:0:0:
289,38,56053,2,0,B|219:53|219:53|123:30,1,143.999995605469,2|0,0:0|1:0,0:0:0:0:
254,132,56616,2,0,L|328:118,1,71.9999978027344,8|0,1:0|0:0,0:0:0:0:
465,38,56991,1,4,1:2:0:0:
465,38,57178,2,0,B|487:89|487:89|481:206,2,143.999995605469,8|0|0,1:0|1:0|1:0,0:0:0:0:
382,176,58116,1,8,1:0:0:0:
400,260,58303,1,2,0:0:0:0:
235,353,58491,6,0,L|236:195,1,143.999995605469,4|4,1:0|0:3,0:0:0:0:
26,303,59053,2,0,B|95:282|95:282|170:321,1,143.999995605469,2|8,0:0|1:0,0:0:0:0:
71,195,59616,2,0,L|-3:217,1,71.9999978027344,8|0,1:0|0:0,0:0:0:0:
116,116,59991,1,4,1:2:0:0:
201,78,60178,2,0,B|246:66|246:66|313:88,1,107.999996704102,8|0,1:0|2:0,0:0:0:0:
341,63,60553,2,0,P|334:128|366:221,1,143.999995605469,0|8,1:0|1:0,0:0:0:0:
440,173,61116,1,8,1:0:0:0:
440,173,61303,1,8,1:0:0:0:
344,353,61491,6,0,B|305:280|205:280|161:356,2,215.999993408203,4|2|0,1:0|0:0|1:0,0:0:0:0:
402,279,62803,1,8,1:0:0:0:
294,214,62991,2,0,P|255:217|199:213,1,71.9999978027344,4|4,1:2|1:3,0:0:0:0:
136,181,63366,1,2,0:0:0:0:
6,219,63553,2,0,B|14:251|14:251|6:320,2,71.9999978027344,2|2|2,0:0|0:0|0:0,0:0:0:0:
55,139,64116,1,8,1:0:0:0:
92,257,64303,1,4,0:0:0:0:
40,10,64491,6,0,P|132:65|245:37,2,215.999993408203,4|2|0,1:0|0:0|1:0,0:0:0:0:
55,139,65803,1,8,1:0:0:0:
170,168,65991,1,4,1:0:0:0:
170,168,66366,5,0,3:0:0:0:
170,168,66553,1,0,3:0:0:0:
170,168,66741,1,0,1:0:0:0:
170,168,66928,1,0,3:0:0:0:
170,168,67116,1,0,1:0:0:0:
170,168,67303,1,0,1:0:0:0:
249,171,67491,5,8,1:0:0:0:
327,176,67678,1,0,3:0:0:0:
406,178,67866,1,8,1:0:0:0:
484,182,68053,1,0,1:0:0:0:
411,213,68241,5,8,1:0:0:0:
372,218,68334,1,0,1:0:0:0:
332,224,68428,1,8,1:0:0:0:
292,230,68522,1,0,1:0:0:0:
252,234,68616,1,4,1:2:0:0:
238,248,68991,5,2,3:2:0:0:
299,203,69178,1,0,3:0:0:0:
362,251,69366,1,0,3:0:0:0:
420,195,69553,1,2,3:2:0:0:
382,90,69741,5,2,3:2:0:0:
308,113,69928,1,0,3:0:0:0:
216,62,70116,1,2,3:2:0:0:
146,89,70303,1,0,3:0:0:0:
46,39,70491,6,2,P|53:147|54:234,1,191.999994140625,6|8,1:0|1:0,1:0:0:0:
106,294,71053,1,0,0:0:0:0:
303,324,71241,2,0,P|301:276|295:224,1,95.9999970703126,2|0,0:3|0:0,0:0:0:0:
168,127,71616,2,2,P|162:174|160:222,1,95.9999970703126,10|0,1:0|0:0,1:0:0:0:
270,140,71991,6,2,B|390:131|344:187|472:170,1,191.999994140625,4|8,1:2|1:0,1:0:0:0:
344,30,72553,1,0,3:0:0:0:
325,39,72647,1,2,3:3:0:0:
235,70,72834,1,0,3:0:0:0:
214,61,72928,1,2,3:3:0:0:
126,33,73116,1,8,1:0:0:0:
25,91,73303,5,0,0:0:0:0:
25,91,73397,1,0,0:0:0:0:
25,91,73491,2,2,B|1:146|1:146|18:236,1,143.999995605469,6|0,1:0|0:0,1:0:0:0:
15,244,73866,2,0,L|118:227,1,95.9999970703126,8|8,1:0|0:0,0:0:0:0:
156,323,74241,2,0,L|61:338,1,95.9999970703126,2|0,0:3|0:0,0:0:0:0:
186,215,74616,1,8,1:0:0:0:
272,251,74803,5,0,0:0:0:0:
267,279,74897,1,0,0:0:0:0:
267,309,74991,1,2,1:0:0:0:
267,309,75084,2,2,L|361:324,1,95.9999970703126,0|0,0:0|0:0,1:0:0:0:
380,311,75366,1,8,1:0:0:0:
433,232,75553,2,2,P|430:173|437:35,1,191.999994140625,2|2,1:0|1:0,1:0:0:0:
353,80,76116,1,8,1:0:0:0:
353,80,76209,1,0,3:0:0:0:
353,80,76303,1,4,3:2:0:0:
166,156,76491,6,2,P|166:217|167:273,1,95.9999970703126,6|0,1:0|0:0,1:0:0:0:
147,321,76866,1,8,1:0:0:0:
242,363,77053,1,0,3:0:0:0:
229,365,77147,1,2,3:0:0:0:
265,274,77334,1,0,3:0:0:0:
278,274,77428,1,2,3:0:0:0:
378,324,77616,2,0,P|364:263|366:177,1,143.999995605469,8|0,1:0|0:0,0:0:0:0:
392,186,77991,6,2,P|404:132|407:77,1,95.9999970703126,6|0,1:0|0:0,1:0:0:0:
345,35,78366,1,8,1:0:0:0:
281,90,78553,1,8,0:0:0:0:
252,86,78647,1,0,0:0:0:0:
223,82,78741,1,2,0:3:0:0:
71,143,78928,1,0,0:0:0:0:
146,24,79116,2,0,L|142:152,1,95.9999970703126,8|0,1:0|1:0,0:0:0:0:
159,155,79397,1,0,1:0:0:0:
177,189,79491,2,2,L|181:317,1,95.9999970703126,6|0,1:0|0:0,1:0:0:0:
338,377,79866,5,8,1:0:0:0:
302,312,80053,2,2,P|254:327|206:359,2,95.9999970703126,0|2|0,0:0|0:3|1:0,1:0:0:0:
381,311,80616,2,0,P|414:268|432:203,1,95.9999970703126,8|4,1:0|0:0,0:0:0:0:
458,241,80897,5,0,1:0:0:0:
456,212,80991,1,4,1:0:0:0:
445,185,81084,1,0,1:0:0:0:
430,160,81178,1,0,1:0:0:0:
469,95,81366,1,8,1:0:0:0:
409,55,81553,1,8,1:0:0:0:
382,67,81647,1,0,0:0:0:0:
353,72,81741,1,4,0:0:0:0:
325,66,81834,1,0,0:0:0:0:
296,59,81928,2,0,P|236:59|192:72,1,95.9999970703126,0|8,1:0|1:0,0:0:0:0:
173,73,82209,1,0,1:0:0:0:
167,101,82303,1,4,1:3:0:0:
29,180,82491,6,2,P|99:192|220:255,1,191.999994140625,6|8,1:0|1:0,1:0:0:0:
180,337,83053,1,8,0:0:0:0:
180,337,83147,1,0,0:0:0:0:
180,337,83241,1,2,0:3:0:0:
294,217,83428,1,0,1:0:0:0:
371,274,83616,2,0,L|356:380,1,95.9999970703126,8|0,1:0|0:0,0:0:0:0:
403,356,83897,1,0,0:0:0:0:
449,343,83991,6,2,P|459:257|490:144,1,191.999994140625,4|8,1:2|1:0,1:0:0:0:
340,31,84553,1,0,3:0:0:0:
333,59,84647,1,2,3:0:0:0:
216,114,84834,1,0,3:0:0:0:
228,139,84928,1,2,3:0:0:0:
390,175,85116,1,8,1:0:0:0:
412,81,85303,1,0,0:0:0:0:
284,249,85491,6,2,B|179:208|191:301|80:255,1,191.999994140625,6|8,1:0|1:0,1:0:0:0:
6,228,86053,1,8,0:0:0:0:
62,100,86241,2,0,P|109:97|163:110,1,95.9999970703126,2|0,0:3|0:0,0:0:0:0:
93,179,86616,1,8,1:0:0:0:
238,26,86803,6,2,P|243:104|336:207,1,191.999994140625,2|0,1:0|0:0,1:0:0:0:
393,145,87366,1,8,1:0:0:0:
478,102,87553,1,0,3:0:0:0:
478,102,87647,1,2,3:0:0:0:
497,233,87834,1,0,3:0:0:0:
497,233,87928,1,2,3:0:0:0:
410,275,88116,1,8,1:0:0:0:
323,94,88303,1,4,1:2:0:0:
266,336,88491,6,2,B|331:333|331:333|465:375,1,191.999994140625,6|8,1:0|1:0,1:0:0:0:
149,192,89053,2,2,B|186:242|186:242|170:388,1,191.999994140625,2|0,1:0|0:0,1:0:0:0:
267,253,89616,2,2,L|267:150,1,95.9999970703126,10|0,1:0|0:0,1:0:0:0:
161,35,89991,1,6,1:0:0:0:
133,60,90084,1,0,1:0:0:0:
257,64,90272,1,0,1:0:0:0:
289,42,90366,1,10,1:0:0:0:
443,77,90553,2,0,P|406:138|443:278,1,191.999994140625,2|0,1:0|0:0,0:0:0:0:
497,225,91116,1,8,1:0:0:0:
360,353,91397,5,0,1:0:0:0:
360,353,91491,2,2,B|289:308|289:308|168:331,1,191.999994140625,6|8,1:0|1:0,1:0:0:0:
64,364,92053,2,0,P|70:311|62:239,1,95.9999970703126,8|2,0:0|0:3,0:0:0:0:
58,231,92334,1,0,1:0:0:0:
43,195,92428,1,0,1:0:0:0:
192,130,92616,1,8,1:0:0:0:
227,219,92803,1,0,0:0:0:0:
147,41,92991,6,2,L|51:40,1,95.9999970703126,6|0,1:0|0:0,1:0:0:0:
375,143,93366,2,2,L|250:149,1,95.9999970703126,6|0,1:0|0:0,1:0:0:0:
131,218,93741,2,2,L|227:219,1,95.9999970703126,6|0,1:0|0:0,1:0:0:0:
455,321,94116,1,0,1:0:0:0:
407,323,94209,1,0,1:0:0:0:
359,325,94303,1,4,1:3:0:0:
223,363,94491,5,4,2:1:0:0:
7,222,94866,1,0,3:0:0:0:
30,228,94959,1,8,3:0:0:0:
105,202,95147,1,2,3:0:0:0:
171,246,95334,1,2,3:0:0:0:
261,191,95522,1,0,3:0:0:0:
284,203,95616,1,4,3:0:0:0:
506,202,95991,5,4,3:1:0:0:
506,202,96272,1,0,3:0:0:0:
483,208,96366,1,2,3:0:0:0:
460,214,96459,1,8,3:0:0:0:
357,183,96647,1,2,3:0:0:0:
291,227,96834,1,2,3:0:0:0:
150,174,97022,1,0,3:0:0:0:
127,186,97116,1,4,3:2:0:0:
258,384,97491,5,4,3:1:0:0:
284,224,97866,6,0,P|274:167|269:99,1,95.9999970703126,2|2,3:1|3:1,0:0:0:0:
460,260,98241,5,2,0:1:0:0:
460,260,98334,2,2,P|443:312|426:390,1,95.9999970703126,2|0,0:1|0:0,1:0:0:0:
386,217,98616,6,2,P|362:263|244:301,1,143.999995605469,2|0,0:1|0:0,1:0:0:0:
221,261,98991,5,0,0:0:0:0:
201,287,99084,1,8,0:0:0:0:
101,119,99272,5,0,0:0:0:0:
134,123,99366,1,8,0:0:0:0:
51,293,99553,5,0,0:0:0:0:
38,262,99647,1,8,0:0:0:0:
125,217,99834,5,8,0:0:0:0:
125,217,99928,1,0,0:0:0:0:
126,361,100116,1,8,0:0:0:0:
503,197,100491,6,0,B|437:177|430:247|357:227,1,143.999995605469,4|0,3:1|1:0,0:0:0:0:
214,157,101053,1,2,0:0:0:0:
229,148,101147,1,0,0:0:0:0:
244,139,101241,1,0,3:0:0:0:
285,69,101428,1,0,0:0:0:0:
285,207,101616,2,0,P|289:258|291:301,1,71.9999978027344,0|0,1:0|0:0,0:0:0:0:
145,365,101991,5,0,3:0:0:0:
191,281,102178,1,0,0:0:0:0:
242,359,102366,1,0,1:0:0:0:
100,282,102553,1,0,0:0:0:0:
90,201,102741,2,0,P|94:147|93:96,2,71.9999978027344,0|0|0,3:0|0:0|1:0,0:0:0:0:
145,11,103303,5,4,0:0:0:0:
211,40,103491,2,0,P|209:90|209:125,1,71.9999978027344,4|0,3:1|0:0,0:0:0:0:
364,241,103866,2,0,P|363:205|361:169,1,71.9999978027344,0|0,1:0|0:0,0:0:0:0:
260,194,104241,2,0,P|211:192|134:147,2,107.999996704102,0|2|0,3:0|0:3|3:0,0:0:0:0:
353,74,104991,6,0,P|423:79|499:97,1,143.999995605469,4|0,3:2|1:0,0:0:0:0:
444,308,105553,1,2,0:0:0:0:
427,301,105647,1,0,0:0:0:0:
409,294,105741,1,0,3:0:0:0:
263,329,105928,1,2,0:0:0:0:
245,333,106022,1,0,0:0:0:0:
227,338,106116,1,0,1:0:0:0:
158,297,106303,1,4,0:0:0:0:
24,346,106491,6,0,P|29:285|29:183,1,143.999995605469,4|0,3:1|1:0,0:0:0:0:
106,81,107053,1,2,0:0:0:0:
106,81,107147,1,0,0:0:0:0:
106,81,107241,1,0,3:0:0:0:
87,152,107428,1,0,0:0:0:0:
178,102,107616,1,0,1:0:0:0:
161,175,107803,1,0,0:0:0:0:
178,102,107991,6,0,P|236:98|271:99,1,71.9999978027344,4|0,1:2|0:0,0:0:0:0:
395,173,108366,1,0,1:0:0:0:
326,133,108553,2,0,P|305:175|289:218,1,71.9999978027344,2|0,0:0|3:0,0:0:0:0:
222,248,108928,2,0,P|196:208|166:173,1,71.9999978027344,0|0,0:0|1:0,0:0:0:0:
303,373,109303,5,4,0:0:0:0:
383,304,109491,1,4,3:1:0:0:
309,353,109678,1,0,0:0:0:0:
460,338,109866,2,0,P|467:273|475:237,1,71.9999978027344,0|2,1:0|0:0,0:0:0:0:
484,248,110147,1,0,0:0:0:0:
503,232,110241,2,0,P|496:167|488:131,1,71.9999978027344,0|0,3:0|1:0,0:0:0:0:
261,53,110616,5,0,1:0:0:0:
226,62,110709,1,0,1:0:0:0:
191,71,110803,1,0,1:0:0:0:
156,80,110897,1,0,0:0:0:0:
121,89,110991,1,0,3:0:0:0:
60,267,111178,1,0,0:0:0:0:
95,275,111272,1,0,3:0:0:0:
130,283,111366,1,0,1:0:0:0:
304,290,111553,1,0,3:0:0:0:
294,272,111647,1,2,3:0:0:0:
230,199,111834,1,0,3:0:0:0:
240,181,111928,1,2,3:0:0:0:
381,48,112116,5,0,1:0:0:0:
377,83,112209,1,0,1:0:0:0:
373,118,112303,1,0,1:0:0:0:
369,153,112397,1,0,1:0:0:0:
366,188,112491,6,0,B|431:175|431:175|515:191,1,143.999995605469,4|4,1:0|1:3,0:0:0:0:
285,244,113053,2,0,P|276:296|354:368,1,143.999995605469,2|0,0:0|0:0,0:0:0:0:
181,282,113616,2,0,P|184:325|180:361,1,71.9999978027344,8|0,1:0|0:0,0:0:0:0:
55,356,113991,1,4,1:2:0:0:
39,271,114178,1,4,1:3:0:0:
22,185,114366,1,2,0:0:0:0:
145,190,114553,2,0,B|211:175|211:175|255:108,1,143.999995605469,0|0,1:0|1:0,0:0:0:0:
201,40,115116,1,8,1:0:0:0:
118,63,115303,1,2,0:0:0:0:
296,34,115491,6,0,B|353:65|353:65|373:166,1,143.999995605469,4|4,1:0|1:3,0:0:0:0:
470,291,116053,2,0,P|464:230|486:150,1,143.999995605469,2|0,0:0|0:0,0:0:0:0:
337,331,116616,2,0,P|336:290|322:240,1,71.9999978027344,8|0,1:0|0:0,0:0:0:0:
263,203,116991,1,4,1:2:0:0:
263,203,117178,2,0,B|183:176|196:240|109:215,1,143.999995605469,4|2,1:3|0:0,0:0:0:0:
12,249,117741,2,0,P|45:268|77:320,1,71.9999978027344,0|0,0:0|1:0,0:0:0:0:
121,360,118116,1,8,1:0:0:0:
187,304,118303,1,8,1:0:0:0:
328,242,118491,6,2,P|281:315|297:384,1,143.999995605469,6|0,1:0|0:0,1:0:0:0:
466,291,119053,1,4,3:0:0:0:
466,291,119147,1,8,3:0:0:0:
466,291,119241,2,0,P|469:332|466:387,1,71.9999978027344,4|2,3:0|0:0,0:0:0:0:
377,319,119616,1,0,1:0:0:0:
403,192,119803,1,8,1:0:0:0:
185,141,119991,1,4,3:0:0:0:
189,262,120178,1,8,3:0:0:0:
297,212,120366,5,2,0:3:0:0:
307,87,120553,1,2,0:0:0:0:
91,42,120741,1,2,0:3:0:0:
95,168,120928,1,4,0:0:0:0:
185,141,121116,1,8,1:0:0:0:
193,55,121303,1,4,3:0:0:0:
193,55,121397,1,8,3:0:0:0:
193,55,121491,6,2,B|230:66|265:77|265:77|354:68,1,143.999995605469,4|4,1:0|1:3,1:0:0:0:
471,15,122053,2,0,B|448:85|448:85|465:176,1,143.999995605469,2|0,0:0|0:0,0:0:0:0:
340,251,122616,1,2,0:0:0:0:
336,164,122803,1,8,1:0:0:0:
401,346,122991,2,0,P|329:338|259:351,1,143.999995605469,4|4,1:0|0:3,0:0:0:0:
173,364,123553,1,8,0:3:0:0:
58,273,123741,2,0,L|162:269,1,71.9999978027344,4|4,3:0|3:0,0:0:0:0:
226,158,124116,2,0,L|129:159,1,71.9999978027344,8|8,3:0|3:0,0:0:0:0:
65,122,124491,5,4,3:0:0:0:
65,122,124678,1,8,1:0:0:0:
65,122,124866,1,8,1:0:0:0:
65,122,125053,1,8,1:0:0:0:
65,122,125241,5,10,1:0:0:0:
65,122,125334,1,0,1:0:0:0:
65,122,125428,1,10,1:0:0:0:
65,122,125522,1,0,1:0:0:0:
65,122,125616,1,14,1:0:0:0:
65,122,127491,6,2,B|57:193|57:193|21:227|21:227|11:298,1,191.999994140625,6|8,1:1|1:0,1:0:0:0:
58,358,128053,1,0,0:0:0:0:
208,261,128241,2,0,P|266:266|313:273,1,95.9999970703126,2|0,0:3|0:0,0:0:0:0:
421,323,128616,2,0,P|433:265|453:197,1,95.9999970703126,8|0,1:0|0:0,0:0:0:0:
442,229,128897,1,0,0:0:0:0:
442,229,128991,1,4,1:2:0:0:
442,229,129084,2,2,P|438:177|433:128,1,95.9999970703126,0|0,0:0|0:0,1:0:0:0:
438,113,129366,2,2,P|387:107|337:105,1,95.9999970703126,10|0,1:0|0:0,1:0:0:0:
320,82,129647,1,0,0:0:0:0:
320,82,129741,2,0,P|272:84|224:89,1,95.9999970703126,2|0,0:3|0:0,0:0:0:0:
156,56,130116,1,8,1:0:0:0:
20,147,130303,5,0,1:0:0:0:
20,147,130397,1,0,0:0:0:0:
20,147,130491,2,2,B|7:193|7:193|28:239,1,95.9999970703126,6|0,1:0|0:0,1:0:0:0:
182,276,130866,2,0,B|195:230|195:230|174:184,1,95.9999970703126,8|8,1:0|0:0,0:0:0:0:
174,186,131147,1,0,0:0:0:0:
174,186,131241,1,2,0:3:0:0:
101,213,131428,1,0,1:0:0:0:
269,298,131616,1,8,1:0:0:0:
357,258,131803,1,0,0:0:0:0:
357,258,131897,1,2,1:0:0:0:
357,258,131991,1,4,1:2:0:0:
411,116,132178,5,2,1:0:0:0:
308,183,132366,1,8,1:0:0:0:
309,72,132553,1,2,1:0:0:0:
309,72,132647,1,0,0:0:0:0:
309,72,132741,1,2,0:3:0:0:
449,141,132928,2,0,L|328:126,1,95.9999970703126,0|8,0:0|1:0,0:0:0:0:
196,67,133303,5,4,0:0:0:0:
132,115,133491,2,2,B|145:219|61:189|84:306,1,191.999994140625,6|8,1:0|1:0,1:0:0:0:
161,356,134053,1,0,3:0:0:0:
181,348,134147,1,2,3:3:0:0:
259,327,134334,1,0,3:0:0:0:
279,335,134428,1,2,3:3:0:0:
402,375,134616,6,0,P|405:323|408:264,1,95.9999970703126,8|0,1:0|0:0,0:0:0:0:
407,279,134897,1,0,1:0:0:0:
407,279,134991,1,4,1:2:0:0:
407,279,135084,2,2,P|404:227|401:168,1,95.9999970703126,0|0,0:0|0:0,1:0:0:0:
387,172,135366,1,10,1:0:0:0:
324,100,135553,1,8,0:0:0:0:
330,84,135647,1,0,0:0:0:0:
336,68,135741,1,2,0:3:0:0:
424,40,135928,1,0,0:0:0:0:
257,17,136116,2,0,P|174:20|131:17,1,95.9999970703126,8|0,1:0|0:0,0:0:0:0:
116,0,136397,1,0,1:0:0:0:
101,7,136491,6,2,P|90:60|76:198,1,191.999994140625,6|8,1:0|1:0,1:0:0:0:
157,318,137053,1,0,1:0:0:0:
157,318,137147,1,0,0:0:0:0:
157,318,137241,2,0,P|167:249|171:179,1,95.9999970703126,2|0,0:3|0:0,0:0:0:0:
242,166,137616,6,0,P|298:165|351:168,1,95.9999970703126,8|0,1:0|0:0,0:0:0:0:
338,167,137897,1,0,0:0:0:0:
338,167,137991,1,4,1:2:0:0:
338,167,138084,1,0,1:0:0:0:
419,262,138272,1,0,1:0:0:0:
419,262,138366,1,0,1:0:0:0:
451,186,138553,2,0,P|449:127|450:82,1,95.9999970703126,0|0,1:0|0:0,0:0:0:0:
160,36,138928,1,0,1:0:0:0:
161,64,139022,1,0,0:0:0:0:
159,92,139116,1,8,1:0:0:0:
161,120,139209,1,0,1:0:0:0:
232,217,139491,6,2,B|135:175|135:263|43:226,1,191.999994140625,6|8,1:0|1:0,1:0:0:0:
113,334,140053,1,8,0:0:0:0:
113,334,140147,1,0,0:0:0:0:
113,334,140241,2,2,L|236:331,1,95.9999970703126,2|2,0:3|0:1,1:0:0:0:
233,347,140522,1,0,0:0:0:0:
257,361,140616,2,0,L|360:360,1,95.9999970703126,10|0,1:0|0:0,0:0:0:0:
490,182,140991,5,4,1:2:0:0:
469,201,141084,2,2,L|469:307,1,95.9999970703126,2|0,1:0|0:0,1:0:0:0:
447,316,141366,1,10,1:0:0:0:
312,238,141553,1,8,0:0:0:0:
312,238,141647,1,0,0:0:0:0:
312,238,141741,2,0,B|297:199|297:199|303:124,1,95.9999970703126,2|0,0:3|0:0,0:0:0:0:
405,52,142116,5,10,1:0:0:0:
376,55,142209,1,0,0:0:0:0:
347,59,142303,1,2,1:0:0:0:
318,64,142397,1,0,0:0:0:0:
290,71,142491,2,2,B|226:73|226:73|146:25,1,143.999995605469,6|0,1:0|0:0,1:0:0:0:
128,33,142866,2,0,B|137:84|137:84|120:137,1,95.9999970703126,10|0,1:0|0:0,0:0:0:0:
59,194,143241,1,2,0:3:0:0:
17,112,143428,1,0,1:0:0:0:
146,205,143616,1,10,1:0:0:0:
147,295,143803,5,0,1:0:0:0:
147,295,143897,2,2,P|86:279|-1:288,1,143.999995605469,2|0,1:0|1:0,1:0:0:0:
71,365,144366,1,10,1:0:0:0:
227,366,144553,1,0,3:0:0:0:
232,337,144647,1,2,3:0:0:0:
313,256,144834,1,0,3:0:0:0:
309,284,144928,1,2,3:0:0:0:
431,330,145116,1,8,1:0:0:0:
388,108,145303,5,0,1:0:0:0:
365,126,145397,1,0,1:0:0:0:
340,140,145491,2,2,P|262:150|158:76,1,191.999994140625,6|8,1:0|1:0,1:0:0:0:
130,31,146053,1,0,0:0:0:0:
35,74,146241,2,0,P|53:113|55:173,1,95.9999970703126,2|0,0:3|0:0,0:0:0:0:
16,278,146616,2,0,B|86:260|173:257,1,143.999995605469,10|0,1:0|0:0,0:0:0:0:
211,206,146991,6,2,P|200:299|299:348,1,191.999994140625,6|8,1:0|1:0,1:0:0:0:
374,351,147553,1,8,0:0:0:0:
374,351,147647,1,0,0:0:0:0:
374,351,147741,2,0,P|371:289|362:240,1,95.9999970703126,2|0,0:3|0:0,0:0:0:0:
474,164,148116,2,0,P|474:223|485:294,1,95.9999970703126,8|0,1:0|0:0,0:0:0:0:
484,287,148397,5,2,1:0:0:0:
484,287,148491,2,2,B|413:254|413:254|359:257|359:257|276:215,1,191.999994140625,6|8,1:0|1:0,1:0:0:0:
202,191,149053,2,0,P|208:242|204:296,2,95.9999970703126,0|2|0,0:0|0:3|0:0,0:0:0:0:
46,157,149616,2,2,L|47:303,1,143.999995605469,8|0,1:0|1:0,1:0:0:0:
43,329,149991,6,2,L|157:329,1,95.9999970703126,6|0,1:0|0:0,1:0:0:0:
288,160,150366,2,2,L|169:165,1,95.9999970703126,6|0,1:0|0:0,1:0:0:0:
415,38,150741,2,2,L|417:163,1,95.9999970703126,6|0,1:0|0:0,1:0:0:0:
496,254,151116,1,8,1:0:0:0:
502,226,151209,1,8,1:0:0:0:
365,302,151397,1,0,1:0:0:0:
371,330,151491,1,4,1:0:0:0:
498,201,157491,5,4,0:0:0:0:
498,201,157866,1,2,0:0:0:0:
453,182,158053,1,0,3:0:0:0:
407,196,158241,1,2,3:0:0:0:
312,178,158616,2,0,P|316:217|317:243,1,47.9999985351563,2|0,0:0|3:0,0:0:0:0:
246,277,158991,1,2,0:0:0:0:
246,277,159116,2,0,L|242:209,1,63.9999980468751,2|0,0:0|0:0,0:0:0:0:
211,175,159553,1,0,0:0:0:0:
179,138,159741,2,0,P|174:75|170:42,1,95.9999970703126,2|4,3:0|3:2,0:0:0:0:
77,178,160491,6,0,P|73:224|73:281,1,95.9999970703126,4|2,0:3|0:0,0:0:0:0:
114,336,161053,1,0,0:0:0:0:
204,346,161241,1,2,3:0:0:0:
204,346,161616,5,2,0:0:0:0:
249,331,161803,1,0,3:0:0:0:
294,347,161991,2,0,P|307:303|314:288,1,47.9999985351563,2|0,0:0|0:0,0:0:0:0:
339,265,162366,2,0,P|326:221|319:206,1,47.9999985351563,0|0,0:0|3:0,0:0:0:0:
258,184,162741,1,2,3:0:0:0:
265,109,162928,1,0,0:0:0:0:
340,116,163116,1,4,0:3:0:0:
333,191,163303,1,8,0:3:0:0:
258,184,163491,6,0,P|223:180|151:174,1,95.9999970703126,4|2,0:3|0:0,0:0:0:0:
111,121,164053,1,0,0:0:0:0:
38,138,164241,2,0,P|30:176|25:241,1,95.9999970703126,2|2,3:0|0:0,0:0:0:0:
63,299,164803,1,0,3:0:0:0:
87,371,164991,2,0,P|147:366|193:358,1,95.9999970703126,4|0,0:3|0:0,0:0:0:0:
243,309,165553,1,0,3:0:0:0:
317,320,165741,2,0,P|364:322|416:325,2,95.9999970703126,2|4|4,3:0|0:0|0:3,0:0:0:0:
266,263,166678,1,0,0:0:0:0:
221,200,166866,2,0,P|221:163|222:130,1,47.9999985351563,0|0,0:0|3:0,0:0:0:0:
148,211,167241,2,0,P|145:246|142:326,1,95.9999970703126,2|2,3:0|0:0,0:0:0:0:
147,137,167803,5,0,3:0:0:0:
132,65,167991,2,0,P|174:65|192:68,1,47.9999985351563,4|0,0:3|0:0,0:0:0:0:
250,97,168366,2,0,P|285:92|312:90,1,47.9999985351563,2|0,0:0|3:0,0:0:0:0:
355,40,168741,1,4,3:0:0:0:
475,136,169116,1,4,0:0:0:0:
387,250,169491,1,4,0:1:0:0:
387,250,170053,5,0,3:0:0:0:
387,250,170241,2,0,L|282:253,1,95.9999970703126,2|2,3:0|0:0,0:0:0:0:
200,223,170803,1,0,3:0:0:0:
200,223,170991,2,0,P|201:256|200:290,1,47.9999985351563,4|0,0:3|0:0,0:0:0:0:
105,258,171366,2,0,P|103:287|105:318,1,47.9999985351563,2|0,0:0|0:0,0:0:0:0:
10,218,171741,2,0,L|10:105,1,95.9999970703126,2|4,3:0|3:2,0:0:0:0:
10,122,172303,1,0,3:0:0:0:
123,59,172491,1,4,0:3:0:0:
189,129,172866,6,0,L|254:126,1,47.9999985351563,2|0,0:0|0:0,0:0:0:0:
123,59,173241,1,2,0:3:0:0:
287,205,173616,2,0,L|345:199,1,47.9999985351563,2|0,0:0|3:0,0:0:0:0:
405,229,173991,1,4,0:3:0:0:
247,351,174366,5,2,0:0:0:0:
247,351,174553,1,0,3:0:0:0:
247,351,174741,2,0,L|177:357,1,47.9999985351563,2|0,3:0|3:0,0:0:0:0:
73,360,175116,1,4,3:0:0:0:
85,269,175303,1,8,3:0:0:0:
178,264,175491,6,0,B|227:262|227:262|279:242,2,95.9999970703126,4|2|2,3:0|0:0|3:0,0:0:0:0:
135,116,176616,1,2,0:0:0:0:
224,148,176803,1,0,3:0:0:0:
95,231,176991,1,4,0:3:0:0:
224,148,177366,5,0,0:3:0:0:
360,63,177553,1,2,0:0:0:0:
434,89,177741,2,0,L|430:156,1,47.9999985351563,2|2,0:3|0:0,0:0:0:0:
346,230,178116,2,0,L|338:176,1,47.9999985351563,4|2,3:2|0:0,0:0:0:0:
465,295,178491,1,4,0:3:0:0:
465,295,178584,1,2,0:0:0:0:
465,295,179053,5,0,3:0:0:0:
385,346,179241,2,0,L|318:351,1,47.9999985351563,2|0,3:0|0:0,0:0:0:0:
191,252,179616,1,2,0:0:0:0:
283,280,179803,1,2,3:2:0:0:
160,346,179991,1,4,3:0:0:0:
160,346,180084,1,2,0:0:0:0:
160,346,180178,1,2,0:0:0:0:
80,289,180366,2,0,L|81:231,1,47.9999985351563,2|0,0:0|3:0,0:0:0:0:
134,132,180741,6,0,L|75:144,1,47.9999985351563,2|0,3:0|0:0,0:0:0:0:
222,55,181116,2,0,L|162:53,1,47.9999985351563,8|0,3:0|0:0,0:0:0:0:
301,105,181491,5,4,3:2:0:0:
373,80,181678,1,0,3:0:0:0:
422,138,181866,1,0,3:0:0:0:
380,202,182053,1,2,3:0:0:0:
279,272,182241,5,2,3:0:0:0:
300,345,182428,1,0,3:0:0:0:
402,359,182616,1,2,3:0:0:0:
441,293,182803,1,2,3:0:0:0:
362,282,182991,5,4,1:0:0:0:
199,278,183178,1,0,3:0:0:0:
197,287,183241,1,0,3:0:0:0:
195,296,183303,1,0,3:0:0:0:
193,305,183366,1,4,3:0:0:0:
105,351,183553,1,4,1:0:0:0:
31,247,183741,1,4,3:0:0:0:
32,237,183803,1,0,3:0:0:0:
33,227,183866,1,0,3:0:0:0:
34,217,183928,1,4,3:0:0:0:
129,186,184116,1,8,3:0:0:0:
117,259,184303,1,4,3:0:0:0:
384,324,184491,6,2,P|424:268|432:148,1,191.999994140625,6|8,1:0|1:0,1:0:0:0:
434,47,185053,1,0,1:0:0:0:
434,47,185147,1,0,0:0:0:0:
434,47,185241,2,0,L|339:31,1,95.9999970703126,2|0,0:3|0:0,0:0:0:0:
229,124,185616,2,0,L|324:140,1,95.9999970703126,10|0,1:0|0:0,0:0:0:0:
47,124,185991,6,2,P|143:112|237:96,1,191.999994140625,4|10,1:2|1:0,1:0:0:0:
372,136,186553,1,8,0:0:0:0:
208,208,186741,2,0,P|255:213|301:227,1,95.9999970703126,2|0,0:3|0:0,0:0:0:0:
384,312,187116,1,10,1:0:0:0:
488,264,187303,1,2,1:0:0:0:
488,264,187397,1,0,0:0:0:0:
488,264,187491,6,2,P|516:200|508:128,1,143.999995605469,6|0,1:0|0:0,1:0:0:0:
400,24,187866,2,0,L|376:116,1,95.9999970703126,10|0,1:0|0:0,0:0:0:0:
256,256,188241,2,0,L|228:160,1,95.9999970703126,2|0,0:3|0:0,0:0:0:0:
140,48,188616,1,10,1:0:0:0:
8,124,188803,1,0,1:0:0:0:
8,124,188897,1,0,0:0:0:0:
8,124,188991,5,6,1:0:0:0:
140,48,189178,1,0,0:1:0:0:
229,163,189366,1,10,1:0:0:0:
375,116,189553,2,2,P|444:100|504:44,1,143.999995605469,2|2,1:0|0:3,1:0:0:0:
498,52,189928,1,8,0:0:0:0:
480,200,190116,2,0,P|460:240|456:292,1,95.9999970703126,8|0,1:0|1:0,0:0:0:0:
464,300,190397,1,0,0:0:0:0:
472,308,190491,6,2,P|400:300|276:296,1,191.999994140625,6|8,1:0|1:0,1:0:0:0:
304,176,191053,2,0,P|248:192|112:208,1,191.999994140625,2|2,1:0|0:1,0:0:0:0:
12,268,191616,1,8,1:0:0:0:
124,216,191803,1,0,1:0:0:0:
124,216,191897,1,0,0:0:0:0:
124,216,191991,6,2,P|140:172|144:120,1,95.9999970703126,4|2,1:2|0:1,1:0:0:0:
48,36,192366,1,10,1:0:0:0:
0,157,192553,2,2,P|8:252|47:339,1,191.999994140625,2|8,1:0|0:0,1:0:0:0:
184,268,193116,1,8,1:0:0:0:
144,123,193303,1,2,1:0:0:0:
144,123,193397,1,0,0:0:0:0:
144,123,193491,6,2,L|156:20,1,95.9999970703126,6|0,1:0|0:0,1:0:0:0:
280,144,193866,1,8,1:0:0:0:
280,144,194053,2,0,L|256:340,1,191.999994140625,2|2,1:0|0:1,0:0:0:0:
144,276,194616,2,0,L|20:268,1,95.9999970703126,8|4,1:0|0:0,0:0:0:0:
256,334,194991,5,4,1:0:0:0:
412,279,195178,1,2,0:0:0:0:
216,226,195366,1,0,1:0:0:0:
380,170,195553,1,8,1:0:0:0:
380,170,195928,1,2,1:3:0:0:
280,64,196116,5,8,1:0:0:0:
236,68,196209,1,8,1:0:0:0:
192,72,196303,1,0,1:0:0:0:
148,76,196397,1,0,0:0:0:0:
104,80,196491,6,2,B|136:156|136:156|72:268,1,191.999994140625,4|8,1:0|1:0,1:0:0:0:
264,348,197053,2,0,P|328:292|428:308,1,191.999994140625,0|2,1:0|0:3,0:0:0:0:
484,172,197616,1,8,1:0:0:0:
340,184,197803,1,0,1:0:0:0:
344,200,197897,1,0,0:0:0:0:
348,216,197991,2,2,L|332:116,1,95.9999970703126,2|0,1:0|0:0,1:0:0:0:
92,40,198366,1,8,1:0:0:0:
148,140,198553,2,2,P|132:236|180:312,1,191.999994140625,0|2,1:0|1:0,1:0:0:0:
292,352,199116,2,0,L|392:324,1,95.9999970703126,8|4,1:0|0:0,0:0:0:0:
480,124,199491,6,2,B|412:88|412:88|284:124,1,191.999994140625,6|8,1:0|1:0,1:0:0:0:
236,224,200053,1,2,1:0:0:0:
124,168,200241,2,0,P|68:136|40:60,1,143.999995605469,2|0,0:3|1:0,0:0:0:0:
16,64,200616,2,0,P|64:44|88:8,1,95.9999970703126,8|0,1:0|1:0,0:0:0:0:
296,32,200991,2,0,P|248:52|224:88,1,95.9999970703126,4|0,1:0|0:0,0:0:0:0:
328,276,201366,1,8,1:0:0:0:
448,224,201553,1,8,0:0:0:0:
444,196,201647,1,0,1:0:0:0:
440,168,201741,1,2,0:3:0:0:
436,140,201834,1,0,1:0:0:0:
432,112,201928,5,0,1:0:0:0:
228,24,202116,1,8,1:0:0:0:
248,240,202303,1,4,1:2:0:0:
304,120,202491,5,6,1:0:0:0:
72,320,202866,1,8,1:0:0:0:
64,340,203053,2,2,B|120:300|120:300|248:332,1,191.999994140625,2|0,1:0|0:0,1:0:0:0:
452,252,203616,2,2,L|356:228,1,95.9999970703126,10|0,1:0|0:0,1:0:0:0:
348,248,203897,1,0,1:0:0:0:
340,264,203991,6,2,P|304:196|344:92,1,191.999994140625,6|8,1:0|1:0,1:0:0:0:
170,93,204553,2,2,P|209:178|172:264,1,191.999994140625,2|0,1:0|1:0,1:0:0:0:
324,344,205116,1,8,1:0:0:0:
416,316,205303,1,4,0:0:0:0:
456,152,205491,5,6,1:0:0:0:
364,180,205678,1,0,1:0:0:0:
272,60,205866,1,10,1:0:0:0:
152,152,206053,1,0,1:0:0:0:
152,152,206147,1,2,3:3:0:0:
240,276,206334,1,0,1:0:0:0:
240,276,206428,2,0,L|260:176,1,95.9999970703126,2|8,3:3|1:0,0:0:0:0:
40,64,206803,1,0,1:0:0:0:
48,80,206897,1,0,0:0:0:0:
56,96,206991,6,2,L|68:204,1,95.9999970703126,6|0,1:0|0:0,1:0:0:0:
440,56,207366,2,2,L|320:32,1,95.9999970703126,14|0,1:0|0:0,1:0:0:0:
408,344,207741,2,2,L|428:236,1,95.9999970703126,14|0,1:0|0:0,1:0:0:0:
160,188,208116,1,8,1:0:0:0:
184,180,208209,1,4,0:0:0:0:
208,172,208303,1,0,1:0:0:0:
308,32,208491,5,4,1:0:0:0:
416,56,208678,1,0,0:0:0:0:
328,128,208866,1,2,1:2:0:0:
436,160,209053,2,0,P|432:228|400:324,1,160,2|2,1:2|0:0,0:0:0:0:
283,314,209616,1,2,1:2:0:0:
404,315,209803,6,0,L|483:324,1,80,6|0,0:0|0:0,0:0:0:0:
283,314,210178,1,4,0:0:0:0:
283,314,210366,2,0,L|195:302,1,80,2|0,1:2|0:0,0:0:0:0:
203,303,210647,1,0,0:0:0:0:
203,303,210741,1,0,0:0:0:0:
92,348,210928,1,2,1:2:0:0:
48,236,211116,1,2,1:2:0:0:
160,192,211303,1,4,0:0:0:0:
204,304,211491,6,0,P|196:344|192:388,1,80,4|0,1:0|0:0,0:0:0:0:
328,260,211866,2,0,P|368:258|408:252,1,80,2|0,1:2|0:0,0:0:0:0:
407,252,212147,1,2,1:2:0:0:
407,252,212241,1,2,1:2:0:0:
232,176,212428,1,0,1:0:0:0:
204,304,212616,1,2,1:2:0:0:
328,260,212803,6,0,P|352:192|360:104,1,160,4|2,1:2|0:0,0:0:0:0:
272,36,213366,1,0,1:0:0:0:
176,92,213553,1,2,0:0:0:0:
176,92,213647,1,0,1:0:0:0:
176,92,213741,2,0,L|88:104,1,80,2|4,1:2|0:0,0:0:0:0:
48,204,214116,1,2,1:2:0:0:
96,102,214303,1,4,0:0:0:0:
160,248,214491,6,0,P|171:284|180:336,1,80,4|0,1:0|0:0,0:0:0:0:
356,276,214866,1,2,1:2:0:0:
276,84,215053,2,0,P|260:164|253:249,1,160,6|0,0:0|1:0,0:0:0:0:
280,344,215616,1,2,1:2:0:0:
396,336,215803,1,2,0:0:0:0:
396,336,215897,1,0,1:0:0:0:
396,336,215991,6,0,L|476:324,1,80,4|0,1:0|0:0,0:0:0:0:
348,232,216366,1,2,1:2:0:0:
348,232,216553,2,0,L|188:256,1,160,4|2,1:2|1:2,0:0:0:0:
52,300,217116,1,2,1:2:0:0:
189,255,217303,1,4,0:0:0:0:
52,300,217491,6,0,P|28:264|16:220,1,80,4|0,1:0|0:0,0:0:0:0:
189,255,217866,2,0,P|213:291|225:335,1,80,2|2,1:2|0:0,0:0:0:0:
252,344,218147,1,2,0:0:0:0:
276,340,218241,1,2,0:0:0:0:
300,336,218334,1,2,0:0:0:0:
324,332,218428,1,2,1:2:0:0:
456,288,218616,1,2,1:2:0:0:
296,216,218803,1,4,1:2:0:0:
296,216,219178,6,0,L|396:200,1,80,2|0,1:2|1:0,0:0:0:0:
480,224,219553,1,0,1:0:0:0:
388,332,219741,2,0,L|467:341,1,80,2|2,1:2|0:0,0:0:0:0:
240,304,220116,1,8,1:0:0:0:
212,308,220209,1,8,1:0:0:0:
184,312,220303,1,2,0:0:0:0:
156,316,220397,1,0,0:0:0:0:
128,320,220491,6,0,L|44:304,1,80,4|2,1:0|0:0,0:0:0:0:
24,192,220866,2,0,L|108:208,1,80,2|2,1:2|0:0,0:0:0:0:
304,348,221241,2,0,P|344:300|340:232,1,120,2|2,0:0|0:0,0:0:0:0:
352,224,221616,1,2,1:2:0:0:
308,92,221803,1,2,0:0:0:0:
308,92,221897,1,0,1:0:0:0:
308,92,221991,5,4,1:2:0:0:
404,120,222178,1,2,0:0:0:0:
448,252,222366,1,2,1:2:0:0:
352,224,222553,1,2,0:0:0:0:
76,292,222928,1,2,0:0:0:0:
172,320,223115,1,0,1:0:0:0:
384,312,223303,6,0,P|432:264|424:172,1,160,2|2,1:2|0:0,0:0:0:0:
300,52,223866,2,0,P|336:40|392:20,1,80,2|2,1:2|0:0,0:0:0:0:
320,160,224241,2,0,L|176:204,1,120,2|2,1:2|0:0,0:0:0:0:
184,192,224616,1,2,1:2:0:0:
84,240,224803,1,2,0:0:0:0:
92,256,224897,1,0,1:0:0:0:
100,272,224991,5,4,1:2:0:0:
255,307,225178,1,2,0:0:0:0:
290,151,225366,1,2,1:2:0:0:
134,115,225553,1,2,1:2:0:0:
134,115,225928,5,4,0:0:0:0:
196,204,226116,1,2,1:2:0:0:
290,151,226303,1,2,0:0:0:0:
304,160,226397,1,0,1:0:0:0:
320,168,226491,6,0,P|376:156|416:148,1,80,4|0,1:0|0:0,0:0:0:0:
364,300,226866,1,2,1:2:0:0:
372,316,227053,2,0,P|296:324|224:284,1,160,4|2,0:0|1:2,0:0:0:0:
136,48,227616,1,2,1:2:0:0:
128,64,227803,2,0,P|164:132|128:220,1,160,4|2,0:0|1:2,0:0:0:0:
116,316,228366,1,2,1:2:0:0:
248,360,228553,1,0,3:0:0:0:
248,360,228647,1,2,3:3:0:0:
224,228,228834,1,0,3:0:0:0:
224,228,228928,1,2,3:3:0:0:
116,316,229116,1,2,1:2:0:0:
240,244,229303,6,0,L|224:164,1,80,4|4,0:0|1:0,0:0:0:0:
344,272,229678,2,0,L|328:192,1,80,2|2,0:0|1:2,0:0:0:0:
452,296,230053,2,0,L|436:216,1,80,4|0,0:0|0:0,0:0:0:0:
464,112,230428,1,2,1:2:0:0:
380,28,230616,1,2,1:2:0:0:
284,96,230803,1,2,0:0:0:0:
268,104,230897,1,0,1:0:0:0:
252,112,230991,6,0,P|268:72|256:28,1,80,4|6,1:0|0:0,0:0:0:0:
64,116,231366,2,0,P|60:176|96:232,1,120,6|0,0:0|0:0,0:0:0:0:
76,264,231741,2,0,L|156:252,1,80,2|4,1:2|1:2,0:0:0:0:
288,324,232116,1,4,1:2:0:0:
312,308,232209,1,0,0:0:0:0:
336,292,232303,1,0,1:0:0:0:
336,152,232491,5,4,1:0:0:0:
417,181,232678,1,0,0:0:0:0:
406,96,232866,1,0,1:0:0:0:
320,69,233053,1,4,3:0:0:0:
320,69,233147,1,8,3:0:0:0:
320,69,233241,2,0,P|263:62|235:62,1,71.9999978027344,4|0,3:0|0:0,0:0:0:0:
155,104,233616,2,0,P|106:98|56:81,1,71.9999978027344,0|4,1:0|3:0,0:0:0:0:
69,76,233897,1,8,3:0:0:0:
54,60,233991,2,0,P|17:91|5:143,1,71.9999978027344,4|0,3:0|0:0,0:0:0:0:
45,245,234366,6,0,P|99:236|136:235,1,71.9999978027344,0|8,1:0|3:0,0:0:0:0:
116,235,234647,1,4,3:0:0:0:
116,235,234741,2,0,P|162:243|193:244,1,71.9999978027344,8|2,3:0|0:0,0:0:0:0:
349,333,235116,5,0,1:0:0:0:
328,330,235209,1,0,1:0:0:0:
307,327,235303,1,4,3:0:0:0:
286,324,235397,1,8,3:0:0:0:
265,322,235491,2,0,P|212:324|175:336,1,71.9999978027344,4|0,3:0|0:0,0:0:0:0:
286,248,235866,2,0,P|295:198|307:158,1,71.9999978027344,0|4,1:0|3:0,0:0:0:0:
300,177,236147,1,8,3:0:0:0:
300,177,236241,1,4,3:0:0:0:
383,212,236428,1,0,0:0:0:0:
373,124,236616,2,0,P|364:74|352:34,1,71.9999978027344,0|4,1:0|3:0,0:0:0:0:
358,53,236897,1,8,3:0:0:0:
358,53,236991,1,4,3:0:0:0:
276,88,237178,1,0,0:0:0:0:
94,46,237366,5,0,1:0:0:0:
181,41,237553,1,4,3:0:0:0:
178,62,237647,1,8,3:0:0:0:
176,83,237741,2,0,L|194:122,1,35.9999989013672,4|0,3:0|0:0,0:0:0:0:
151,178,237928,2,0,L|189:196,1,35.9999989013672,2|0,1:2|0:0,0:0:0:0:
223,258,238116,2,0,L|186:269,1,35.9999989013672,0|0,1:0|0:0,0:0:0:0:
178,342,238303,2,0,L|137:333,1,35.9999989013672,4|8,3:0|3:0,0:0:0:0:
16,313,238491,5,4,3:0:0:0:
33,234,238678,1,0,0:0:0:0:
5,126,238866,2,0,P|45:142|81:149,1,71.9999978027344,0|4,1:0|3:0,0:0:0:0:
73,148,239147,1,8,3:0:0:0:
73,148,239241,2,0,L|156:133,1,71.9999978027344,4|0,3:0|0:0,0:0:0:0:
282,40,239616,1,0,1:0:0:0:
363,73,239803,1,4,3:0:0:0:
363,73,239897,1,8,3:0:0:0:
363,73,239991,2,0,P|356:130|354:168,1,71.9999978027344,4|0,3:0|0:0,0:0:0:0:
420,357,240366,5,0,1:0:0:0:
349,298,240553,1,4,3:0:0:0:
327,299,240647,1,8,3:0:0:0:
305,300,240741,1,4,3:0:0:0:
181,355,240928,1,2,0:0:0:0:
161,346,241022,1,0,0:0:0:0:
140,337,241116,1,0,1:0:0:0:
120,328,241209,1,0,0:0:0:0:
100,318,241303,1,4,3:0:0:0:
22,181,241491,6,0,P|84:192|121:204,1,71.9999978027344,4|0,3:0|0:0,0:0:0:0:
253,123,241866,2,0,P|191:112|154:100,1,71.9999978027344,0|4,1:0|3:0,0:0:0:0:
183,110,242147,1,8,3:0:0:0:
183,110,242241,1,4,3:0:0:0:
136,53,242428,1,0,0:0:0:0:
245,247,242616,6,0,P|236:290|231:333,1,71.9999978027344,0|4,1:0|3:0,0:0:0:0:
242,336,242897,1,8,3:0:0:0:
256,352,242991,2,0,P|311:351|347:353,1,71.9999978027344,4|0,3:0|0:0,0:0:0:0:
392,165,243366,2,0,P|337:166|301:164,1,71.9999978027344,0|4,1:0|3:0,0:0:0:0:
277,155,243647,1,8,3:0:0:0:
271,205,243741,5,4,3:0:0:0:
180,183,243928,1,8,3:0:0:0:
48,302,244116,5,8,3:0:0:0:
168,289,244303,1,4,3:0:0:0:
