osu file format v14

[General]
AudioFilename: audio.mp3
AudioLeadIn: 0
PreviewTime:164060
Countdown: 1
SampleSet: Soft
StackLeniency: 0.3
Mode: 0
LetterboxInBreaks: 1
WidescreenStoryboard: 1

[Editor]
Bookmarks:98373,164373
DistanceSpacing: 1.3
BeatDivisor: 4
GridSize: 32
TimelineZoom: 2.5

[Metadata]
Title:Shinsan Game
TitleUnicode:辛酸ゲーム
Artist:BUTAOTOME
ArtistUnicode:豚乙女
Creator:Deca
Version:Wanpachi's Hard
Source:
Tags:evilelvis buta-otome hardships game comp ranko doubt ランコ jounzan natteke desu aragon lasse amb1d3x hishiro chizuru wanpachi some hero heroine bongo ダウト japanese rock
BeatmapID:3631491
BeatmapSetID:1681275

[Difficulty]
HPDrainRate:5
CircleSize:3
OverallDifficulty:6
ApproachRate:8
SliderMultiplier:1.4
SliderTickRate:1

[Events]
//Background and Video events
0,0,"ErhIYduUcAAltAZ.jpg",0,0
//Break Periods
2,34573,39623
2,90573,97623
2,148573,155623
2,164573,171373
2,190573,195623
//Storyboard Layer 0 (Background)
//Storyboard Layer 1 (Fail)
//Storyboard Layer 2 (Pass)
//Storyboard Layer 3 (Foreground)
//Storyboard Layer 4 (Overlay)
//Storyboard Sound Samples

[TimingPoints]
373,250,4,2,1,75,1,0
16373,-125,4,2,2,60,0,0
32373,-111.111111111111,4,2,1,75,0,0
40373,-125,4,2,2,60,0,0
56373,-111.111111111111,4,2,1,70,0,0
66123,-111.111111111111,4,2,1,85,0,0
66373,-100,4,2,1,85,0,1
66435,-100,4,2,1,85,0,0
74373,-100,4,2,1,85,0,1
74435,-100,4,2,1,85,0,0
82373,-125,4,2,1,70,0,0
90373,-100,4,2,1,75,0,0
97873,-111.111111111111,4,2,1,65,0,0
98373,-125,4,2,1,60,0,0
106373,-125,4,2,2,60,0,0
112373,-125,4,2,1,65,0,0
114373,-111.111111111111,4,2,1,70,0,0
123873,-111.111111111111,4,2,1,85,0,0
124373,-100,4,2,1,85,0,1
124435,-100,4,2,1,85,0,0
132373,-100,4,2,1,85,0,1
132435,-100,4,2,1,85,0,0
140373,-125,4,2,1,70,0,0
148373,-111.111111111111,4,2,1,75,0,0
163873,-111.111111111111,4,2,1,85,0,0
164373,-1000,4,2,1,50,0,0
172373,-100,4,2,1,85,0,1
172435,-100,4,2,1,85,0,0
180373,-100,4,2,1,85,0,1
180435,-100,4,2,1,85,0,0
188373,-100,4,2,1,85,0,0
204373,-125,4,2,1,70,0,0

[Colours]
Combo1 : 17,254,176
Combo2 : 173,255,95
Combo3 : 255,88,100
Combo4 : 255,94,55

[HitObjects]
43,351,373,6,2,B|92:343|92:343|124:319|124:319|177:310,1,140,4|10,1:2|0:2,0:1:0:0:
380,273,873,1,2,1:2:0:0:
380,273,998,1,0,3:2:0:0:
380,273,1123,1,10,0:2:0:0:
457,225,1248,6,2,P|452:151|461:79,1,140,2|0,1:2|3:2,0:1:0:0:
511,9,1623,1,10,0:2:0:0:
369,123,1873,2,0,P|319:133|274:144,1,70,2|2,1:2|3:2,0:0:0:0:
252,59,2123,2,0,P|202:49|157:38,1,70,10|2,0:2|3:2,0:0:0:0:
106,93,2373,6,2,P|41:118|31:193,1,140,6|10,1:1|0:2,0:1:0:0:
192,331,2873,1,2,1:2:0:0:
192,331,2998,1,0,3:2:0:0:
192,331,3123,1,10,0:2:0:0:
275,301,3248,6,2,B|343:280|343:280|417:320,1,140,2|0,1:2|3:2,0:1:0:0:
474,369,3623,1,10,0:2:0:0:
417,224,3873,2,0,P|425:178|432:147,1,70,2|2,1:2|3:2,0:0:0:0:
370,86,4123,2,0,P|377:51|383:17,1,70,10|2,0:2|3:2,0:0:0:0:
467,69,4373,5,4,1:2:0:0:
288,33,4623,1,10,0:2:0:0:
274,218,4873,1,2,1:2:0:0:
274,218,4998,2,0,B|265:253|265:253|277:288,1,70,0|10,3:2|0:2,0:0:0:0:
197,330,5248,6,0,B|127:345|131:290|56:306,1,140,2|0,1:1|3:2,0:2:0:0:
3,373,5623,1,10,0:2:0:0:
84,211,5873,2,0,P|89:169|76:117,1,70,2|2,1:2|3:2,0:0:0:0:
150,77,6123,2,0,P|145:35|158:-17,1,70,10|2,0:2|3:2,0:0:0:0:
256,58,6373,5,6,1:1:0:0:
256,58,6498,1,0,0:2:0:0:
256,58,6623,1,10,0:2:0:0:
432,146,6873,1,2,1:2:0:0:
432,146,6998,2,0,P|431:183|438:227,1,70,0|10,3:2|0:2,0:2:0:0:
370,281,7248,6,2,B|303:257|303:257|236:310,1,140,2|0,1:2|3:2,0:1:0:0:
318,359,7623,1,10,0:2:0:0:
210,212,7873,2,0,P|213:166|216:124,1,70,2|10,1:1|0:1,0:0:0:0:
296,101,8123,2,0,P|293:55|290:13,1,70,10|10,0:1|0:1,0:0:0:0:
199,32,8373,6,2,P|132:40|107:102,1,140,4|10,1:2|0:2,0:1:0:0:
29,267,8873,1,2,1:2:0:0:
29,267,8998,2,0,B|67:257|67:257|107:270,1,70,0|10,3:2|0:2,0:0:0:0:
169,319,9248,2,2,B|240:322|233:272|313:280,1,140,2|0,1:2|3:2,0:1:0:0:
291,369,9623,1,10,0:2:0:0:
373,217,9873,6,0,P|381:174|387:135,1,70,2|2,1:2|3:2,0:0:0:0:
473,124,10123,2,0,P|465:81|459:42,1,70,10|2,0:2|3:2,0:0:0:0:
369,57,10373,6,2,B|320:52|320:52|279:63|279:63|218:56,1,140,6|10,1:1|0:2,0:1:0:0:
52,21,10873,1,2,1:2:0:0:
52,21,10998,1,0,3:2:0:0:
52,21,11123,1,10,0:2:0:0:
44,103,11248,2,2,P|46:178|38:252,1,140,2|0,1:2|3:2,0:1:0:0:
5,327,11623,1,10,0:2:0:0:
132,196,11873,2,0,B|168:189|211:210,1,70,2|2,1:2|3:2,0:0:0:0:
225,292,12123,2,0,B|261:299|304:278,1,70,10|2,0:2|3:2,0:0:0:0:
349,354,12373,5,4,1:2:0:0:
293,192,12623,1,10,0:2:0:0:
472,147,12873,1,2,1:2:0:0:
472,147,12998,2,0,P|470:186|473:227,1,70,0|10,3:2|0:2,0:0:0:0:
469,307,13248,2,0,B|404:280|404:280|336:320,1,140,2|0,1:1|3:2,0:2:0:0:
277,377,13623,1,10,0:2:0:0:
331,219,13873,2,0,P|337:177|338:135,1,70,2|2,1:2|3:2,0:0:0:0:
283,76,14123,2,0,P|241:70|199:69,1,70,10|2,0:2|3:2,0:0:0:0:
151,135,14373,5,6,1:1:0:0:
151,135,14498,1,0,0:2:0:0:
151,135,14623,1,10,0:2:0:0:
17,263,14873,1,2,1:2:0:0:
17,263,14998,1,0,3:2:0:0:
17,263,15123,1,10,0:2:0:0:
95,309,15248,6,2,B|175:304|168:350|258:340,1,140,2|0,1:2|3:2,0:1:0:0:
318,321,15623,1,10,0:2:0:0:
233,188,15873,6,0,L|182:179,2,35,2|0|10,1:2|0:0|0:2,0:0:0:0:
234,101,16123,2,0,L|216:-1,1,70,10|10,0:2|0:2,0:0:0:0:
310,51,16373,6,0,P|383:52|436:87,1,112,2|8,1:2|3:2,0:2:0:0:
501,171,16873,2,0,P|428:172|375:207,1,112,2|10,1:2|3:2,0:2:0:0:
283,293,17373,5,2,1:2:0:0:
283,293,17498,2,0,B|258:342|258:342|320:373,1,112,0|2,0:0|3:2,0:0:0:0:
393,321,17873,1,0,0:2:0:0:
393,321,17998,2,0,B|418:272|418:272|356:241,1,112,0|8,3:2|3:2,0:0:0:0:
287,199,18373,6,0,P|229:191|162:182,1,112,2|8,1:2|3:2,0:2:0:0:
72,290,18873,2,0,P|130:282|197:273,1,112,2|10,1:2|3:2,0:0:0:0:
84,166,19373,5,2,1:2:0:0:
84,166,19498,2,0,P|69:104|79:41,1,112
167,80,19873,1,0,0:0:0:0:
167,80,19998,2,0,P|174:106|171:134,2,56,8|8|8,3:2|3:2|3:2,0:0:0:0:
260,106,20373,6,0,B|314:87|314:87|371:126,1,112,2|8,1:2|3:2,0:2:0:0:
151,228,20873,2,0,B|97:209|97:209|40:248,1,112,2|10,0:2|3:2,0:0:0:0:
299,343,21373,5,2,1:2:0:0:
299,343,21498,2,0,P|353:330|425:316,1,112
363,237,21873,1,0,0:2:0:0:
363,237,21998,2,0,P|332:244|292:252,2,56,0|8|8,3:2|3:2|3:2,0:0:0:0:
315,153,22373,5,2,1:2:0:0:
222,285,22623,1,10,3:2:0:0:
161,181,22873,5,2,3:2:0:0:
308,249,23123,1,10,3:2:0:0:
212,374,23373,6,0,B|155:375|159:340|100:343,1,112,2|8,1:2|3:2,0:2:0:0:
57,207,23873,2,0,P|54:242|46:277,1,56,2|8,0:2|3:2,0:0:0:0:
13,345,24123,1,8,3:2:0:0:
163,163,24373,6,0,P|112:146|92:96,1,112,2|8,1:2|3:2,0:2:0:0:
243,114,24873,2,0,P|294:97|314:47,1,112,2|10,1:2|3:2,0:2:0:0:
508,46,25373,5,2,1:2:0:0:
508,46,25498,2,0,B|467:51|467:51|446:68|446:68|399:78,1,112,0|2,0:0|3:2,0:0:0:0:
459,158,25873,1,0,0:0:0:0:
459,158,25998,2,0,B|487:151|487:151|508:134,2,56,0|8|8,3:2|3:2|3:2,0:0:0:0:
434,248,26373,6,0,B|372:248|381:279|317:287,1,112,2|8,1:2|3:2,0:2:0:0:
205,347,26873,2,0,B|267:347|258:378|322:386,1,112,2|10,1:2|3:2,0:0:0:0:
320,185,27373,5,2,1:2:0:0:
319,184,27498,2,0,P|308:130|307:74,1,112
214,114,27873,1,0,0:0:0:0:
214,114,27998,2,0,P|214:141|220:169,2,56,8|8|8,3:2|3:2|3:2,0:0:0:0:
128,154,28373,6,0,P|75:145|11:136,1,112,2|8,1:2|3:2,0:2:0:0:
140,279,28873,2,0,P|193:270|257:261,1,112,2|10,0:2|3:2,0:0:0:0:
396,354,29373,5,2,1:2:0:0:
395,354,29498,2,0,P|343:367|298:334,1,112
341,257,29873,1,0,0:0:0:0:
341,256,29999,2,0,P|367:249|389:265,2,56,0|8|8,3:2|3:2|3:2,0:0:0:0:
250,261,30373,5,2,1:2:0:0:
389,163,30623,1,10,3:2:0:0:
243,118,30873,5,2,3:2:0:0:
341,257,31123,1,10,3:2:0:0:
491,159,31373,6,0,P|487:113|497:34,1,112,2|8,1:2|3:2,0:2:0:0:
317,143,31873,2,0,B|290:135|290:135|249:144,1,56,2|8,0:2|3:2,0:0:0:0:
180,169,32123,1,8,3:2:0:0:
355,270,32373,5,4,1:2:0:0:
256,192,32435,12,6,34373,1:1:0:0:
486,343,40373,6,0,B|505:290|505:290|465:234,1,112,2|8,1:2|3:2,0:2:0:0:
295,265,40873,2,0,B|276:318|276:318|316:374,1,112,2|10,1:2|3:2,0:0:0:0:
375,215,41373,5,2,1:2:0:0:
375,215,41498,2,0,P|367:173|360:84,1,112,0|2,0:0|3:2,0:0:0:0:
404,2,41873,1,0,0:0:0:0:
404,2,41998,2,0,P|362:10|273:17,1,112,0|8,3:2|3:2,0:0:0:0:
225,85,42373,6,0,P|192:42|124:29,1,112,2|8,1:2|3:2,0:2:0:0:
45,182,42873,2,0,P|78:139|146:126,1,112,2|10,1:2|3:2,0:0:0:0:
236,292,43373,5,2,1:2:0:0:
236,292,43498,2,0,B|229:247|229:247|217:221|217:221|213:183,1,112
308,191,43873,1,0,0:0:0:0:
308,191,43998,2,0,P|335:194|363:196,2,56,8|8|8,3:2|3:2|3:2,0:0:0:0:
338,287,44373,6,0,P|393:280|449:276,1,112,2|8,1:2|3:2,0:2:0:0:
461,91,44873,2,0,P|405:97|349:101,1,112,2|10,0:2|3:2,0:0:0:0:
213,183,45373,5,2,1:2:0:0:
213,183,45498,2,0,B|162:186|167:150|103:154,1,112
16,137,45873,1,0,0:0:0:0:
16,137,45998,2,0,P|19:164|21:192,2,56,0|8|8,3:2|3:2|3:2,0:0:0:0:
75,71,46373,5,2,1:2:0:0:
102,247,46623,1,10,3:2:0:0:
213,183,46873,5,2,3:2:0:0:
16,137,47123,1,10,3:2:0:0:
29,347,47373,6,0,P|71:353|150:370,1,112,2|8,1:2|3:2,0:2:0:0:
337,304,47873,2,0,P|309:309|281:314,1,56,2|8,0:2|3:2,0:0:0:0:
228,383,48123,1,8,3:2:0:0:
292,222,48373,6,0,P|284:167|293:112,1,112,2|8,1:2|3:2,0:2:0:0:
412,60,48873,2,0,P|420:115|411:170,1,112,2|10,1:2|3:2,0:2:0:0:
293,111,49373,5,2,1:2:0:0:
293,111,49498,2,0,B|237:106|243:139|184:133,1,112,0|2,0:0|3:2,0:0:0:0:
96,121,49873,1,0,0:0:0:0:
96,121,49998,2,0,P|98:93|112:69,2,56,0|8|8,3:2|3:2|3:2,0:0:0:0:
3,92,50373,6,0,B|-11:145|-11:145|32:182,1,112,2|8,1:2|3:2,0:2:0:0:
220,225,50873,2,0,B|263:262|263:262|249:315,1,112,2|10,1:2|3:2,0:0:0:0:
119,262,51373,5,2,1:2:0:0:
119,262,51498,2,0,P|124:206|132:150,1,112
217,80,51873,1,0,0:0:0:0:
217,80,51998,2,0,P|219:107|223:135,2,56,8|8|8,3:2|3:2|3:2,0:0:0:0:
312,95,52373,6,0,P|374:99|396:158,1,112,2|8,1:2|3:2,0:2:0:0:
425,299,52873,2,0,P|478:300|509:256,1,112,2|10,0:2|3:2,0:0:0:0:
335,238,53373,5,2,1:2:0:0:
335,238,53498,2,0,B|297:241|297:241|267:260|267:260|228:265,1,112
193,356,53873,1,0,0:0:0:0:
193,356,53998,2,0,B|248:348,2,56,0|8|8,3:2|3:2|3:2,0:0:0:0:
136,276,54373,5,2,1:2:0:0:
334,332,54623,1,10,3:2:0:0:
341,214,54872,5,2,3:2:0:0:
193,356,55122,1,10,3:2:0:0:
133,177,55373,6,0,P|141:116|141:46,1,112,2|8,1:2|3:2,0:0:0:0:
0,78,55873,2,0,P|23:97|61:103,1,56,2|8,0:2|3:2,0:0:0:0:
62,13,56123,1,8,3:2:0:0:
227,131,56373,6,0,B|288:133|286:96|346:97,1,125.999996154785,4|8,1:2|0:2,0:2:0:0:
343,15,56748,2,0,B|372:69|402:48|432:101,1,125.999996154785,2|0,1:2|3:2,0:2:0:0:
501,57,57123,2,0,B|468:109|501:125|470:177,1,125.999996154785,10|2,0:2|1:2,0:2:0:0:
470,177,57623,1,8,0:2:0:0:
506,326,57873,6,0,P|497:287|491:260,1,62.9999980773926,2|0,1:2|3:2,0:0:0:0:
404,239,58123,2,0,P|397:269|390:300,1,62.9999980773926,10|0,0:2|0:2,0:2:0:0:
321,361,58373,6,0,P|264:359|220:301,1,125.999996154785,2|8,1:2|0:2,0:2:0:0:
151,366,58748,2,0,P|124:315|152:248,1,125.999996154785,2|0,1:2|3:2,0:2:0:0:
61,221,59123,2,0,P|91:172|163:163,1,125.999996154785,10|2,0:2|1:2,0:2:0:0:
155,160,59623,1,8,0:2:0:0:
161,16,59873,6,0,B|140:40|140:40|140:71,1,62.9999980773926,2|8,1:2|0:2,0:0:0:0:
227,104,60123,2,0,B|248:80|248:80|248:48,1,62.9999980773926,10|8,0:2|0:2,0:0:0:0:
357,44,60373,6,0,P|335:103|318:163,1,125.999996154785,4|8,1:2|0:2,0:2:0:0:
236,200,60748,2,0,P|276:248|320:293,1,125.999996154785,2|0,0:2|3:2,0:2:0:0:
314,384,61123,2,0,P|376:373|436:357,1,125.999996154785,10|2,0:2|1:2,0:2:0:0:
436,357,61623,1,8,0:2:0:0:
512,223,61873,6,0,P|507:267|491:284,1,62.9999980773926,0|0,0:0|3:2,0:0:0:0:
406,276,62123,2,0,P|411:232|427:215,1,62.9999980773926,10|0,0:2|0:2,0:2:0:0:
473,146,62373,6,0,B|463:102|463:102|437:70|437:70|430:22,1,125.999996154785,4|8,1:2|0:2,0:2:0:0:
256,195,62873,2,0,P|293:201|332:210,1,62.9999980773926,2|0,1:2|3:2,0:2:0:0:
341,112,63123,2,0,P|304:106|265:97,1,62.9999980773926,10|0,0:2|0:2,0:2:0:0:
184,134,63373,6,0,P|122:136|91:202,1,125.999996154785,2|8,1:2|0:2,0:2:0:0:
28,357,63873,2,0,B|11:329|11:329|16:287,1,62.9999980773926,2|0,1:2|3:2,0:2:0:0:
106,274,64123,2,0,B|123:302|123:302|118:344,1,62.9999980773926,10|0,0:2|0:2,0:2:0:0:
205,381,64373,6,0,B|265:379|262:343|323:343,1,125.999996154785,4|8,1:2|0:2,0:2:0:0:
338,253,64748,2,0,B|397:277|397:277|453:232,1,125.999996154785,2|0,1:2|1:2,0:2:0:0:
512,180,65123,1,10,0:2:0:0:
398,67,65373,5,2,1:2:0:0:
398,67,65498,2,0,B|377:73|335:73,1,62.9999980773926,8|8,0:2|0:2,0:0:0:0:
285,163,65748,2,0,B|264:169|222:169,1,62.9999980773926,8|8,0:2|1:2,0:0:0:0:
99,55,66123,1,8,0:3:0:0:
28,189,66373,6,0,P|101:195|124:263,1,140,6|8,1:1|0:2,0:2:0:0:
117,369,66748,1,0,0:2:0:0:
52,310,66873,2,0,B|130:298|102:327|196:316,1,140,2|8,1:1|0:2,0:0:0:0:
336,308,67248,1,0,0:2:0:0:
263,251,67373,6,0,B|234:315|234:315|271:375,1,140,2|8,1:2|0:2,0:2:0:0:
410,367,67748,2,0,B|439:303|439:303|402:243,1,140,2|0,1:2|1:2,0:2:0:0:
331,181,68123,2,0,B|335:111,1,70,10|0,0:2|0:2,0:2:0:0:
457,72,68373,6,2,B|384:61|414:28|330:16,2,140,6|8|0,1:2|0:2|1:2,0:1:0:0:
248,136,69123,2,0,B|218:116|218:116|175:115,1,70,10|0,0:2|0:2,0:2:0:0:
145,31,69373,6,0,B|113:46|113:46|91:83,1,70,2|0,1:1|0:2,0:2:0:0:
4,67,69623,2,0,B|1:102|1:102|22:139,1,70,10|0,0:2|0:2,0:2:0:0:
104,168,69873,2,0,P|95:213|87:252,1,70,2|0,1:1|0:2,0:2:0:0:
25,304,70123,2,0,P|34:349|42:388,1,70,10|0,0:2|3:2,0:0:0:0:
162,302,70373,6,2,B|222:306|222:306|252:326|252:326|307:332,1,140,4|8,1:2|0:2,0:1:0:0:
371,278,70748,1,2,0:1:0:0:
454,323,70873,2,0,P|429:347|424:381,2,70,2|0|8,1:2|3:2|0:2,0:2:0:0:
512,243,71248,1,0,0:2:0:0:
424,190,71373,6,2,L|284:174,1,140,2|8,1:2|0:2,0:1:0:0:
52,203,71873,2,0,P|83:218|117:214,1,70,2|0,1:2|0:2,0:2:0:0:
171,294,72123,2,0,P|199:274|213:242,1,70,10|0,0:2|0:2,0:2:0:0:
190,154,72373,6,0,B|173:85|173:85|231:27,1,140,6|8,1:1|0:2,0:2:0:0:
311,78,72748,2,0,B|382:69|353:45|453:28,1,140,2|0,1:1|3:2,0:2:0:0:
506,105,73123,2,0,P|499:145|497:187,1,70,10|0,0:2|0:2,0:2:0:0:
378,172,73373,6,0,P|390:240|395:310,1,140,2|10,1:1|0:1,0:2:0:0:
400,315,73873,1,2,1:1:0:0:
400,315,73998,1,8,0:2:0:0:
314,384,74123,1,10,0:1:0:0:
247,291,74373,6,0,B|254:228|254:228|265:208|265:208|274:141,1,140,6|8,1:1|0:2,0:2:0:0:
219,23,74748,1,0,0:2:0:0:
300,64,74873,2,0,P|228:63|184:119,1,140,2|8,1:1|0:2,0:0:0:0:
57,158,75248,1,0,0:2:0:0:
146,193,75373,6,0,B|158:122|158:122|103:80,1,140,2|8,1:2|0:2,0:2:0:0:
72,252,75748,2,0,B|60:323|60:323|114:364,1,140,2|0,1:2|1:2,0:2:0:0:
169,284,76123,2,0,B|170:281|193:285|250:290,1,70,10|0,0:2|0:2,0:2:0:0:
344,261,76373,6,2,B|423:256|392:286|492:281,2,140,6|8|0,1:2|0:2|1:2,0:1:0:0:
466,100,77123,2,0,P|458:132|462:176,1,70,10|0,0:2|0:2,0:2:0:0:
365,125,77373,6,0,P|333:134|297:159,1,70,2|0,1:1|0:2,0:2:0:0:
294,44,77623,2,0,P|270:21|230:2,1,70,10|0,0:2|0:2,0:2:0:0:
209,104,77873,2,0,P|156:112|116:118,1,70,2|0,1:1|0:2,0:0:0:0:
43,195,78123,2,0,P|96:203|136:209,1,70,10|0,0:2|3:2,0:0:0:0:
158,289,78373,6,2,B|227:283|227:283|277:346,1,140,4|8,1:2|0:2,0:1:0:0:
357,307,78748,1,2,0:1:0:0:
447,272,78873,2,0,P|444:321|449:358,2,70,2|0|8,1:2|0:0|0:2,0:2:0:0:
372,207,79248,1,0,0:2:0:0:
463,169,79373,6,2,P|481:125|432:33,1,140,2|8,1:2|0:2,0:1:0:0:
276,169,79873,2,0,B|238:168|238:168|193:188,1,70,0|0,0:0|0:2,0:0:0:0:
226,280,80123,2,0,B|188:281|188:281|143:261,1,70,10|0,0:2|0:2,0:2:0:0:
69,209,80373,6,0,B|62:129|90:141|82:70,1,140,6|8,1:1|0:2,0:2:0:0:
38,0,80748,2,0,B|99:9|99:9|117:33|117:33|171:44,1,140,2|0,1:1|3:2,0:2:0:0:
253,70,81123,2,0,P|294:54|331:42,1,70,10|0,0:2|0:2,0:2:0:0:
441,115,81373,6,0,P|380:116|345:194,1,140,2|10,1:1|0:1,0:0:0:0:
347,183,81873,1,2,1:1:0:0:
402,259,81998,1,8,0:2:0:0:
482,203,82123,1,10,0:1:0:0:
257,212,82373,5,6,1:2:0:0:
263,371,82623,1,2,0:2:0:0:
257,212,82873,2,0,P|252:134|252:83,1,112,10|0,0:2|3:2,0:0:0:0:
267,8,83248,6,0,L|205:16,1,56,2|0,1:2|0:0,0:2:0:0:
157,85,83498,1,0,3:2:0:0:
157,85,83623,2,0,L|95:77,1,56,2|0,0:2|3:2,0:2:0:0:
30,18,83873,2,0,B|3:69|3:69|30:134,1,112,10|0,0:2|0:2,0:2:0:0:
119,229,84373,5,2,1:2:0:0:
0,331,84623,1,2,0:2:0:0:
119,229,84873,2,0,B|177:222|171:249|240:247,1,112,10|0,0:2|0:2,0:0:0:0:
296,322,85248,6,0,P|322:269|388:263,1,112,10|8,0:2|0:2,0:2:0:0:
460,302,85623,1,2,3:2:0:0:
460,302,85748,1,0,0:0:0:0:
460,301,85873,2,0,P|462:274|466:246,1,56,10|0,0:2|3:2,0:0:0:0:
410,174,86123,2,0,P|413:141|419:107,1,56,2|0,1:2|1:2,0:0:0:0:
360,53,86373,5,2,1:2:0:0:
506,158,86623,1,2,0:2:0:0:
360,53,86873,2,0,P|296:62|275:110,1,112,10|0,0:2|0:2,0:0:0:0:
216,168,87248,6,0,L|231:228,1,56,2|0,1:2|0:0,0:2:0:0:
314,261,87498,1,0,0:2:0:0:
314,261,87623,2,0,L|299:321,1,56,2|0,0:2|3:2,0:2:0:0:
217,360,87873,2,0,B|181:351|181:351|151:330|151:330|105:323,1,112,10|0,0:2|0:2,0:0:0:0:
48,158,88373,5,2,1:2:0:0:
229,222,88623,1,2,0:2:0:0:
52,162,88873,1,10,0:2:0:0:
52,162,88998,2,0,P|59:124|59:93,1,56,10|0,0:2|0:2,0:2:0:0:
129,49,89248,1,2,1:2:0:0:
113,324,89873,6,0,B|82:332|82:332|67:351|67:351|34:362,2,84,8|8|8,0:2|0:2|0:2,0:0:0:0:
203,308,90373,1,4,1:2:0:0:
481,68,98373,6,2,P|434:77|363:109,1,112,2|0,1:2|3:2,0:2:0:0:
293,73,98748,2,0,P|256:104|211:167,1,112,2|0,0:2|0:2,0:2:0:0:
132,171,99123,2,0,P|116:216|108:293,1,112,2|0,3:2|3:2,0:2:0:0:
18,262,99498,2,0,P|26:309|58:380,1,112,2|0,0:2|0:2,0:2:0:0:
144,368,99873,1,2,3:2:0:0:
144,368,100123,1,2,3:2:0:0:
271,224,100373,6,0,L|255:95,1,112,2|0,3:2|3:2,0:2:0:0:
303,46,100748,2,0,B|356:31|356:31|421:73,1,112,2|0,0:2|0:2,0:2:0:0:
469,117,101123,2,0,L|485:246,1,112,2|0,3:2|3:2,0:2:0:0:
437,295,101498,2,0,B|384:310|384:310|319:268,1,112,2|0,0:2|0:2,0:2:0:0:
271,224,101873,1,2,3:2:0:0:
271,224,102123,1,2,3:2:0:0:
152,42,102373,6,0,B|88:37|99:73|20:69,1,112,2|0,3:2|3:2,0:2:0:0:
8,150,102748,2,0,P|27:195|41:267,1,112,2|0,0:2|0:2,0:2:0:0:
37,345,103123,2,0,B|101:350|90:314|169:318,1,112,2|0,3:2|3:2,0:2:0:0:
190,245,103498,2,0,P|245:256|297:278,1,112,2|0,0:2|0:2,0:2:0:0:
360,339,103873,1,2,3:2:0:0:
360,339,104123,1,2,3:2:0:0:
395,205,104373,5,0,3:2:0:0:
400,181,104623,1,0,3:2:0:0:
481,216,104873,5,0,3:2:0:0:
311,174,105123,1,0,3:2:0:0:
426,79,105373,6,0,P|376:24|330:23,1,112,0|0,3:2|3:2,0:0:0:0:
311,174,105873,2,0,B|221:184|262:238|158:252,1,168,2|0,3:2|0:2,0:2:0:0:
91,300,106373,6,0,B|64:248|64:248|93:192,1,112,0|8,1:2|3:2,0:2:0:0:
165,53,106873,2,0,B|192:105|192:105|163:161,1,112,0|10,0:0|3:2,0:0:0:0:
91,300,107373,5,2,1:2:0:0:
91,300,107498,2,0,P|158:284|223:276,1,112,0|2,0:2|1:2,0:2:0:0:
276,331,107873,1,0,0:2:0:0:
276,331,107998,2,0,P|343:315|408:307,1,112,0|0,1:2|0:2,0:0:0:0:
453,372,108373,6,0,P|481:321|467:261,1,112,2|10,1:2|3:2,0:0:0:0:
305,154,108873,2,0,P|335:203|394:221,1,112,0|10,0:0|3:2,0:0:0:0:
498,84,109373,5,2,1:2:0:0:
498,84,109498,2,0,P|439:85|394:127,1,112,0|2,0:2|0:2,0:2:0:0:
305,154,109873,1,10,1:2:0:0:
198,24,110123,1,10,1:2:0:0:
159,162,110373,6,0,P|172:221|178:296,1,112,2|8,1:2|3:2,0:2:0:0:
28,369,110873,2,0,P|34:313|46:258,1,112,2|10,1:2|3:2,0:2:0:0:
188,373,111373,5,2,1:2:0:0:
188,373,111498,2,0,B|234:364|234:364|258:341|258:341|311:336,1,112,10|0,3:2|0:2,0:2:0:0:
328,255,111873,1,2,1:2:0:0:
328,255,111998,2,0,B|272:249,2,56,0|8|8,0:2|3:2|3:2,0:0:0:0:
384,328,112373,5,2,1:2:0:0:
318,164,112623,1,2,3:2:0:0:
394,91,112873,5,2,3:2:0:0:
328,255,113123,1,2,3:2:0:0:
510,244,113373,6,0,P|488:159|487:133,1,112,2|10,1:2|3:2,0:0:0:0:
403,0,113873,2,0,L|344:11,1,56,10|0,0:2|0:2,0:2:0:0:
394,91,114123,1,10,0:2:0:0:
191,53,114373,6,0,P|144:26|61:28,1,125.999996154785,4|8,1:2|0:2,0:2:0:0:
112,111,114748,2,0,P|65:138|26:211,1,125.999996154785,2|0,1:2|3:2,0:2:0:0:
122,208,115123,2,0,P|122:262|165:332,1,125.999996154785,10|2,0:2|1:2,0:2:0:0:
156,323,115623,1,8,0:2:0:0:
303,376,115873,6,0,L|236:365,1,62.9999980773926,2|0,1:2|3:2,0:0:0:0:
235,274,116123,2,0,L|302:263,1,62.9999980773926,10|0,0:2|0:2,0:2:0:0:
366,316,116373,6,0,B|429:302|426:333|512:311,1,125.999996154785,2|8,1:2|0:2,0:2:0:0:
450,227,116748,2,0,B|469:165|494:183|518:98,1,125.999996154785,2|0,1:2|3:2,0:2:0:0:
412,109,117123,2,0,B|368:61|396:48|334:-14,1,125.999996154785,10|2,0:2|1:2,0:2:0:0:
349,0,117623,1,8,0:2:0:0:
217,98,117873,6,0,B|250:95|250:95|276:76,1,62.9999980773926,2|8,1:2|0:2,0:0:0:0:
213,9,118123,2,0,B|180:12|180:12|154:31,1,62.9999980773926,10|8,0:2|0:2,0:0:0:0:
83,84,118373,6,0,P|102:146|110:220,1,125.999996154785,4|8,1:2|0:2,0:2:0:0:
31,247,118748,2,0,P|94:261|162:291,1,125.999996154785,2|0,0:2|3:2,0:2:0:0:
146,373,119123,2,0,P|190:325|250:281,1,125.999996154785,10|2,0:2|1:2,0:2:0:0:
238,288,119623,1,8,0:2:0:0:
425,357,119873,6,0,L|353:350,1,62.9999980773926,0|0,0:0|3:2,0:0:0:0:
327,260,120123,2,0,L|399:267,1,62.9999980773926,10|0,0:2|0:2,0:2:0:0:
461,217,120373,6,0,B|485:158|485:158|450:94,1,125.999996154785,4|8,1:2|0:2,0:2:0:0:
292,0,120873,2,0,P|287:31|284:62,1,62.9999980773926,2|0,1:2|3:2,0:0:0:0:
366,120,121124,2,0,P|370:88|373:57,1,62.9999980773926,10|0,0:2|0:2,0:2:0:0:
284,62,121373,6,0,P|220:66|180:123,1,125.999996154785,2|8,1:2|0:2,0:2:0:0:
226,286,121873,2,0,B|255:296|255:296|294:288,1,62.9999980773926,2|0,1:2|3:2,0:2:0:0:
262,204,122123,2,0,B|233:194|233:194|194:202,1,62.9999980773926,10|0,0:2|0:2,0:2:0:0:
137,265,122373,6,0,P|88:250|1:235,1,125.999996154785,4|8,1:2|0:2,0:2:0:0:
0,146,122748,2,0,B|48:137|48:137|68:115|68:115|120:107,1,125.999996154785,2|0,1:2|1:2,0:2:0:0:
204,98,123123,1,10,0:2:0:0:
377,49,123373,5,2,1:2:0:0:
377,49,123498,2,0,P|363:92|355:134,1,62.9999980773926,8|8,0:2|0:2,0:0:0:0:
277,157,123748,2,0,P|263:200|255:242,1,62.9999980773926,8|8,0:2|1:2,0:0:0:0:
265,384,124123,1,8,0:3:0:0:
438,360,124373,6,0,P|389:298|311:312,1,140,6|8,1:1|0:2,0:2:0:0:
196,281,124748,1,0,0:2:0:0:
242,357,124873,2,0,L|262:201,1,140,2|8,1:1|0:2,0:0:0:0:
192,104,125248,1,0,0:2:0:0:
141,176,125373,6,0,B|191:166|191:166|223:137|223:137|282:130,1,140,2|8,1:2|0:2,0:2:0:0:
268,41,125748,2,0,B|318:51|318:51|350:80|350:80|409:87,1,140,2|0,1:2|1:2,0:2:0:0:
492,66,126123,2,0,P|483:111|482:155,1,70,10|0,0:2|0:2,0:2:0:0:
398,178,126373,6,2,P|446:224|523:213,2,140,6|8|0,1:2|0:2|1:2,0:1:0:0:
303,321,127123,2,0,P|346:306|385:285,1,70,10|0,0:2|0:2,0:2:0:0:
291,226,127373,6,0,P|300:181|301:137,1,70,2|0,1:1|0:2,0:2:0:0:
214,175,127623,2,0,P|179:144|141:121,1,70,10|0,0:2|0:2,0:2:0:0:
117,215,127873,2,0,L|112:300,1,70,2|0,1:1|0:2,0:2:0:0:
28,228,128123,2,0,L|32:158,1,70,10|0,0:2|3:2,0:0:0:0:
80,73,128373,6,2,B|141:38|141:38|224:53,1,140,4|8,1:2|0:2,0:1:0:0:
288,100,128748,1,2,0:1:0:0:
376,69,128873,2,0,P|371:26|377:-25,2,70,2|0|8,1:2|3:2|0:2,0:2:0:0:
457,123,129248,1,0,0:2:0:0:
411,209,129373,6,2,B|366:214|366:214|339:244|339:244|276:256,1,140,2|8,1:2|0:2,0:1:0:0:
73,332,129873,2,0,P|102:346|162:344,1,70,2|0,1:2|0:2,0:0:0:0:
199,277,130123,2,0,P|170:263|110:265,1,70,10|0,0:2|0:2,0:2:0:0:
42,243,130373,6,0,L|35:87,1,140,6|8,1:1|0:2,0:2:0:0:
109,46,130748,2,0,B|166:79|166:79|247:44,1,140,2|0,1:1|3:2,0:2:0:0:
300,127,131123,2,0,P|333:118|368:114,1,70,10|0,0:2|0:2,0:2:0:0:
392,25,131373,6,0,P|448:43|463:128,1,140,2|10,1:1|0:1,0:2:0:0:
471,119,131873,1,2,1:1:0:0:
412,203,131998,1,8,0:2:0:0:
368,113,132123,1,10,0:1:0:0:
512,275,132373,6,0,B|433:283|447:319|375:332,1,140,6|8,1:1|0:2,0:2:0:0:
238,330,132748,1,0,0:2:0:0:
308,384,132873,2,0,P|287:296|274:223,1,140,2|8,1:1|0:2,0:0:0:0:
209,183,133248,1,0,0:2:0:0:
288,127,133373,6,0,B|318:194|318:194|278:247,1,140,2|8,1:2|0:2,0:2:0:0:
136,236,133748,2,0,B|105:168|105:168|145:115,1,140,2|0,1:2|1:2,0:2:0:0:
222,57,134123,2,0,P|259:44|296:29,1,70,10|0,0:2|0:2,0:2:0:0:
380,82,134373,6,2,P|441:81|490:144,2,140,6|8|0,1:2|0:2|1:2,0:1:0:0:
233,248,135123,2,0,P|221:215|209:183,1,70,10|0,0:2|0:2,0:2:0:0:
256,94,135373,2,0,P|221:87|186:82,1,70,2|0,1:1|0:2,0:2:0:0:
135,0,135623,2,0,P|112:26|90:53,1,70,10|0,0:2|0:2,0:2:0:0:
16,114,135873,6,0,P|36:154|45:196,1,70,2|0,1:1|0:2,0:2:0:0:
123,234,136123,2,0,P|112:267|96:298,1,70,10|0,0:2|3:2,0:0:0:0:
46,377,136373,6,2,P|112:345|198:367,1,140,4|8,1:2|0:2,0:1:0:0:
243,288,136748,1,2,0:1:0:0:
331,314,136873,2,0,L|323:394,2,70,2|0|8,1:2|3:2|0:2,0:0:0:0:
386,246,137248,1,0,0:2:0:0:
321,178,137373,6,2,B|314:118|314:118|322:95|322:95|313:29,1,140,2|8,1:2|0:2,0:1:0:0:
512,145,137873,2,0,P|478:148|439:166,1,70,2|0,1:2|0:2,0:0:0:0:
494,248,138123,2,0,P|479:278|475:321,1,70,10|0,0:2|0:2,0:2:0:0:
387,355,138373,6,0,B|312:345|329:303|245:302,1,140,6|8,1:1|0:2,0:2:0:0:
179,337,138748,2,0,B|111:361|111:361|58:303,1,140,2|0,1:1|3:2,0:2:0:0:
138,253,139123,2,0,P|149:200|155:166,1,70,10|0,0:2|0:2,0:2:0:0:
77,123,139373,6,0,P|71:51|148:12,1,140,2|10,1:1|0:1,0:0:0:0:
119,12,139873,1,2,1:1:0:0:
183,86,139998,1,8,0:2:0:0:
219,0,140123,1,10,0:1:0:0:
313,146,140373,5,6,1:2:0:0:
151,184,140623,1,2,0:2:0:0:
313,146,140873,2,0,B|375:144|355:174|437:188,1,112,10|0,0:2|3:2,0:0:0:0:
510,173,141248,6,0,P|502:214|501:251,1,56,2|0,1:2|0:0,0:2:0:0:
425,274,141498,1,0,3:2:0:0:
425,274,141623,2,0,P|422:301|415:329,1,56,2|0,0:2|3:2,0:2:0:0:
337,377,141873,2,0,P|288:330|240:329,1,112,10|0,0:2|0:2,0:2:0:0:
122,243,142373,5,2,1:2:0:0:
175,381,142623,1,2,0:2:0:0:
122,243,142873,2,0,P|135:174|140:118,1,112,10|0,0:2|0:2,0:0:0:0:
75,76,143248,6,0,B|111:31|111:31|174:53,1,112,10|8,0:2|0:2,0:2:0:0:
238,119,143623,1,2,3:2:0:0:
238,119,143748,1,0,0:0:0:0:
238,119,143873,2,0,P|271:107|296:97,1,56,10|0,0:2|3:2,0:0:0:0:
368,137,144123,2,0,P|401:125|426:115,1,56,2|0,1:2|1:2,0:0:0:0:
495,60,144373,5,2,1:2:0:0:
430,211,144623,1,2,0:2:0:0:
495,60,144873,2,0,P|447:25|386:32,1,112,10|0,0:2|0:2,0:0:0:0:
314,66,145248,6,0,P|287:55|261:46,1,56,2|0,1:2|0:0,0:2:0:0:
240,135,145498,1,0,0:2:0:0:
240,135,145623,2,0,P|213:144|187:154,1,56,2|0,0:2|3:2,0:2:0:0:
107,108,145873,2,0,B|84:163|84:163|122:222,1,112,10|0,0:2|0:2,0:0:0:0:
211,314,146373,5,2,1:2:0:0:
83,349,146623,1,2,0:2:0:0:
215,318,146873,1,10,0:2:0:0:
215,318,146998,2,0,P|253:323|287:324,1,56,10|0,0:2|0:2,0:2:0:0:
356,310,147248,1,2,1:2:0:0:
436,52,147873,6,0,P|410:80|409:136,2,84,8|8|8,0:2|0:2|0:2,0:0:0:0:
500,118,148373,1,2,1:2:0:0:
334,241,156373,6,0,P|317:305|312:379,1,125.999996154785,4|0,1:2|0:2,0:2:0:0:
188,333,156873,1,10,0:2:0:0:
188,333,156998,2,0,P|205:269|210:195,1,125.999996154785,0|2,3:2|1:2,0:2:0:0:
334,241,157498,1,0,3:2:0:0:
334,241,157623,1,2,1:2:0:0:
210,209,157873,2,0,P|204:272|188:333,1,125.999996154785,10|0,0:2|3:2,0:0:0:0:
124,153,158373,6,0,P|164:118|258:124,1,125.999996154785,2|2,1:2|3:2,0:2:0:0:
442,99,158873,1,10,0:2:0:0:
442,99,158998,2,0,P|402:134|308:128,1,125.999996154785,0|2,3:2|1:2,0:2:0:0:
124,153,159498,1,8,0:2:0:0:
124,153,159623,1,2,1:2:0:0:
331,138,159872,2,0,P|393:137|442:99,1,125.999996154785,10|0,0:2|1:2,0:0:0:0:
457,264,160373,6,0,P|395:251|333:240,1,125.999996154785,2|0,1:2|0:2,0:2:0:0:
236,341,160873,1,10,0:2:0:0:
236,341,160998,2,0,P|297:352|359:364,1,125.999996154785,0|2,1:2|1:2,0:2:0:0:
457,264,161498,1,0,3:2:0:0:
457,264,161623,1,2,1:2:0:0:
359,364,161873,2,0,P|297:352|235:341,1,125.999996154785,10|0,0:2|0:2,0:2:0:0:
100,355,162373,6,0,P|101:286|143:241,1,125.999996154785,2|2,1:2|3:2,0:2:0:0:
62,143,162873,1,10,0:2:0:0:
61,143,162998,2,0,P|114:110|175:119,1,125.999996154785,0|0,3:2|0:0,0:2:0:0:
276,99,163373,2,0,P|258:56|218:35,2,94.499997116089,8|8|8,0:2|0:2|0:2,0:0:0:0:
241,197,163873,2,0,B|355:168|371:251|504:216,1,251.999992309571,4|4,1:2|0:2,0:2:0:0:
283,369,172123,5,0,0:0:0:0:
283,369,172373,2,0,P|272:307|245:218,1,140,6|8,1:1|0:2,0:2:0:0:
295,109,172748,1,0,0:2:0:0:
211,149,172873,2,0,P|264:203|338:187,1,140,2|8,1:1|0:2,0:0:0:0:
392,126,173248,1,0,0:2:0:0:
422,223,173373,6,0,P|402:290|389:358,1,140,2|8,1:2|0:2,0:2:0:0:
290,332,173748,2,0,P|302:263|322:196,1,140,2|0,1:2|1:2,0:2:0:0:
392,126,174123,2,0,P|385:91|375:58,1,70,10|0,0:2|0:2,0:2:0:0:
262,0,174373,6,2,B|247:61|247:61|256:88|256:88|245:150,2,140,6|8|0,1:2|0:2|1:2,0:1:0:0:
84,117,175123,2,0,L|160:101,1,70,10|0,0:2|0:2,0:2:0:0:
170,192,175373,6,0,L|221:249,1,70,2|0,1:1|0:2,0:2:0:0:
148,303,175623,2,0,L|123:376,1,70,10|0,0:2|0:2,0:2:0:0:
225,361,175873,2,0,P|253:349|295:339,1,70,2|0,1:1|0:2,0:0:0:0:
317,252,176123,2,0,P|351:260|383:273,1,70,10|0,0:2|3:2,0:0:0:0:
434,351,176373,6,2,B|428:288|459:295|447:201,1,140,4|8,1:2|0:2,0:1:0:0:
371,149,176748,1,2,0:1:0:0:
433,71,176873,2,0,B|467:62|467:62|497:78,2,70,2|0|8,1:2|3:2|0:2,0:2:0:0:
336,56,177248,1,0,0:2:0:0:
271,126,177373,6,2,P|202:122|161:62,1,140,2|8,1:2|0:2,0:1:0:0:
14,0,177873,2,0,L|23:77,1,70,2|0,1:2|0:2,0:2:0:0:
94,139,178123,2,0,L|103:216,1,70,10|0,0:2|0:2,0:2:0:0:
18,288,178373,6,0,B|96:282|77:325|158:330,1,140,6|8,1:1|0:2,0:2:0:0:
230,366,178748,2,0,B|278:310|278:310|361:343,1,140,2|0,1:1|3:2,0:2:0:0:
441,359,179123,2,0,P|434:319|432:277,1,70,10|0,0:2|0:2,0:2:0:0:
347,240,179373,6,0,B|359:182|359:182|383:166|383:166|399:93,1,140,2|10,1:1|0:1,0:0:0:0:
398,119,179873,1,2,1:1:0:0:
485,176,179998,1,8,0:2:0:0:
492,76,180123,1,10,0:1:0:0:
283,105,180373,6,0,P|223:100|158:38,1,140,6|8,1:1|0:2,0:2:0:0:
28,78,180748,1,0,0:0:0:0:
67,1,180873,2,0,L|96:153,1,140,2|8,1:1|0:2,0:0:0:0:
115,223,181248,1,0,0:2:0:0:
79,310,181373,6,0,B|134:314|134:314|157:341|157:341|207:345,1,140,2|8,1:2|0:2,0:0:0:0:
215,248,181748,2,0,B|270:244|270:244|293:217|293:217|343:212,1,140,2|0,1:2|1:2,0:0:0:0:
444,243,182123,2,0,B|437:173,1,70,10|0,0:2|0:2,0:2:0:0:
357,117,182373,6,2,P|411:76|479:84,2,140,6|8|0,1:2|0:2|0:0,0:1:0:0:
444,243,183123,2,0,P|436:211|440:167,1,70,10|0,0:2|0:2,0:0:0:0:
343,218,183373,6,0,P|311:209|275:184,1,70,2|0,1:1|0:2,0:2:0:0:
272,299,183623,2,0,P|248:322|208:341,1,70,10|0,0:2|0:2,0:2:0:0:
187,239,183873,2,0,P|134:231|94:225,1,70,2|0,1:1|0:2,0:2:0:0:
21,148,184123,2,0,P|74:140|114:134,1,70,10|0,0:2|3:2,0:0:0:0:
131,42,184373,6,0,B|187:84|187:84|252:60,1,140,4|8,1:2|0:2,0:0:0:0:
337,22,184748,1,2,0:1:0:0:
418,73,184873,2,0,P|467:70|504:75,2,70,2|0|8,1:2|0:0|0:2,0:2:0:0:
330,115,185248,1,0,0:2:0:0:
413,172,185373,6,2,L|408:317,1,140,2|8,1:2|0:2,0:1:0:0:
178,203,185873,2,0,P|220:194|271:192,1,70,0|0,0:0|0:2,0:0:0:0:
212,96,186123,2,0,P|170:105|119:107,1,70,10|0,0:2|0:2,0:2:0:0:
84,185,186373,6,0,B|76:262|116:233|108:334,1,140,6|8,1:1|0:2,0:2:0:0:
184,376,186748,2,0,B|251:342|251:342|314:369,1,140,2|0,1:1|3:2,0:2:0:0:
404,342,187123,2,0,P|399:302|386:261,1,70,10|0,0:2|0:2,0:2:0:0:
486,241,187373,6,0,P|425:240|390:162,1,140,2|10,1:1|0:1,0:0:0:0:
185,98,187873,1,2,1:1:0:0:
262,39,187998,1,8,0:2:0:0:
302,130,188123,2,0,L|291:213,1,70,10|8,0:1|1:3,0:0:0:0:
214,248,188373,5,6,1:1:0:0:
256,192,188435,12,6,190373,1:2:0:0:
453,318,196373,6,0,B|389:290|389:290|316:320,1,140,6|8,1:1|0:2,0:2:0:0:
233,363,196748,1,0,0:0:0:0:
179,285,196873,2,0,L|197:140,1,140,2|8,1:1|0:2,0:0:0:0:
215,55,197248,1,0,0:2:0:0:
294,122,197373,6,0,P|354:165|433:140,1,140,2|8,1:2|0:2,0:0:0:0:
441,58,197748,2,0,P|381:15|302:40,1,140,2|0,1:2|1:2,0:0:0:0:
215,55,198123,2,0,L|70:37,2,140,10|6|8,0:2|1:2|0:2,0:2:0:0:
215,55,198873,5,0,1:2:0:0:
138,226,199123,2,0,B|121:192|121:192|135:142,1,70,10|0,0:2|0:2,0:2:0:0:
220,183,199373,6,0,B|240:151|240:151|291:138,1,70,2|0,1:1|0:0,0:2:0:0:
298,232,199623,2,0,B|335:234|335:234|372:271,1,70,10|0,0:2|3:2,0:0:0:0:
448,309,199873,2,0,L|457:229,1,70,2|0,1:1|3:2,0:0:0:0:
402,157,200123,2,0,L|411:77,1,70,10|0,0:2|3:2,0:0:0:0:
461,3,200373,6,2,P|391:38|316:18,1,140,4|8,1:2|0:2,0:1:0:0:
297,135,200748,2,0,P|227:100|152:120,1,140,2|0,0:1|3:2,0:0:0:0:
101,185,201123,1,8,0:2:0:0:
51,381,201373,6,2,P|121:346|196:366,1,140,2|8,1:2|0:2,0:1:0:0:
215,249,201748,1,2,3:1:0:0:
215,249,201873,2,0,P|285:284|360:264,1,140,2|10,1:2|0:2,0:0:0:0:
469,80,202373,6,0,B|460:131|460:131|442:160|442:160|429:234,1,140,6|8,1:1|0:2,0:2:0:0:
336,175,202748,2,0,B|345:121|345:121|363:93|363:93|372:41,1,140,2|0,1:1|3:2,0:2:0:0:
280,52,203123,2,0,L|202:64,1,70,10|0,0:2|0:2,0:2:0:0:
119,114,203373,5,2,1:1:0:0:
119,114,203498,1,8,0:2:0:0:
119,114,203623,2,0,L|106:36,1,70,10|8,0:1|0:3,0:0:0:0:
205,163,203873,2,0,L|217:233,1,70,2|8,1:1|0:2,0:0:0:0:
119,211,204123,1,10,0:1:0:0:
245,334,204373,5,6,1:2:0:0:
300,183,204623,1,2,0:2:0:0:
245,334,204873,2,0,P|169:330|133:284,1,112,10|0,0:2|3:2,0:0:0:0:
65,241,205248,6,0,L|75:177,1,56,2|0,1:2|0:0,0:2:0:0:
87,99,205498,1,0,3:2:0:0:
87,99,205623,2,0,L|97:35,1,56,2|0,0:2|3:2,0:2:0:0:
179,7,205873,2,0,B|229:11|229:11|246:24|246:24|307:31,1,112,10|0,0:2|0:2,0:2:0:0:
423,128,206373,5,2,1:2:0:0:
289,171,206623,1,2,0:2:0:0:
423,128,206873,2,0,P|404:209|402:255,1,112,10|0,0:2|0:2,0:0:0:0:
475,314,207248,6,0,B|408:307|419:359|360:366,1,112,10|8,0:2|0:2,0:2:0:0:
302,310,207623,1,2,3:2:0:0:
302,310,207748,1,0,0:0:0:0:
302,310,207873,2,0,P|305:272|314:238,1,56,10|0,0:2|3:2,0:0:0:0:
262,181,208123,2,0,P|265:143|274:109,1,56,2|0,1:2|1:2,0:0:0:0:
333,59,208373,5,2,1:2:0:0:
174,144,208623,1,2,0:2:0:0:
333,59,208873,2,0,B|282:28|282:28|217:45,1,112,10|0,0:2|0:2,0:0:0:0:
143,56,209248,6,0,L|83:47,1,56,2|0,1:2|0:0,0:2:0:0:
36,146,209498,1,0,0:2:0:0:
36,146,209623,2,0,L|96:137,1,56,2|0,0:2|3:2,0:2:0:0:
198,204,209873,2,0,P|140:213|111:273,1,112,10|0,0:2|0:2,0:0:0:0:
298,275,210373,5,2,1:2:0:0:
267,110,210623,1,2,0:2:0:0:
302,279,210873,1,10,0:2:0:0:
302,279,210998,2,0,B|330:289|330:289|365:279,1,56,10|0,0:2|0:2,0:2:0:0:
331,182,211248,1,2,1:2:0:0:
