osu file format v14

[General]
AudioFilename: audio.mp3
AudioLeadIn: 0
PreviewTime: 60578
Countdown: 0
SampleSet: Soft
StackLeniency: 0.7
Mode: 0
LetterboxInBreaks: 0
WidescreenStoryboard: 1

[Editor]
Bookmarks: 22388,49975,95492,141009,141095,141182,141268,141354,141440,141526,141613,141699,141785,141871,141957,142044,142130,142216,142302,142388,142475,142561,142647,142733,142820,142906,142992,143078,143164,143251,143337,143423,143509,143595,143682,143768,143854,143940,144026,144113,144199,144285,144371,144457,144544,144630,144716,144802,144888,144975,145061,145147,145233,145320,145406,145492,145578,145664,145751,145837,145923,146009,146095,146182
DistanceSpacing: 0.8
BeatDivisor: 4
GridSize: 32
TimelineZoom: 2.6

[Metadata]
Title:Roppun no Ichi
TitleUnicode:六分の一
Artist:BUTAOTOME
ArtistUnicode:豚乙女
Creator:Orkay
Version:Collab Lunatic
Source:東方鬼形獣 ~ Wily Beast and Weakest Creature.
Tags:touhou 東方project th17 yachie kicchou ranko ランコ comp コンプ comiket 98 c98 少女煉獄 第五巻 shoujo rengoku daigokan japanese pop j-pop jpop rock one sixth トータスドラゴン ~ 幸運と不運 video game zun entry
BeatmapID:3166584
BeatmapSetID:1537925

[Difficulty]
HPDrainRate:5.3
CircleSize:3.8
OverallDifficulty:7.3
ApproachRate:8.8
SliderMultiplier:1.7
SliderTickRate:1

[Events]
//Background and Video events
0,0,"bg.jpg",0,0
//Break Periods
2,141209,145553
//Storyboard Layer 0 (Background)
//Storyboard Layer 1 (Fail)
//Storyboard Layer 2 (Pass)
//Storyboard Layer 3 (Foreground)
//Storyboard Layer 4 (Overlay)
//Storyboard Sound Samples

[TimingPoints]
320,344.827586206897,4,2,1,60,1,0
320,-125,4,2,1,60,0,0
10664,-125,4,2,1,50,0,0
11354,-100,4,2,1,70,0,0
22388,-125,4,2,1,50,0,0
27906,-125,4,2,1,55,0,0
33423,-100,4,2,1,70,0,0
38940,-111.111111111111,4,2,1,60,0,0
49285,-100,4,2,1,60,0,0
49975,-90.9090909090909,4,2,1,65,0,0
53854,-90.9090909090909,4,2,1,5,0,0
53940,-90.9090909090909,4,2,1,65,0,0
58251,-90.9090909090909,4,2,1,70,0,0
59630,-66.6666666666667,4,2,1,70,0,0
60664,-200,4,2,1,60,0,0
60923,-200,4,2,1,5,0,0
61009,-83.3333333333333,4,2,1,80,0,1
61268,-83.3333333333333,4,2,1,5,0,1
61354,-83.3333333333333,4,2,1,80,0,1
66785,-83.3333333333333,4,2,1,5,0,1
66871,-83.3333333333333,4,2,1,80,0,1
70664,-83.3333333333333,4,2,1,80,0,0
72044,-166.666666666667,4,2,1,60,0,0
72216,-166.666666666667,4,2,1,5,0,0
72388,-166.666666666667,4,2,1,60,0,0
72561,-166.666666666667,4,2,1,5,0,0
72733,-166.666666666667,4,2,1,60,0,0
72906,-166.666666666667,4,2,1,5,0,0
73423,-100,4,2,1,70,0,0
84457,-125,4,2,1,60,0,0
95492,-90.9090909090909,4,2,1,65,0,0
103768,-90.9090909090909,4,2,1,70,0,0
105147,-66.6666666666667,4,2,1,70,0,0
106526,-1000,4,2,1,60,0,0
107561,-200,4,2,1,60,0,0
107820,-200,4,2,1,5,0,0
107906,-83.3333333333333,4,2,1,80,0,1
108164,-83.3333333333333,4,2,1,5,0,1
108251,-83.3333333333333,4,2,1,80,0,1
113682,-83.3333333333333,4,2,1,5,0,1
113768,-83.3333333333333,4,2,1,80,0,1
117561,-83.3333333333333,4,2,1,80,0,0
118940,-125,4,2,1,60,0,0
128768,-125,4,2,1,70,0,0
129285,-166.666666666667,4,2,1,50,0,0
129975,-100,4,2,1,70,0,0
131268,-100,4,2,1,5,0,0
131354,-100,4,2,1,70,0,0
139802,-100,4,2,1,60,0,0
140837,-125,4,2,1,60,0,0
141009,-125,4,2,1,40,0,0
146182,-200,4,2,1,60,0,0
146440,-200,4,2,1,5,0,0
146526,-83.3333333333333,4,2,1,80,0,1
146785,-83.3333333333333,4,2,1,5,0,1
146871,-83.3333333333333,4,2,1,80,0,1
156182,-83.3333333333333,4,2,1,80,0,0
157561,-166.666666666667,4,2,1,60,0,0
157733,-166.666666666667,4,2,1,5,0,0
157906,-166.666666666667,4,2,1,60,0,0
158078,-166.666666666667,4,2,1,5,0,0
158251,-166.666666666667,4,2,1,60,0,0
158423,-166.666666666667,4,2,1,5,0,0
158940,-100,4,2,1,70,0,0
169975,-90.9090909090909,4,2,1,70,0,0

[Colours]
Combo1 : 220,145,95
Combo2 : 191,101,85
Combo3 : 233,179,16
Combo4 : 214,205,101

[HitObjects]
73,4,320,6,0,P|111:12|146:37,1,68,6|2,1:2|1:2,0:0:0:0:
211,70,664,2,0,P|252:59|279:40,1,68,10|8,0:0|3:0,0:0:0:0:
298,21,923,1,4,3:0:0:0:
298,21,1009,1,0,1:0:0:0:
329,114,1182,1,2,1:2:0:0:
270,178,1354,2,0,L|258:262,1,68,10|8,0:0|3:0,0:0:0:0:
259,283,1613,1,4,3:0:0:0:
259,283,1699,5,0,1:0:0:0:
175,220,1871,1,2,1:2:0:0:
103,269,2044,2,0,P|91:314|109:354,1,68,10|8,0:0|3:0,0:0:0:0:
111,369,2302,1,4,3:0:0:0:
111,369,2388,1,2,1:2:0:0:
194,344,2561,1,2,1:2:0:0:
273,379,2733,2,0,L|398:356,1,102,10|4,0:0|3:0,0:0:0:0:
403,285,3078,6,0,L|420:377,1,68,6|2,1:2|1:2,0:0:0:0:
498,308,3423,2,0,L|485:241,1,68,10|8,0:0|3:0,0:0:0:0:
482,211,3682,1,4,3:0:0:0:
482,211,3768,1,0,1:0:0:0:
508,128,3940,1,2,1:2:0:0:
450,63,4113,2,0,P|420:43|374:40,1,68,10|8,0:0|3:0,0:0:0:0:
358,43,4371,1,4,3:0:0:0:
358,43,4457,5,0,1:0:0:0:
277,4,4630,1,2,1:2:0:0:
251,86,4802,1,10,0:0:0:0:
187,143,4975,1,8,3:0:0:0:
187,143,5061,1,4,3:0:0:0:
187,143,5147,2,0,B|92:132|92:132|44:151,1,136,2|8,1:2|0:0,0:0:0:0:
10,222,5664,1,8,3:0:0:0:
121,322,5837,6,0,P|88:312|61:292,1,68,6|2,1:2|1:2,0:0:0:0:
97,213,6182,2,0,P|130:209|163:217,1,68,10|8,0:0|3:0,0:0:0:0:
198,233,6440,1,4,3:0:0:0:
198,233,6526,1,0,1:0:0:0:
272,187,6699,1,2,1:2:0:0:
287,102,6871,2,0,P|274:66|256:36,1,68,10|8,0:0|3:0,0:0:0:0:
242,16,7130,1,4,3:0:0:0:
242,16,7216,5,0,1:0:0:0:
154,2,7388,1,2,1:2:0:0:
96,66,7561,2,0,P|125:98|160:111,1,68,10|8,0:0|3:0,0:0:0:0:
184,118,7820,1,4,3:0:0:0:
184,118,7906,1,2,1:2:0:0:
263,84,8078,1,2,1:2:0:0:
300,6,8251,2,0,P|355:7|408:43,1,102,10|4,0:0|3:0,0:0:0:0:
418,54,8595,6,0,P|454:72|478:107,1,68,2|2,1:2|1:2,0:0:0:0:
495,176,8940,2,0,P|472:201|441:214,1,68,10|8,0:0|3:0,0:0:0:0:
411,224,9199,1,4,3:0:0:0:
411,224,9285,1,0,1:0:0:0:
351,287,9457,1,2,1:2:0:0:
273,249,9630,2,0,P|261:209|246:174,1,68,10|8,0:0|3:0,0:0:0:0:
239,158,9888,1,4,3:0:0:0:
239,158,9975,5,0,1:0:0:0:
170,210,10147,2,0,P|160:242|148:274,2,68,2|10|8,1:2|0:0|3:0,0:0:0:0:
489,313,11354,6,0,P|450:346|401:363,1,85,6|2,1:2|0:0,0:0:0:0:
380,372,11613,1,2,0:0:0:0:
380,372,11699,1,10,0:0:0:0:
236,340,11871,2,0,B|270:379|270:379|295:326|294:259,1,170,2|2,0:0|0:0,0:0:0:0:
367,127,12388,2,0,P|373:170|376:212,1,85,10|2,0:0|0:0,0:0:0:0:
303,32,12733,5,2,1:2:0:0:
270,120,12906,1,2,0:0:0:0:
310,26,13078,1,10,0:0:0:0:
219,4,13251,2,0,P|168:5|82:80,1,170,2|2,0:0|0:0,0:0:0:0:
18,149,13768,2,0,P|30:188|67:225,1,85,10|0,0:0|0:0,0:0:0:0:
162,293,14113,5,2,1:2:0:0:
159,202,14285,1,2,0:0:0:0:
159,202,14371,1,2,0:0:0:0:
159,202,14457,1,10,0:0:0:0:
221,131,14630,2,0,P|264:137|305:146,1,85,2|2,0:0|1:2,0:0:0:0:
475,94,14975,2,0,P|433:100|391:108,2,85,2|10|2,0:0|0:0|0:0,0:0:0:0:
487,272,15492,5,2,1:2:0:0:
510,182,15664,1,2,0:0:0:0:
480,276,15837,1,10,0:0:0:0:
415,199,16009,2,0,B|392:237|342:262|342:262|343:304|332:350,1,170,2|2,0:0|0:0,0:0:0:0:
257,384,16526,1,10,0:0:0:0:
257,384,16613,1,8,3:0:0:0:
257,384,16699,1,4,3:0:0:0:
125,330,16871,6,0,P|176:316|204:280,1,85,6|2,1:2|0:0,0:0:0:0:
213,256,17130,1,2,0:0:0:0:
213,256,17216,1,10,0:0:0:0:
160,132,17388,2,0,P|216:156|331:139,1,170,2|2,0:0|0:0,0:0:0:0:
479,113,17906,2,0,B|438:110|438:110|419:97|396:88,1,85,10|2,0:0|0:0,0:0:0:0:
231,5,18251,5,2,1:2:0:0:
317,42,18423,1,2,0:0:0:0:
222,6,18595,1,10,0:0:0:0:
133,35,18768,2,0,P|120:113|102:213,1,170,2|2,0:0|0:0,0:0:0:0:
14,229,19285,2,0,P|20:268|29:318,1,85,10|0,0:0|0:0,0:0:0:0:
166,274,19630,5,2,1:2:0:0:
121,359,19802,1,2,0:0:0:0:
121,359,19888,1,2,0:0:0:0:
121,359,19975,1,10,0:0:0:0:
211,383,20147,2,0,P|258:379|299:364,1,85,2|2,0:0|1:2,0:0:0:0:
358,236,20492,2,0,P|371:276|374:318,2,85,2|10|2,0:0|0:0|0:0,0:0:0:0:
289,173,21009,6,0,P|292:130|305:90,1,85,2|2,1:2|0:0,0:0:0:0:
367,20,21354,1,10,0:0:0:0:
375,34,21440,1,8,0:0:0:0:
383,48,21526,1,10,0:0:0:0:
391,62,21613,1,8,0:0:0:0:
399,76,21699,6,0,B|471:116|471:116|461:175,2,127.5,6|6|6,1:2|1:2|1:2,0:0:0:0:
255,9,22388,5,6,1:2:0:0:
255,9,22561,2,0,B|247:41|224:67|196:79|196:79|194:82|194:82|187:119,1,136,2|2,0:0|0:0,0:0:0:0:
241,188,23078,1,2,1:2:0:0:
241,188,23251,2,0,P|246:221|251:255,1,68,2|0,0:0|1:0,0:0:0:0:
323,344,23595,6,0,P|282:294|216:296,1,136,2|2,0:0|0:0,0:0:0:0:
169,367,24113,1,2,1:2:0:0:
169,367,24285,1,2,0:0:0:0:
67,325,24457,2,0,P|99:316|123:292,1,68,2|2,1:2|0:0,0:0:0:0:
152,218,24802,1,2,1:2:0:0:
128,124,24975,1,2,0:0:0:0:
27,64,25147,5,2,1:2:0:0:
27,64,25320,2,0,B|18:126|18:126|20:136|20:136|11:199,1,136,2|2,0:0|0:0,0:0:0:0:
58,284,25837,1,2,1:2:0:0:
58,284,26009,2,0,P|90:278|122:291,1,68,2|0,0:0|1:0,0:0:0:0:
233,379,26354,6,0,B|209:385|192:371|192:371|189:367|189:367|198:327|204:279,1,136,2|2,0:0|0:0,0:0:0:0:
264,221,26871,1,2,1:2:0:0:
264,221,27044,1,2,0:0:0:0:
174,181,27216,2,0,B|167:147|159:115,2,68,2|0|0,1:2|0:0|1:0,0:0:0:0:
170,94,27733,1,2,0:0:0:0:
44,41,27906,5,2,1:2:0:0:
44,41,28078,2,0,B|70:76|70:76|74:77|74:77|112:67|160:59,1,136,2|2,0:0|0:0,0:0:0:0:
254,43,28595,1,2,1:2:0:0:
254,43,28768,2,0,B|287:37|287:37|312:59,1,68,2|0,0:0|1:0,0:0:0:0:
433,110,29113,6,0,B|417:131|417:131|403:132|403:132|364:159|325:187,1,136,2|2,0:0|0:0,0:0:0:0:
300,272,29630,1,2,1:2:0:0:
300,272,29802,1,2,0:0:0:0:
331,377,29975,2,0,P|364:374|392:354,1,68,2|2,1:2|0:0,0:0:0:0:
429,285,30320,1,2,1:2:0:0:
383,201,30492,1,2,0:0:0:0:
443,94,30664,5,2,1:2:0:0:
443,94,30837,2,0,B|456:70|456:70|437:11|375:9,1,136,2|2,0:0|0:0,0:0:0:0:
285,28,31354,1,2,1:2:0:0:
285,28,31526,2,0,P|262:52|229:62,1,68,2|0,0:0|1:0,0:0:0:0:
132,137,31871,6,0,P|197:134|239:184,1,136,2|2,0:0|0:0,0:0:0:0:
263,272,32388,2,0,P|254:305|247:339,1,68,2|2,1:2|0:0,0:0:0:0:
151,384,32733,1,2,1:2:0:0:
131,302,32906,1,2,0:0:0:0:
56,265,33078,2,0,B|22:261|22:261|0:285,1,68,2|2,1:2|0:0,0:0:0:0:
151,219,33423,6,0,P|142:177|131:136,1,85,6|2,1:2|0:0,0:0:0:0:
112,102,33682,1,2,0:0:0:0:
112,102,33768,1,10,0:0:0:0:
244,168,33940,2,0,B|302:175|359:184|359:184|380:163|370:136,1,170,2|2,0:0|0:0,0:0:0:0:
267,22,34457,2,0,P|225:28|182:33,1,85,10|2,0:0|0:0,0:0:0:0:
28,96,34802,5,2,1:2:0:0:
9,0,34975,1,2,0:0:0:0:
16,106,35147,1,10,0:0:0:0:
100,175,35320,2,0,B|94:211|94:211|55:280|55:280|68:305|60:332,1,170,2|2,0:0|0:0,0:0:0:0:
141,377,35837,2,0,P|162:341|201:326,1,85,10|0,0:0|0:0,0:0:0:0:
326,344,36182,5,2,1:2:0:0:
270,275,36354,1,2,0:0:0:0:
270,275,36440,1,2,0:0:0:0:
270,275,36526,1,10,0:0:0:0:
341,213,36699,2,0,P|331:172|321:131,1,85,2|2,0:0|1:2,0:0:0:0:
451,227,37044,2,0,P|440:268|431:309,2,85,2|10|2,0:0|0:0|0:0,0:0:0:0:
499,131,37561,5,2,1:2:0:0:
475,41,37734,1,2,0:0:0:0:
512,143,37906,1,10,0:0:0:0:
438,215,38078,2,0,P|403:191|361:195,1,85,2|0,0:0|1:0,0:0:0:0:
300,267,38423,1,2,0:0:0:0:
300,267,38509,1,10,0:0:0:0:
300,267,38595,2,0,P|305:287|310:308,3,42.5,2|8|8|4,1:2|0:0|3:0|3:0,0:0:0:0:
385,379,38940,5,6,1:2:0:0:
385,379,39113,2,0,B|393:343|419:313|454:300|454:300|460:256,1,152.999995330811,2|2,0:0|0:0,0:0:0:0:
431,180,39630,1,2,1:2:0:0:
431,180,39802,2,0,P|394:175|362:194,1,76.4999976654053,2|8,0:0|0:0,0:0:0:0:
273,285,40147,6,0,B|203:282|181:216|181:216|195:190,1,152.999995330811,2|2,0:0|0:0,0:0:0:0:
238,116,40664,1,10,0:0:0:0:
238,116,40837,1,2,0:0:0:0:
154,54,41009,2,0,P|131:83|131:120,1,76.4999976654053,2|2,1:2|0:0,0:0:0:0:
195,190,41354,1,10,0:0:0:0:
228,287,41526,1,2,0:0:0:0:
158,384,41699,5,2,1:2:0:0:
158,384,41871,2,0,B|167:314|167:314|165:303|165:303|175:232,1,152.999995330811,2|2,0:0|0:0,0:0:0:0:
122,164,42388,1,2,1:2:0:0:
122,164,42561,2,0,P|85:158|53:177,1,76.4999976654053,2|8,0:0|0:0,0:0:0:0:
154,54,42906,6,0,B|182:61|210:68|210:68|242:96|242:96|263:82|291:86,1,152.999995330811,2|2,0:0|0:0,0:0:0:0:
372,49,43423,1,10,0:0:0:0:
372,49,43595,1,2,0:0:0:0:
431,128,43768,2,0,P|394:136|357:146,1,76.4999976654053,0|0,1:0|0:0,0:0:0:0:
310,231,44113,1,8,0:0:0:0:
310,231,44199,1,8,0:0:0:0:
310,231,44285,2,0,P|291:224|273:220,1,38.2499988327027,4|4,3:0|3:0,0:0:0:0:
359,324,44457,5,6,1:2:0:0:
359,324,44630,2,0,B|370:339|384:354|384:354|388:352|388:352|396:296|407:244,1,152.999995330811,2|2,0:0|0:0,0:0:0:0:
445,156,45147,1,2,1:2:0:0:
445,156,45320,2,0,P|471:129|508:126,1,76.4999976654053,2|8,0:0|0:0,0:0:0:0:
334,178,45664,6,0,P|279:130|208:151,1,152.999995330811,2|2,0:0|0:0,0:0:0:0:
160,221,46182,1,10,0:0:0:0:
160,221,46354,1,2,0:0:0:0:
108,298,46526,2,0,P|71:288|33:279,1,76.4999976654053,2|2,1:2|0:0,0:0:0:0:
0,204,46871,1,10,0:0:0:0:
20,105,47044,1,2,0:0:0:0:
113,29,47216,5,2,1:2:0:0:
113,29,47388,2,0,B|131:36|142:50|142:50|200:40|257:33,1,152.999995330811,2|2,0:0|0:0,0:0:0:0:
345,90,47906,1,2,1:2:0:0:
345,90,48078,2,0,P|307:95|283:124,1,76.4999976654053,2|8,0:0|0:0,0:0:0:0:
247,200,48423,6,0,B|252:238|252:238|267:270|267:270|264:297|264:297|277:319|275:347,1,152.999995330811,2|2,0:0|0:0,0:0:0:0:
193,384,48940,2,0,P|155:379|131:350,1,76.4999976654053,10|2,0:0|0:0,0:0:0:0:
148,249,49285,1,10,0:0:0:0:
148,249,49371,2,0,B|136:239|136:239|117:238|83:225|83:225|77:210,1,85,8|8,0:0|3:0,0:0:0:0:
68,178,49630,1,10,0:0:0:0:
72,157,49717,1,8,0:0:0:0:
76,136,49803,1,8,0:0:0:0:
80,115,49889,1,8,0:0:0:0:
70,81,49975,6,0,P|114:66|167:53,1,93.5000028533936,6|2,1:2|0:0,0:0:0:0:
240,5,50233,1,2,0:0:0:0:
240,5,50320,2,0,P|200:33|199:84,1,93.5000028533936,2|2,1:2|0:0,0:0:0:0:
234,165,50578,1,2,0:0:0:0:
234,165,50664,1,2,1:2:0:0:
392,186,50837,1,2,1:2:0:0:
476,260,51009,1,2,0:0:0:0:
358,157,51182,6,0,B|345:202|345:202|291:258|291:258|311:282|327:322,1,187.000005706787,2|2,1:2|1:2,0:0:0:0:
411,380,51699,2,0,P|462:379|511:361,1,93.5000028533936,2|2,0:0|1:2,0:0:0:0:
343,308,52044,1,2,1:2:0:0:
187,285,52216,1,0,1:0:0:0:
333,346,52388,1,2,1:2:0:0:
422,277,52561,1,2,0:0:0:0:
225,383,52733,6,0,L|214:283,1,93.5000028533936,2|2,1:2|0:0,0:0:0:0:
114,237,52992,1,2,0:0:0:0:
114,237,53078,2,0,L|21:209,1,93.5000028533936,2|2,1:2|0:0,0:0:0:0:
122,331,53423,1,2,1:2:0:0:
201,192,53595,2,0,P|235:153|322:146,1,140.25000428009,2|0,1:2|0:0,0:0:0:0:
408,120,53940,6,0,B|329:104|329:104|314:108|314:108|225:60,1,187.000005706787,2|2,1:2|1:2,0:0:0:0:
138,4,54457,2,0,L|113:95,1,93.5000028533936,2|2,0:0|1:2,0:0:0:0:
18,209,54802,1,0,1:0:0:0:
163,276,54975,1,0,1:0:0:0:
199,162,55147,1,2,1:2:0:0:
199,162,55233,1,8,3:0:0:0:
199,162,55320,1,4,3:0:0:0:
304,319,55492,6,0,P|340:349|381:373,1,93.5000028533936,6|10,1:2|0:0,0:0:0:0:
464,384,55751,1,8,0:0:0:0:
464,384,55837,1,10,0:0:0:0:
361,233,56009,2,0,B|488:198|488:198|467:146,1,187.000005706787,6|8,1:2|3:0,0:0:0:0:
445,257,56526,1,4,3:0:0:0:
286,77,56699,6,0,B|314:13|314:13|346:86|346:86|332:102|327:118,1,187.000005706787,6|10,1:2|0:0,0:0:0:0:
329,203,57130,1,8,0:0:0:0:
329,203,57216,1,10,0:0:0:0:
204,311,57388,2,0,B|154:360|72:358|72:358|88:337|90:319,1,187.000005706787,6|8,1:2|3:0,0:0:0:0:
88,211,57906,1,8,3:0:0:0:
21,127,58078,1,4,3:0:0:0:
129,222,58251,5,14,0:0:0:0:
236,164,58423,1,0,1:0:0:0:
245,75,58595,5,10,0:0:0:0:
352,17,58767,1,2,1:2:0:0:
450,90,58940,6,0,P|458:149|440:197,1,93.5000028533936,8|0,0:0|1:0,0:0:0:0:
502,262,59199,1,0,1:0:0:0:
502,262,59285,2,0,P|470:298|416:324,1,93.5000028533936,10|0,0:0|1:0,0:0:0:0:
305,193,59630,6,0,P|328:287|348:382,2,191.250007295609,6|6|6,1:2|1:2|1:2,0:0:0:0:
299,259,60664,6,0,P|293:226|282:192,1,63.75,2|0,0:0|0:0,0:0:0:0:
192,194,61009,6,0,B|211:77|211:77|253:51,1,152.999995330811,6|0,1:2|0:0,0:0:0:0:
340,37,61354,2,0,P|289:32|240:17,1,101.999996887207,10|2,0:0|1:2,0:0:0:0:
22,31,61699,1,2,0:0:0:0:
123,14,61871,1,2,1:2:0:0:
123,14,61957,1,2,0:0:0:0:
123,14,62044,2,0,L|104:127,1,101.999996887207,10|2,0:0|1:2,0:0:0:0:
120,265,62388,5,2,1:2:0:0:
21,224,62561,1,2,1:2:0:0:
101,153,62733,2,0,B|154:150|193:182|193:182|191:188|191:188|227:226|278:228,1,203.999993774414,10|2,0:0|0:0,0:0:0:0:
369,234,63164,1,0,3:0:0:0:
369,234,63251,1,0,1:0:0:0:
472,340,63423,1,10,0:0:0:0:
373,375,63595,1,2,1:2:0:0:
511,242,63768,6,0,P|480:204|455:148,1,101.999996887207,6|2,1:2|1:2,0:0:0:0:
420,8,64113,2,0,P|398:54|366:93,1,101.999996887207,10|0,0:0|1:0,0:0:0:0:
210,176,64457,1,6,0:0:0:0:
243,14,64630,1,2,1:2:0:0:
243,14,64716,1,2,0:0:0:0:
243,14,64802,2,0,B|259:35|259:35|276:122,1,101.999996887207,10|2,0:0|1:2,0:0:0:0:
297,308,65147,5,6,1:2:0:0:
148,240,65320,1,2,1:2:0:0:
9,318,65492,1,10,0:0:0:0:
158,372,65664,1,2,1:2:0:0:
5,310,65837,2,0,P|16:247|65:210,1,101.999996887207,6|0,0:0|1:0,0:0:0:0:
129,66,66182,1,10,0:0:0:0:
104,58,66268,1,8,0:0:0:0:
79,51,66354,1,8,3:0:0:0:
55,44,66440,1,4,3:0:0:0:
31,38,66526,6,0,B|44:78|44:78|173:113,1,152.999995330811,6|0,1:2|0:0,0:0:0:0:
247,72,66871,2,0,P|205:98|183:155,1,101.999996887207,10|2,0:0|1:2,0:0:0:0:
355,5,67216,1,2,0:0:0:0:
351,107,67388,1,2,1:2:0:0:
351,107,67475,1,2,0:0:0:0:
351,107,67561,2,0,L|464:138,1,101.999996887207,10|2,0:0|1:2,0:0:0:0:
501,288,67906,5,2,1:2:0:0:
420,357,68078,1,2,1:2:0:0:
353,273,68251,2,0,B|341:247|335:217|335:217|297:329|297:329|268:344,1,203.999993774414,10|2,0:0|0:0,0:0:0:0:
190,374,68682,1,0,3:0:0:0:
190,374,68768,1,0,1:0:0:0:
68,280,68940,1,10,0:0:0:0:
49,177,69113,1,2,1:2:0:0:
20,372,69285,6,0,P|57:325|115:307,1,101.999996887207,6|2,1:2|0:0,0:0:0:0:
215,237,69630,1,2,1:2:0:0:
215,237,69716,1,8,0:0:0:0:
215,237,69802,2,0,L|156:222,1,50.9999984436036,8|8,0:0|0:0,0:0:0:0:
142,125,69975,5,10,1:2:0:0:
166,118,70061,1,8,0:0:0:0:
191,112,70147,1,10,0:0:0:0:
216,106,70233,1,10,0:0:0:0:
236,90,70320,1,10,1:2:0:0:
265,82,70406,1,8,0:0:0:0:
295,74,70492,1,10,0:0:0:0:
325,67,70578,1,8,0:0:0:0:
350,50,70664,6,0,B|328:28|328:28|291:32|291:32|251:21|251:21|242:14|242:14|201:17|201:17|158:3,2,203.999993774414,2|2|2,1:2|1:2|1:2,0:0:0:0:
11,188,72044,6,0,P|26:164|59:150,1,50.9999984436036,2|0,1:2|0:0,0:0:0:0:
87,77,72388,2,0,P|114:85|136:113,1,50.9999984436036,2|0,1:2|0:0,0:0:0:0:
213,127,72733,2,0,P|212:155|190:183,1,50.9999984436036,2|0,1:2|0:0,0:0:0:0:
366,361,73423,6,0,P|414:337|444:313,1,85,6|2,1:2|0:0,0:0:0:0:
470,289,73682,1,2,0:0:0:0:
470,289,73768,1,10,0:0:0:0:
497,144,73940,2,0,B|442:191|442:191|431:134|431:134|427:113|417:98,1,170,2|2,0:0|0:0,0:0:0:0:
268,84,74457,2,0,P|274:34|283:-9,1,85,10|2,0:0|0:0,0:0:0:0:
336,153,74802,5,2,1:2:0:0:
359,244,74975,1,2,0:0:0:0:
337,145,75147,1,10,0:0:0:0:
249,178,75320,2,0,P|178:204|77:217,1,170,2|2,0:0|0:0,0:0:0:0:
13,156,75837,2,0,B|4:114|4:114|26:76,1,85,10|0,0:0|0:0,0:0:0:0:
149,116,76182,5,2,1:2:0:0:
112,32,76354,1,2,0:0:0:0:
112,32,76440,1,2,0:0:0:0:
112,32,76526,1,10,0:0:0:0:
201,0,76699,2,0,P|246:11|294:16,1,85,2|2,0:0|1:2,0:0:0:0:
325,175,77044,2,0,P|330:133|341:92,2,85,2|10|2,0:0|0:0|0:0,0:0:0:0:
200,290,77561,5,2,1:2:0:0:
289,262,77733,1,2,0:0:0:0:
193,298,77906,1,10,0:0:0:0:
130,367,78078,2,0,P|68:344|32:246,1,170,2|2,0:0|0:0,0:0:0:0:
73,173,78595,1,10,0:0:0:0:
73,173,78682,1,8,3:0:0:0:
73,173,78768,1,4,3:0:0:0:
149,38,78940,6,0,L|49:22,1,85,6|2,1:2|0:0,0:0:0:0:
26,19,79199,1,2,0:0:0:0:
26,19,79285,1,10,0:0:0:0:
159,132,79457,2,0,B|299:154|299:154|326:116,1,170,2|2,0:0|0:0,0:0:0:0:
482,159,79975,2,0,B|416:149|416:149|399:173,1,85,10|2,0:0|0:0,0:0:0:0:
295,247,80320,5,2,1:2:0:0:
379,288,80492,1,2,0:0:0:0:
286,245,80664,1,10,0:0:0:0:
204,291,80837,2,0,P|224:344|335:371,1,170,2|2,0:0|0:0,0:0:0:0:
477,298,81354,2,0,P|488:339|497:397,1,85,10|0,0:0|0:0,0:0:0:0:
439,213,81699,5,2,1:2:0:0:
368,152,81871,1,2,0:0:0:0:
368,152,81957,1,2,0:0:0:0:
368,152,82044,1,10,0:0:0:0:
412,69,82216,2,0,P|442:37|498:20,1,85,2|2,0:0|1:2,0:0:0:0:
323,47,82561,2,0,P|293:15|237:-2,2,85,2|10|2,0:0|0:0|0:0,0:0:0:0:
270,125,83078,6,0,P|231:141|202:172,1,85,2|2,1:2|0:0,0:0:0:0:
190,265,83423,1,10,0:0:0:0:
173,269,83509,1,8,0:0:0:0:
157,274,83595,1,10,0:0:0:0:
141,279,83681,1,8,0:0:0:0:
125,285,83768,2,0,B|132:302|145:319|145:319|193:330|193:330|205:350|222:366,2,127.5,6|6|6,1:2|1:2|1:2,0:0:0:0:
21,195,84457,5,6,1:2:0:0:
21,195,84630,2,0,B|9:219|9:219|29:271,1,68,2|0,0:0|1:0,0:0:0:0:
52,338,84975,1,2,0:0:0:0:
145,196,85147,1,2,1:2:0:0:
145,196,85320,2,0,B|150:169|150:169|117:124,1,68,2|0,0:0|1:0,0:0:0:0:
146,54,85664,6,0,L|5:11,1,136,2|2,0:0|0:0,0:0:0:0:
154,47,86182,2,0,P|194:26|221:20,1,68,2|2,1:2|0:0,0:0:0:0:
304,10,86526,1,2,1:2:0:0:
304,10,86699,1,2,0:0:0:0:
381,51,86871,1,2,1:2:0:0:
401,144,87044,1,2,0:0:0:0:
367,255,87216,5,2,1:2:0:0:
367,255,87388,2,0,P|351:227|310:218,1,68,2|0,0:0|1:0,0:0:0:0:
237,243,87733,1,2,0:0:0:0:
462,303,87906,1,2,1:2:0:0:
462,303,88078,2,0,P|470:271|447:236,1,68,2|0,0:0|1:0,0:0:0:0:
461,156,88423,6,0,B|504:103|504:103|452:44,1,136,2|2,0:0|0:0,0:0:0:0:
351,59,88940,2,0,B|372:32|372:32|346:3,1,68,2|2,1:2|0:0,0:0:0:0:
263,1,89285,2,0,P|243:51|218:145,1,136,2|0,1:2|1:0,0:0:0:0:
213,215,89802,1,2,0:0:0:0:
278,359,89975,5,2,1:2:0:0:
278,359,90147,2,0,B|286:378|286:378|305:324,1,68,2|0,0:0|1:0,0:0:0:0:
291,249,90492,1,2,0:0:0:0:
128,212,90664,1,2,1:2:0:0:
128,212,90837,2,0,P|90:217|51:228,1,68,2|0,0:0|1:0,0:0:0:0:
9,292,91182,6,0,B|56:378|56:378|65:358|86:344,1,136,2|2,0:0|0:0,0:0:0:0:
153,305,91699,2,0,P|184:289|209:258,1,68,2|2,1:2|0:0,0:0:0:0:
291,249,92044,2,0,P|301:215|293:178,1,68,2|2,1:2|0:0,0:0:0:0:
242,115,92388,1,2,1:2:0:0:
272,26,92561,1,2,0:0:0:0:
156,7,92733,5,2,1:2:0:0:
156,7,92906,2,0,P|121:18|79:24,1,68,2|0,0:0|1:0,0:0:0:0:
5,28,93251,1,2,0:0:0:0:
105,153,93423,1,2,1:2:0:0:
105,153,93595,2,0,P|127:122|167:102,1,68,2|0,0:0|1:0,0:0:0:0:
225,63,93940,6,0,B|280:60|280:60|288:53|288:53|322:49|355:32,1,136,2|2,0:0|0:0,0:0:0:0:
436,4,94457,2,0,B|456:27|456:27|462:30|462:30|475:68,1,68,2|2,1:2|0:0,0:0:0:0:
490,152,94802,1,2,1:2:0:0:
391,205,94975,1,8,3:0:0:0:
494,162,95147,1,4,3:0:0:0:
462,63,95320,1,4,3:0:0:0:
403,235,95492,6,0,P|417:279|429:324,1,93.5000028533936,6|2,1:2|0:0,0:0:0:0:
503,373,95751,1,2,0:0:0:0:
503,373,95837,2,0,P|468:345|465:300,1,93.5000028533936,2|2,0:0|1:2,0:0:0:0:
501,224,96095,1,2,1:2:0:0:
501,224,96181,2,0,P|503:178|473:144,1,93.5000028533936,10|2,0:0|0:0,0:0:0:0:
393,112,96526,1,2,0:0:0:0:
269,189,96699,6,0,B|245:202|216:205|216:205|277:223|321:241|321:241|326:261,1,187.000005706787,2|2,1:2|1:2,0:0:0:0:
309,360,97216,1,2,0:0:0:0:
415,384,97388,1,2,1:2:0:0:
403,235,97561,1,10,0:0:0:0:
423,360,97906,1,2,1:2:0:0:
317,384,98078,1,2,0:0:0:0:
203,336,98251,6,0,P|159:322|114:310,1,93.5000028533936,2|2,1:2|0:0,0:0:0:0:
44,350,98509,1,2,0:0:0:0:
44,350,98595,1,2,0:0:0:0:
1,230,98768,2,0,P|16:248|38:256,1,46.7500014266968,2|0,1:2|1:0,0:0:0:0:
102,210,98940,1,10,0:0:0:0:
90,92,99113,2,0,P|104:136|116:181,1,93.5000028533936,2|0,0:0|1:0,0:0:0:0:
217,307,99457,6,0,B|195:253|228:219|228:219|236:219|236:219|268:186|314:202,1,187.000005706787,2|2,1:2|1:2,0:0:0:0:
381,257,99975,1,2,0:0:0:0:
484,150,100147,1,2,1:2:0:0:
484,150,100233,1,0,1:0:0:0:
484,150,100320,2,0,P|448:178|403:176,1,93.5000028533936,8|0,0:0|1:0,0:0:0:0:
305,16,100664,2,0,L|351:6,1,46.7500014266968,10|8,0:0|0:0,0:0:0:0:
333,114,100837,2,0,L|287:104,1,46.7500014266968,10|8,0:0|0:0,0:0:0:0:
200,137,101009,6,0,P|160:114|146:70,1,93.5000028533936,6|10,1:2|0:0,0:0:0:0:
190,4,101268,1,8,0:0:0:0:
190,4,101354,1,10,0:0:0:0:
292,190,101526,2,0,B|296:226|296:226|285:241|285:241|275:308|263:371,1,187.000005706787,6|8,1:2|3:0,0:0:0:0:
381,257,102044,1,4,3:0:0:0:
171,345,102216,6,0,B|82:362|55:278|55:278|72:270|82:254,1,187.000005706787,6|10,1:2|0:0,0:0:0:0:
97,177,102647,1,8,0:0:0:0:
97,177,102733,1,10,0:0:0:0:
272,376,102906,2,0,P|361:365|395:283,1,187.000005706787,6|8,1:2|3:0,0:0:0:0:
340,187,103423,1,4,3:0:0:0:
362,82,103595,1,4,3:0:0:0:
486,10,103768,5,14,0:0:0:0:
355,50,103940,1,0,1:0:0:0:
443,102,104113,5,10,0:0:0:0:
471,238,104285,1,2,1:2:0:0:
363,165,104457,6,0,P|319:151|274:139,1,93.5000028533936,8|0,0:0|1:0,0:0:0:0:
208,75,104716,1,0,1:0:0:0:
208,75,104802,2,0,P|162:87|118:101,1,93.5000028533936,10|0,0:0|1:0,0:0:0:0:
0,222,105147,6,0,B|23:254|60:278|60:278|60:287|60:287|115:275|152:311,2,191.250007295609,6|6|6,1:2|1:2|1:2,0:0:0:0:
364,5,106526,6,0,L|362:17,2,12.75,2|2|2,0:0|0:0|0:0,0:0:0:0:
494,190,107561,6,0,P|462:198|432:206,1,63.75,2|0,0:0|0:0,0:0:0:0:
373,275,107906,6,0,B|313:264|260:258|260:258|248:241|233:231,1,152.999995330811,6|0,1:2|0:0,0:0:0:0:
143,202,108251,2,0,P|193:203|228:167,1,101.999996887207,10|2,0:0|1:2,0:0:0:0:
196,0,108595,1,2,0:0:0:0:
264,81,108768,1,2,1:2:0:0:
264,81,108854,1,2,0:0:0:0:
264,81,108940,2,0,P|213:87|163:96,1,101.999996887207,10|2,0:0|1:2,0:0:0:0:
16,169,109285,5,2,1:2:0:0:
0,275,109457,1,2,1:2:0:0:
82,344,109630,2,0,B|106:323|107:290|107:290|161:319|167:381|167:381|182:384|182:384|191:372,1,203.999993774414,10|2,0:0|0:0,0:0:0:0:
266,328,110061,1,0,3:0:0:0:
266,328,110147,1,0,1:0:0:0:
143,202,110320,1,10,0:0:0:0:
130,101,110492,1,2,1:2:0:0:
329,154,110664,6,0,P|291:186|241:181,1,101.999996887207,6|2,1:2|1:2,0:0:0:0:
44,92,111009,2,0,P|82:124|132:119,1,101.999996887207,10|0,0:0|1:0,0:0:0:0:
276,0,111354,2,0,B|275:30|261:52|261:52|266:64|266:64|255:96,1,101.999996887207,6|2,0:0|1:2,0:0:0:0:
224,185,111613,1,2,0:0:0:0:
224,185,111699,2,0,B|232:219|233:252|233:252|241:258|241:258|244:282,1,101.999996887207,10|2,0:0|1:2,0:0:0:0:
403,368,112044,5,6,1:2:0:0:
485,227,112216,1,2,1:2:0:0:
335,164,112388,1,10,0:0:0:0:
480,240,112561,1,2,1:2:0:0:
322,384,112733,2,0,B|289:346|289:346|252:355|252:355|238:354,1,101.999996887207,6|0,0:0|1:0,0:0:0:0:
67,277,113078,1,10,0:0:0:0:
91,283,113165,1,8,0:0:0:0:
115,290,113251,1,8,3:0:0:0:
140,297,113337,1,4,3:0:0:0:
171,309,113423,6,0,B|174:276|174:276|204:211|204:211|191:189|197:164,1,152.999995330811,6|0,1:2|0:0,0:0:0:0:
257,88,113768,2,0,P|208:95|179:135,1,101.999996887207,10|2,0:0|1:2,0:0:0:0:
0,79,114113,1,2,0:0:0:0:
75,19,114285,1,2,1:2:0:0:
75,19,114371,1,2,0:0:0:0:
75,19,114457,2,0,P|81:69|88:120,1,101.999996887207,10|2,0:0|1:2,0:0:0:0:
23,280,114802,5,2,1:2:0:0:
64,379,114975,1,2,1:2:0:0:
155,323,115147,2,0,B|184:316|209:332|209:332|231:325|259:318|259:318|291:290|291:290|312:304|342:300,1,203.999993774414,10|2,0:0|0:0,0:0:0:0:
368,220,115578,1,0,3:0:0:0:
368,220,115664,1,0,1:0:0:0:
453,371,115836,1,10,0:0:0:0:
354,330,116009,1,2,1:2:0:0:
500,195,116182,6,0,P|459:166|452:116,1,101.999996887207,6|2,1:2|0:0,0:0:0:0:
512,7,116526,1,2,1:2:0:0:
512,7,116613,1,8,0:0:0:0:
512,7,116699,2,0,L|504:57,1,50.9999984436036,8|8,0:0|0:0,0:0:0:0:
366,98,116871,5,10,1:2:0:0:
342,91,116957,1,8,0:0:0:0:
317,85,117043,1,10,0:0:0:0:
292,79,117129,1,10,0:0:0:0:
272,63,117216,1,10,1:2:0:0:
243,55,117302,1,8,0:0:0:0:
213,47,117388,1,10,0:0:0:0:
183,40,117474,1,8,0:0:0:0:
158,23,117561,6,0,B|179:5|207:6|207:6|217:11|217:11|196:41|194:73|194:73|186:82|186:82|187:108|187:108|177:141,2,203.999993774414,2|2|2,1:2|1:2|1:2,0:0:0:0:
365,359,118940,6,0,P|386:333|418:323,1,68,6|2,1:2|1:2,0:0:0:0:
490,272,119285,2,0,P|468:246|436:236,1,68,10|8,0:0|3:0,0:0:0:0:
405,244,119544,1,4,3:0:0:0:
405,244,119630,1,0,1:0:0:0:
331,183,119802,1,2,1:2:0:0:
255,228,119975,2,0,P|238:257|241:290,1,68,10|8,0:0|3:0,0:0:0:0:
260,325,120233,1,4,3:0:0:0:
260,325,120320,5,0,1:0:0:0:
183,381,120492,1,2,1:2:0:0:
97,357,120664,2,0,P|80:327|83:294,1,68,10|8,0:0|3:0,0:0:0:0:
102,260,120922,1,4,3:0:0:0:
102,260,121009,1,2,1:2:0:0:
58,182,121182,1,2,1:2:0:0:
126,126,121354,2,0,B|146:144|179:142|179:142|183:140|183:140|198:147|222:148,1,102,10|4,0:0|3:0,0:0:0:0:
290,106,121699,6,0,P|293:72|297:38,1,68,6|2,1:2|1:2,0:0:0:0:
380,14,122044,2,0,P|383:47|387:81,1,68,10|8,0:0|3:0,0:0:0:0:
396,118,122302,1,4,3:0:0:0:
396,118,122388,1,0,1:0:0:0:
489,143,122561,1,2,1:2:0:0:
422,198,122733,2,0,P|418:232|414:266,1,68,10|8,0:0|3:0,0:0:0:0:
406,303,122991,1,4,3:0:0:0:
406,303,123077,5,0,1:0:0:0:
458,384,123251,1,2,1:2:0:0:
385,335,123423,1,10,0:0:0:0:
297,349,123595,1,8,3:0:0:0:
297,349,123682,1,4,3:0:0:0:
297,349,123768,2,0,B|277:375|237:369|237:369|237:363|237:363|207:379|175:366,1,136,2|8,1:2|0:0,0:0:0:0:
110,307,124285,1,8,3:0:0:0:
210,219,124457,6,0,P|193:249|196:282,1,68,6|2,1:2|1:2,0:0:0:0:
110,298,124802,2,0,P|103:263|79:239,1,68,10|8,0:0|3:0,0:0:0:0:
51,237,125061,1,4,3:0:0:0:
51,237,125147,1,0,1:0:0:0:
0,153,125320,1,2,1:2:0:0:
47,84,125492,2,0,P|80:72|113:81,1,68,10|8,0:0|3:0,0:0:0:0:
142,104,125751,1,4,3:0:0:0:
142,104,125837,5,0,1:0:0:0:
229,66,126009,1,2,1:2:0:0:
267,145,126182,2,0,P|269:178|252:207,1,68,10|8,0:0|3:0,0:0:0:0:
224,226,126440,1,4,3:0:0:0:
224,226,126526,1,2,1:2:0:0:
151,277,126699,1,2,1:2:0:0:
166,363,126871,2,0,B|193:359|208:343|208:343|229:358|244:382,1,102,10|4,0:0|3:0,0:0:0:0:
320,364,127216,6,0,P|324:330|329:296,1,68,2|2,1:2|1:2,0:0:0:0:
395,237,127561,2,0,P|364:222|348:193,1,68,10|8,0:0|3:0,0:0:0:0:
351,162,127820,1,4,3:0:0:0:
351,162,127906,1,0,1:0:0:0:
417,94,128078,1,2,1:2:0:0:
353,31,128251,2,0,P|319:28|290:45,1,68,10|8,0:0|3:0,0:0:0:0:
277,73,128510,1,4,3:0:0:0:
277,73,128596,1,0,1:0:0:0:
492,52,128768,5,10,0:0:0:0:
427,238,128940,1,10,0:0:0:0:
237,182,129113,1,10,0:0:0:0:
193,106,129285,6,0,L|167:110,7,25.4999992218018,2|2|2|2|2|2|2|2,0:0|0:0|0:0|0:0|0:0|0:0|0:0|0:0,0:0:0:0:
257,46,129975,6,0,B|290:18|290:18|312:33|319:59|319:59|356:64|391:75,1,170,6|8,1:2|0:0,0:0:0:0:
509,148,130492,2,0,B|481:160|457:185|457:185|461:205,1,85,2|0,1:2|0:0,0:0:0:0:
476,251,130751,1,0,3:0:0:0:
476,251,130837,1,0,1:0:0:0:
337,262,131009,2,0,B|345:224|353:180|353:180|376:173|385:152,1,127.5,10|0,0:0|0:0,0:0:0:0:
349,280,131354,6,0,B|323:280|302:298|302:298|302:271|289:250|289:250|257:265|223:250,1,170,6|8,1:2|0:0,0:0:0:0:
95,367,131871,2,0,B|123:355|147:330|147:330|143:310,1,85,2|0,1:2|0:0,0:0:0:0:
138,272,132130,1,0,3:0:0:0:
138,272,132216,1,2,1:2:0:0:
0,303,132388,2,0,L|9:262,1,42.5,10|0,0:0|0:0,0:0:0:0:
130,237,132561,1,2,1:2:0:0:
261,376,132733,5,6,1:2:0:0:
249,298,132906,1,2,1:2:0:0:
299,217,133078,1,10,0:0:0:0:
269,289,133251,1,2,1:2:0:0:
350,339,133423,2,0,B|411:322|454:287|454:287|464:290,2,127.5,2|2|2,0:0|0:0|1:2,0:0:0:0:
120,196,134113,6,0,B|101:184|100:163|100:163|157:187|205:205|205:205|211:220,1,170,6|8,1:2|0:0,0:0:0:0:
369,240,134630,2,0,P|330:223|310:186,1,85,0|0,1:0|0:0,0:0:0:0:
320,148,134888,1,0,3:0:0:0:
320,148,134975,1,0,1:0:0:0:
211,41,135147,1,8,0:0:0:0:
211,41,135233,1,8,0:0:0:0:
211,41,135320,2,0,P|214:61|218:82,1,42.5,4|4,3:0|3:0,0:0:0:0:
211,220,135492,5,6,1:2:0:0:
151,135,135664,1,2,0:0:0:0:
225,19,135837,1,2,1:2:0:0:
65,85,136009,1,2,0:0:0:0:
326,114,136182,5,2,1:2:0:0:
301,272,136354,2,0,P|280:235|242:219,1,85,2|2,1:2|0:0,0:0:0:0:
344,30,136699,2,0,B|389:38|437:47|437:47|445:53|445:53|481:50|498:20,2,170,2|2|2,1:2|1:2|1:2,0:0:0:0:
177,5,137561,5,2,1:2:0:0:
211,220,137733,1,2,1:2:0:0:
23,92,137906,2,0,P|65:84|107:75,1,85,2|2,1:2|0:0,0:0:0:0:
317,193,138251,6,0,B|308:236|308:236|312:275|312:275|298:303|298:303|303:330|291:356,2,170,2|0|0,1:2|1:2|1:2,0:0:0:0:
498,19,139113,1,0,1:2:0:0:
445,86,139228,6,0,P|423:69|413:43,2,56.6666666666667,2|2|6,0:0|0:0|1:2,0:0:0:0:
512,144,139572,5,2,0:0:0:0:
317,193,139802,5,8,3:0:0:0:
301,190,140147,5,4,3:0:0:0:
230,247,140492,5,8,0:0:0:0:
285,187,140664,1,8,3:0:0:0:
254,111,140837,2,0,P|251:78|266:48,1,68,4|0,3:0|0:0,0:0:0:0:
447,89,146182,6,0,P|475:107|494:138,1,63.75,2|0,0:0|0:0,0:0:0:0:
440,207,146526,6,0,B|350:241|350:241|335:238|335:238|325:288,1,152.999995330811,6|0,1:2|0:0,0:0:0:0:
273,366,146871,2,0,B|280:342|280:342|277:334|277:334|291:257,1,101.999996887207,10|2,0:0|1:2,0:0:0:0:
353,58,147216,1,2,0:0:0:0:
321,154,147388,1,2,1:2:0:0:
321,154,147475,1,2,0:0:0:0:
321,154,147561,2,0,P|273:122|222:106,1,101.999996887207,10|2,0:0|1:2,0:0:0:0:
84,48,147906,5,2,1:2:0:0:
184,10,148078,1,2,1:2:0:0:
79,39,148251,2,0,B|6:88|6:88|33:139|106:146,1,203.999993774414,10|2,0:0|0:0,0:0:0:0:
185,184,148682,1,0,3:0:0:0:
185,184,148768,1,0,1:0:0:0:
121,316,148940,1,10,0:0:0:0:
25,273,149113,1,2,1:2:0:0:
215,277,149285,6,0,P|227:323|247:375,1,101.999996887207,6|2,1:2|1:2,0:0:0:0:
353,204,149630,2,0,P|338:249|326:303,1,101.999996887207,10|0,0:0|1:0,0:0:0:0:
448,178,149975,1,6,0:0:0:0:
485,356,150147,1,2,1:2:0:0:
485,356,150233,1,2,0:0:0:0:
485,356,150320,2,0,P|474:303|411:284,1,101.999996887207,10|2,0:0|1:2,0:0:0:0:
509,96,150664,5,6,1:2:0:0:
369,16,150837,1,2,1:2:0:0:
343,174,151009,1,10,0:0:0:0:
487,106,151182,1,2,1:2:0:0:
334,178,151354,2,0,P|291:135|270:81,1,101.999996887207,6|0,0:0|1:0,0:0:0:0:
144,218,151699,1,10,0:0:0:0:
126,236,151785,1,8,0:0:0:0:
107,253,151871,1,8,3:0:0:0:
86,268,151957,1,4,3:0:0:0:
65,283,152043,5,14,0:0:0:0:
20,153,152216,1,0,1:0:0:0:
108,116,152388,5,10,0:0:0:0:
201,14,152561,1,2,1:2:0:0:
319,84,152733,6,0,L|217:138,1,101.999996887207,14|2,0:0|1:2,0:0:0:0:
184,226,152992,1,2,1:2:0:0:
184,226,153078,2,0,L|238:328,1,101.999996887207,10|2,0:0|1:2,0:0:0:0:
383,233,153423,5,14,0:0:0:0:
311,351,153595,1,2,1:2:0:0:
179,384,153768,2,0,P|125:377|76:334,1,101.999996887207,10|0,0:0|1:0,0:0:0:0:
18,172,154113,1,8,0:0:0:0:
18,172,154199,2,0,B|22:191|22:191|122:162,1,101.999996887207,0|0,1:0|1:0,0:0:0:0:
192,123,154457,2,0,B|188:142|188:142|88:113,1,101.999996887207,10|2,0:0|1:2,0:0:0:0:
299,184,154802,6,0,P|345:162|379:117,1,101.999996887207,6|2,1:2|0:0,0:0:0:0:
480,26,155147,1,2,1:2:0:0:
480,26,155233,1,8,0:0:0:0:
480,26,155320,2,0,P|479:52|466:85,1,50.9999984436036,8|8,0:0|0:0,0:0:0:0:
494,175,155492,5,10,1:2:0:0:
487,199,155578,1,8,0:0:0:0:
481,224,155664,1,10,0:0:0:0:
475,249,155750,1,10,0:0:0:0:
459,269,155837,1,10,1:2:0:0:
451,298,155923,1,8,0:0:0:0:
443,328,156009,1,10,0:0:0:0:
436,358,156095,1,8,0:0:0:0:
419,383,156182,6,0,B|480:355|480:355|482:351|482:351|508:338|508:338|442:313|442:313|441:308|441:308|411:297,2,203.999993774414,2|2|2,1:2|1:2|1:2,0:0:0:0:
249,37,157561,6,0,B|271:49|271:49|261:74,1,50.9999984436036,2|0,1:2|0:0,0:0:0:0:
207,141,157906,2,0,B|229:153|229:153|219:178,1,50.9999984436036,2|0,1:2|0:0,0:0:0:0:
165,245,158251,2,0,B|187:257|187:257|177:282,1,50.9999984436036,2|0,1:2|0:0,0:0:0:0:
48,15,158940,6,0,P|31:54|20:102,1,85,6|2,1:2|0:0,0:0:0:0:
21,141,159199,1,2,0:0:0:0:
22,141,159285,1,10,0:0:0:0:
57,291,159457,2,0,B|41:268|33:237|33:237|3:291|51:343,1,170,2|2,0:0|0:0,0:0:0:0:
210,375,159975,2,0,P|261:363|319:356,1,85,10|2,0:0|0:0,0:0:0:0:
194,223,160320,5,2,1:2:0:0:
150,305,160492,1,2,0:0:0:0:
198,216,160664,1,10,0:0:0:0:
282,174,160837,2,0,P|361:145|463:113,1,170,2|2,0:0|0:0,0:0:0:0:
503,47,161354,2,0,P|481:17|435:3,1,85,10|0,0:0|0:0,0:0:0:0:
260,68,161699,5,2,1:2:0:0:
345,24,161871,1,2,0:0:0:0:
345,24,161957,1,2,0:0:0:0:
345,24,162044,1,10,0:0:0:0:
399,100,162216,2,0,L|424:200,1,85,2|2,0:0|1:2,0:0:0:0:
234,158,162561,2,0,L|209:258,2,85,2|10|2,0:0|0:0|0:0,0:0:0:0:
364,262,163078,5,2,1:2:0:0:
282,308,163251,1,2,0:0:0:0:
373,262,163423,1,10,0:0:0:0:
451,313,163595,2,0,B|456:343|472:368|472:368|506:324|505:261,1,170,2|2,0:0|0:0,0:0:0:0:
495,174,164113,1,10,0:0:0:0:
495,174,164199,1,8,3:0:0:0:
495,174,164285,1,4,3:0:0:0:
343,176,164457,6,0,P|299:157|245:140,1,85,6|2,1:2|0:0,0:0:0:0:
226,136,164716,1,2,0:0:0:0:
226,136,164802,1,10,0:0:0:0:
411,108,164975,2,0,P|367:50|273:14,1,170,2|2,0:0|0:0,0:0:0:0:
114,38,165492,2,0,B|142:15|142:15|154:80,1,85,10|2,0:0|0:0,0:0:0:0:
179,221,165837,5,2,1:2:0:0:
196,317,166009,1,2,0:0:0:0:
172,217,166182,1,10,0:0:0:0:
109,148,166354,2,0,B|32:137|32:137|18:230,1,170,2|2,0:0|0:0,0:0:0:0:
99,277,166871,2,0,L|84:382,1,85,10|0,0:0|0:0,0:0:0:0:
264,384,167216,5,2,1:2:0:0:
324,313,167388,1,2,0:0:0:0:
324,313,167475,1,2,0:0:0:0:
324,313,167561,1,10,0:0:0:0:
277,222,167733,2,0,L|343:161,1,85,2|2,0:0|1:2,0:0:0:0:
491,194,168078,2,0,L|428:136,2,85,2|10|2,0:0|0:0|0:0,0:0:0:0:
424,260,168595,6,0,L|486:317,1,85,2|2,1:2|0:0,0:0:0:0:
417,381,168940,1,10,0:0:0:0:
400,378,169026,1,8,0:0:0:0:
383,375,169112,1,10,0:0:0:0:
366,373,169198,1,8,0:0:0:0:
350,371,169285,6,0,B|311:385|261:380|261:380|252:361|236:348,2,127.5,6|6|6,1:2|1:2|1:2,0:0:0:0:
185,275,169975,6,0,B|196:222|230:157|230:157|224:148|224:148|233:80|206:15|206:15|167:97|167:97|189:184|254:237|254:237|269:228|287:224,1,561.000017120362,6|8,1:2|3:0,0:0:0:0:
320,221,171095,1,8,3:0:0:0:
320,221,171182,1,4,3:0:0:0:
