osu file format v14

[General]
AudioFilename: audio.mp3
AudioLeadIn: 0
PreviewTime: 60578
Countdown: 0
SampleSet: Soft
StackLeniency: 0.7
Mode: 0
LetterboxInBreaks: 0
WidescreenStoryboard: 1

[Editor]
Bookmarks: 22388,49975,95492,141009,141095,141182,141268,141354,141440,141526,141613,141699,141785,141871,141957,142044,142130,142216,142302,142388,142475,142561,142647,142733,142820,142906,142992,143078,143164,143251,143337,143423,143509,143595,143682,143768,143854,143940,144026,144113,144199,144285,144371,144457,144544,144630,144716,144802,144888,144975,145061,145147,145233,145320,145406,145492,145578,145664,145751,145837,145923,146009,146095,146182
DistanceSpacing: 0.1
BeatDivisor: 4
GridSize: 8
TimelineZoom: 2.6

[Metadata]
Title:Roppun no Ichi
TitleUnicode:六分の一
Artist:BUTAOTOME
ArtistUnicode:豚乙女
Creator:Orkay
Version:Collab Extra
Source:東方鬼形獣 ~ Wily Beast and Weakest Creature.
Tags:touhou 東方project th17 yachie kicchou ranko ランコ comp コンプ comiket 98 c98 少女煉獄 第五巻 shoujo rengoku daigokan japanese pop j-pop jpop rock one sixth トータスドラゴン ~ 幸運と不運 video game zun entry
BeatmapID:3144450
BeatmapSetID:1537925

[Difficulty]
HPDrainRate:5.8
CircleSize:4.1
OverallDifficulty:8.9
ApproachRate:9.2
SliderMultiplier:2
SliderTickRate:1

[Events]
//Background and Video events
0,0,"bg.jpg",0,0
//Break Periods
2,141209,145612
//Storyboard Layer 0 (Background)
//Storyboard Layer 1 (Fail)
//Storyboard Layer 2 (Pass)
//Storyboard Layer 3 (Foreground)
//Storyboard Layer 4 (Overlay)
//Storyboard Sound Samples

[TimingPoints]
320,344.827586206897,4,2,1,60,1,0
320,-111.111111111111,4,2,1,60,0,0
664,-125,4,2,1,60,0,0
3078,-111.111111111111,4,2,1,60,0,0
3423,-125,4,2,1,60,0,0
5837,-111.111111111111,4,2,1,60,0,0
6182,-125,4,2,1,60,0,0
10664,-200,4,2,1,50,0,0
11354,-90.9090909090909,4,2,1,70,0,0
11699,-100,4,2,1,70,0,0
12130,-100,4,2,1,5,0,0
12216,-100,4,2,1,70,0,0
13509,-100,4,2,1,5,0,0
13595,-100,4,2,1,70,0,0
16268,-100,4,2,1,5,0,0
16354,-100,4,2,1,70,0,0
16871,-90.9090909090909,4,2,1,70,0,0
17216,-100,4,2,1,70,0,0
17647,-100,4,2,1,5,0,0
17733,-100,4,2,1,70,0,0
19026,-100,4,2,1,5,0,0
19113,-100,4,2,1,70,0,0
21699,-90.9090909090909,4,2,1,70,0,0
21785,-90.9090909090909,4,2,1,5,0,0
21957,-90.9090909090909,4,2,1,70,0,0
22044,-90.9090909090909,4,2,1,5,0,0
22216,-90.9090909090909,4,2,1,70,0,0
22302,-90.9090909090909,4,2,1,5,0,0
22388,-125,4,2,1,50,0,0
27906,-125,4,2,1,55,0,0
33423,-90.9090909090909,4,2,1,70,0,0
33768,-100,4,2,1,70,0,0
38940,-111.111111111111,4,2,1,60,0,0
49285,-100,4,2,1,60,0,0
49975,-90.9090909090909,4,2,1,65,0,0
51440,-90.9090909090909,4,2,1,5,0,0
51526,-90.9090909090909,4,2,1,65,0,0
53854,-90.9090909090909,4,2,1,5,0,0
53940,-90.9090909090909,4,2,1,65,0,0
54199,-90.9090909090909,4,2,1,5,0,0
54285,-90.9090909090909,4,2,1,65,0,0
56268,-90.9090909090909,4,2,1,5,0,0
56354,-90.9090909090909,4,2,1,65,0,0
56957,-90.9090909090909,4,2,1,5,0,0
57044,-90.9090909090909,4,2,1,65,0,0
57647,-90.9090909090909,4,2,1,5,0,0
57733,-90.9090909090909,4,2,1,65,0,0
58251,-90.9090909090909,4,2,1,70,0,0
59630,-76.9230769230769,4,2,1,70,0,0
59802,-76.9230769230769,4,2,1,5,0,0
59888,-76.9230769230769,4,2,1,70,0,0
60061,-76.9230769230769,4,2,1,5,0,0
60147,-66.6666666666667,4,2,1,70,0,0
60233,-66.6666666666667,4,2,1,5,0,0
60664,-333.333333333333,4,2,1,60,0,0
60923,-333.333333333333,4,2,1,5,0,0
61009,-76.9230769230769,4,2,1,80,0,1
61268,-76.9230769230769,4,2,1,5,0,1
61354,-83.3333333333333,4,2,1,80,0,1
63768,-76.9230769230769,4,2,1,80,0,1
64113,-83.3333333333333,4,2,1,80,0,1
64457,-76.9230769230769,4,2,1,80,0,1
64802,-83.3333333333333,4,2,1,80,0,1
65147,-76.9230769230769,4,2,1,80,0,1
65492,-83.3333333333333,4,2,1,80,0,1
65837,-76.9230769230769,4,2,1,80,0,1
66182,-83.3333333333333,4,2,1,80,0,1
66526,-76.9230769230769,4,2,1,80,0,1
66785,-76.9230769230769,4,2,1,5,0,1
66871,-83.3333333333333,4,2,1,80,0,1
69285,-76.9230769230769,4,2,1,80,0,1
69630,-83.3333333333333,4,2,1,80,0,1
70664,-83.3333333333333,4,2,1,80,0,0
70751,-83.3333333333333,4,2,1,5,0,0
71009,-83.3333333333333,4,2,1,80,0,0
71095,-83.3333333333333,4,2,1,5,0,0
71354,-83.3333333333333,4,2,1,80,0,0
71440,-83.3333333333333,4,2,1,5,0,0
72044,-100,4,2,1,60,0,0
72130,-100,4,2,1,5,0,0
72388,-100,4,2,1,60,0,0
72475,-100,4,2,1,5,0,0
72733,-100,4,2,1,60,0,0
72820,-100,4,2,1,5,0,0
73423,-90.9090909090909,4,2,1,70,0,0
73768,-100,4,2,1,70,0,0
74199,-100,4,2,1,5,0,0
74285,-100,4,2,1,70,0,0
75578,-100,4,2,1,5,0,0
75664,-100,4,2,1,70,0,0
78337,-100,4,2,1,5,0,0
78423,-100,4,2,1,70,0,0
78940,-90.9090909090909,4,2,1,70,0,0
79285,-100,4,2,1,70,0,0
79716,-100,4,2,1,5,0,0
79802,-100,4,2,1,70,0,0
81095,-100,4,2,1,5,0,0
81182,-100,4,2,1,70,0,0
83768,-90.9090909090909,4,2,1,70,0,0
83854,-90.9090909090909,4,2,1,5,0,0
84026,-90.9090909090909,4,2,1,70,0,0
84113,-90.9090909090909,4,2,1,5,0,0
84285,-90.9090909090909,4,2,1,70,0,0
84371,-90.9090909090909,4,2,1,5,0,0
84457,-125,4,2,1,60,0,0
95492,-90.9090909090909,4,2,1,65,0,0
97820,-90.9090909090909,4,2,1,5,0,0
97906,-90.9090909090909,4,2,1,65,0,0
101526,-83.3333333333333,4,2,1,65,0,0
101785,-83.3333333333333,4,2,1,5,0,0
101871,-83.3333333333333,4,2,1,65,0,0
102216,-76.9230769230769,4,2,1,65,0,0
102475,-76.9230769230769,4,2,1,5,0,0
102561,-76.9230769230769,4,2,1,65,0,0
102906,-71.4285714285714,4,2,1,65,0,0
103164,-71.4285714285714,4,2,1,5,0,0
103251,-71.4285714285714,4,2,1,65,0,0
103768,-90.9090909090909,4,2,1,70,0,0
105147,-76.9230769230769,4,2,1,70,0,0
105320,-76.9230769230769,4,2,1,5,0,0
105406,-76.9230769230769,4,2,1,70,0,0
105578,-76.9230769230769,4,2,1,5,0,0
105664,-66.6666666666667,4,2,1,70,0,0
105751,-66.6666666666667,4,2,1,5,0,0
106526,-1000,4,2,1,60,0,0
107561,-333.333333333333,4,2,1,60,0,0
107820,-333.333333333333,4,2,1,5,0,0
107906,-76.9230769230769,4,2,1,80,0,1
108164,-76.9230769230769,4,2,1,5,0,1
108251,-76.9230769230769,4,2,1,80,0,1
113682,-76.9230769230769,4,2,1,5,0,1
113768,-76.9230769230769,4,2,1,80,0,1
117561,-83.3333333333333,4,2,1,80,0,0
117647,-83.3333333333333,4,2,1,5,0,0
117906,-83.3333333333333,4,2,1,80,0,0
117992,-83.3333333333333,4,2,1,5,0,0
118251,-83.3333333333333,4,2,1,80,0,0
118337,-83.3333333333333,4,2,1,5,0,0
118940,-111.111111111111,4,2,1,60,0,0
121354,-166.666666666666,4,2,1,60,0,0
121699,-111.111111111111,4,2,1,60,0,0
126871,-166.666666666666,4,2,1,60,0,0
127216,-111.111111111111,4,2,1,60,0,0
128768,-111.111111111111,4,2,1,70,0,0
129285,-200,4,2,1,50,0,0
129975,-100,4,2,1,70,0,0
131268,-100,4,2,1,5,0,0
131354,-100,4,2,1,70,0,0
139802,-100,4,2,1,60,0,0
140837,-125,4,2,1,60,0,0
141009,-125,4,2,1,40,0,0
146182,-333.333333333333,4,2,1,60,0,0
146440,-333.333333333333,4,2,1,5,0,0
146526,-76.9230769230769,4,2,1,80,0,1
146785,-76.9230769230769,4,2,1,5,0,1
146871,-83.3333333333333,4,2,1,80,0,1
149285,-76.9230769230769,4,2,1,80,0,1
149630,-83.3333333333333,4,2,1,80,0,1
149975,-76.9230769230769,4,2,1,80,0,1
150320,-83.3333333333333,4,2,1,80,0,1
150664,-76.9230769230769,4,2,1,80,0,1
151009,-83.3333333333333,4,2,1,80,0,1
151354,-76.9230769230769,4,2,1,80,0,1
151699,-83.3333333333333,4,2,1,80,0,1
152044,-76.9230769230769,4,2,1,80,0,1
152388,-83.3333333333333,4,2,1,80,0,1
154802,-76.9230769230769,4,2,1,80,0,1
155147,-83.3333333333333,4,2,1,80,0,1
156182,-83.3333333333333,4,2,1,80,0,0
156268,-83.3333333333333,4,2,1,5,0,0
156526,-83.3333333333333,4,2,1,80,0,0
156613,-83.3333333333333,4,2,1,5,0,0
156871,-83.3333333333333,4,2,1,80,0,0
156957,-83.3333333333333,4,2,1,5,0,0
157561,-100,4,2,1,60,0,0
157647,-100,4,2,1,5,0,0
157906,-100,4,2,1,60,0,0
157992,-100,4,2,1,5,0,0
158251,-100,4,2,1,60,0,0
158337,-100,4,2,1,5,0,0
158940,-90.9090909090909,4,2,1,70,0,0
159285,-100,4,2,1,70,0,0
159716,-100,4,2,1,5,0,0
159802,-100,4,2,1,70,0,0
161095,-100,4,2,1,5,0,0
161182,-100,4,2,1,70,0,0
163854,-100,4,2,1,5,0,0
163940,-100,4,2,1,70,0,0
164457,-90.9090909090909,4,2,1,70,0,0
164802,-100,4,2,1,70,0,0
165233,-100,4,2,1,5,0,0
165320,-100,4,2,1,70,0,0
166613,-100,4,2,1,5,0,0
166699,-100,4,2,1,70,0,0
169285,-90.9090909090909,4,2,1,70,0,0
169371,-90.9090909090909,4,2,1,5,0,0
169544,-90.9090909090909,4,2,1,70,0,0
169630,-90.9090909090909,4,2,1,5,0,0
169802,-90.9090909090909,4,2,1,70,0,0
169888,-90.9090909090909,4,2,1,5,0,0
169975,-83.3333333333333,4,2,1,70,0,0

[Colours]
Combo1 : 220,145,95
Combo2 : 191,101,85
Combo3 : 233,179,16
Combo4 : 214,205,101

[HitObjects]
453,384,320,6,0,P|462:345|476:298,1,89.9999972534181,6|2,1:2|1:2,0:0:0:0:
512,200,664,1,10,0:0:0:0:
425,242,837,1,8,3:0:0:0:
425,242,923,1,4,3:0:0:0:
424,242,1009,2,0,P|385:241|354:218,1,80,0|2,1:0|1:2,0:0:0:0:
364,85,1354,1,10,0:0:0:0:
278,146,1526,2,0,L|283:185,1,40,8|4,3:0|3:0,0:0:0:0:
207,100,1699,6,0,P|235:72|241:33,1,80,0|2,1:0|1:2,0:0:0:0:
353,0,2044,1,10,0:0:0:0:
414,53,2216,2,0,L|453:48,2,40,8|4|2,3:0|3:0|1:2,0:0:0:0:
343,109,2561,1,2,1:2:0:0:
406,204,2733,2,0,P|437:180|476:180,1,80,10|8,0:0|3:0,0:0:0:0:
276,299,3078,6,0,P|232:290|187:282,1,89.9999972534181,6|2,1:2|1:2,0:0:0:0:
57,306,3423,1,10,0:0:0:0:
120,251,3595,1,8,3:0:0:0:
120,251,3682,1,4,3:0:0:0:
120,251,3768,2,0,P|120:211|96:180,1,80,0|2,1:0|1:2,0:0:0:0:
190,85,4113,1,10,0:0:0:0:
270,127,4285,2,0,L|309:122,1,40,8|4,3:0|3:0,0:0:0:0:
258,208,4457,6,0,P|234:238|234:277,1,80,0|2,1:0|1:2,0:0:0:0:
271,384,4802,1,10,0:0:0:0:
190,357,4975,2,0,L|151:353,1,40,8|4,3:0|3:0,0:0:0:0:
337,330,5147,2,0,B|384:320|434:312|434:312|469:323|466:357,1,160,2|8,1:2|0:0,0:0:0:0:
512,264,5664,1,8,3:0:0:0:
410,105,5837,6,0,P|377:128|326:123,1,89.9999972534181,6|2,1:2|1:2,0:0:0:0:
246,35,6182,1,10,0:0:0:0:
168,90,6354,1,8,3:0:0:0:
168,90,6440,1,4,3:0:0:0:
168,90,6526,2,0,P|205:102|225:135,1,80,0|2,1:0|1:2,0:0:0:0:
206,261,6871,1,10,0:0:0:0:
264,338,7044,2,0,L|303:332,1,40,8|4,3:0|3:0,0:0:0:0:
193,383,7216,6,0,P|155:373|115:365,1,80,0|2,1:0|1:2,0:0:0:0:
5,269,7561,1,10,0:0:0:0:
13,347,7733,2,0,P|8:366|0:384,2,40,8|4|2,3:0|3:0|1:2,0:0:0:0:
87,289,8078,1,2,1:2:0:0:
35,195,8251,2,0,P|32:155|54:123,1,80,10|8,0:0|3:0,0:0:0:0:
199,202,8595,6,0,P|160:209|121:218,1,80,2|2,1:2|1:2,0:0:0:0:
39,304,8940,1,10,0:0:0:0:
101,384,9113,1,8,3:0:0:0:
101,384,9199,1,4,3:0:0:0:
101,384,9285,2,0,P|127:355|165:347,1,80,0|2,1:0|1:2,0:0:0:0:
333,370,9630,1,10,0:0:0:0:
252,384,9802,2,0,L|248:344,1,40,8|4,3:0|3:0,0:0:0:0:
303,248,9975,6,0,P|264:240|238:211,1,80,0|2,1:0|1:2,0:0:0:0:
224,90,10320,1,10,0:0:0:0:
309,36,10492,2,0,L|305:75,1,40,8|4,3:0|3:0,0:0:0:0:
387,171,10664,6,0,L|384:146,7,25,2|2|2|2|2|2|2|2,0:0|0:0|0:0|0:0|0:0|0:0|0:0|0:0,0:0:0:0:
512,0,11354,6,0,P|476:33|415:32,1,110.000003356934,6|2,1:2|0:0,0:0:0:0:
385,11,11613,1,2,0:0:0:0:
385,11,11699,1,10,0:0:0:0:
276,124,11871,2,0,B|345:126|367:189|367:189|349:214,1,150,2|0,0:0|0:0,0:0:0:0:
322,249,12216,1,2,0:0:0:0:
491,121,12388,1,10,0:0:0:0:
425,35,12561,2,0,P|401:25|383:8,1,50,2|0,0:0|3:0,0:0:0:0:
443,198,12733,6,0,P|453:246|463:295,1,100,2|2,1:2|0:0,0:0:0:0:
415,182,13078,1,10,0:0:0:0:
368,379,13251,2,0,P|297:374|266:309,1,150,2|0,0:0|0:0,0:0:0:0:
274,267,13595,1,2,0:0:0:0:
97,333,13768,2,0,P|144:340|176:377,1,100,10|0,0:0|0:0,0:0:0:0:
186,239,14113,6,0,P|197:190|206:141,1,100,2|2,1:2|0:0,0:0:0:0:
187,107,14371,1,2,0:0:0:0:
187,107,14457,1,10,0:0:0:0:
267,51,14630,2,0,P|261:27|257:3,1,50,2|0,0:0|3:0,0:0:0:0:
316,185,14802,1,2,1:2:0:0:
88,217,14975,1,2,0:0:0:0:
163,0,15147,1,10,0:0:0:0:
363,87,15320,1,2,0:0:0:0:
187,107,15492,6,0,P|139:100|107:64,1,100,2|2,1:2|0:0,0:0:0:0:
203,136,15837,1,10,0:0:0:0:
61,207,16009,2,0,B|22:197|1:162|1:162|-1:204|32:225,1,150,2|0,0:0|0:0,0:0:0:0:
72,235,16354,1,2,0:0:0:0:
106,62,16526,1,10,0:0:0:0:
87,32,16613,1,8,3:0:0:0:
57,15,16699,2,0,P|77:29|101:34,1,50,4|0,3:0|0:0,0:0:0:0:
337,5,16871,6,0,P|385:7|428:47,1,110.000003356934,6|2,1:2|0:0,0:0:0:0:
430,94,17130,1,2,0:0:0:0:
430,94,17216,1,10,0:0:0:0:
343,232,17388,2,0,P|327:158|310:85,1,150,2|0,0:0|0:0,0:0:0:0:
274,59,17733,1,2,0:0:0:0:
416,180,17906,1,10,0:0:0:0:
429,94,18078,2,0,P|434:69|439:44,1,50,2|0,0:0|3:0,0:0:0:0:
246,168,18251,6,0,P|198:161|166:125,1,100,2|2,1:2|0:0,0:0:0:0:
262,197,18596,1,10,0:0:0:0:
83,259,18768,2,0,P|154:252|193:311,1,150,2|0,0:0|0:0,0:0:0:0:
190,354,19113,1,2,0:0:0:0:
350,384,19285,2,0,P|398:371|447:363,1,100,10|0,0:0|0:0,0:0:0:0:
275,223,19630,6,0,P|262:175|284:131,1,100,2|2,1:2|0:0,0:0:0:0:
324,112,19888,1,2,0:0:0:0:
324,112,19975,1,10,0:0:0:0:
422,169,20147,2,0,P|399:177|381:194,1,50,2|0,0:0|3:0,0:0:0:0:
398,35,20320,1,2,1:2:0:0:
455,255,20492,1,2,0:0:0:0:
227,213,20664,1,10,0:0:0:0:
432,145,20837,1,2,0:0:0:0:
407,325,21009,5,2,1:2:0:0:
231,384,21182,1,2,0:0:0:0:
53,290,21355,1,10,0:0:0:0:
77,247,21441,1,8,0:0:0:0:
122,226,21527,1,10,0:0:0:0:
171,226,21613,1,8,0:0:0:0:
213,251,21699,6,0,P|209:279|205:306,1,55.0000016784668,6|0,1:2|0:0,0:0:0:0:
11,126,21957,6,0,P|15:153|19:180,1,55.0000016784668,6|0,1:2|0:0,0:0:0:0:
198,0,22216,6,0,P|193:27|188:54,1,55.0000016784668,6|0,1:2|0:0,0:0:0:0:
303,225,22388,5,6,1:2:0:0:
382,209,22561,2,0,P|332:195|298:220,1,80,2|0,0:0|1:0,0:0:0:0:
276,304,22906,1,2,0:0:0:0:
239,156,23078,1,2,1:2:0:0:
160,139,23251,2,0,P|195:124|232:137,1,80,2|0,0:0|1:0,0:0:0:0:
5,82,23595,6,0,L|94:65,1,80,2|0,0:0|1:0,0:0:0:0:
145,9,23940,1,2,0:0:0:0:
231,46,24113,1,2,1:2:0:0:
231,46,24199,1,0,0:0:0:0:
231,46,24285,1,2,0:0:0:0:
208,205,24457,1,2,1:2:0:0:
195,122,24630,1,2,0:0:0:0:
223,216,24802,1,2,1:2:0:0:
186,375,24975,1,2,0:0:0:0:
22,226,25147,5,2,1:2:0:0:
30,318,25320,2,0,L|36:238,1,80,2|0,0:0|1:0,0:0:0:0:
102,365,25664,1,2,0:0:0:0:
116,162,25837,1,2,1:2:0:0:
124,254,26010,2,0,L|130:174,1,80,2|0,0:0|1:0,0:0:0:0:
392,124,26354,6,0,P|344:65|274:91,1,160,2|2,0:0|0:0,0:0:0:0:
252,179,26871,1,2,1:2:0:0:
252,179,26957,1,0,0:0:0:0:
252,179,27044,1,2,0:0:0:0:
377,284,27216,2,0,P|364:236|370:194,2,80,2|0|0,1:2|0:0|1:0,0:0:0:0:
438,345,27733,1,2,0:0:0:0:
231,380,27906,5,2,1:2:0:0:
181,305,28078,2,0,P|219:335|242:374,1,80,2|0,0:0|1:0,0:0:0:0:
170,220,28423,1,2,0:0:0:0:
303,173,28595,1,2,1:2:0:0:
253,248,28767,2,0,P|291:218|314:179,1,80,2|0,0:0|1:0,0:0:0:0:
502,134,29113,6,0,L|480:51,1,80,2|0,0:0|1:0,0:0:0:0:
418,2,29457,1,2,0:0:0:0:
353,52,29630,1,2,1:2:0:0:
353,52,29716,1,0,0:0:0:0:
353,52,29802,1,2,0:0:0:0:
183,35,29975,1,2,1:2:0:0:
263,59,30147,1,2,0:0:0:0:
178,19,30320,1,2,1:2:0:0:
35,95,30492,1,2,0:0:0:0:
217,208,30664,5,2,1:2:0:0:
130,196,30837,2,0,L|217:226,1,80,2|0,0:0|1:0,0:0:0:0:
290,255,31182,1,2,0:0:0:0:
225,108,31354,1,2,1:2:0:0:
312,96,31527,2,0,L|225:126,1,80,2|0,0:0|1:0,0:0:0:0:
52,233,31871,6,0,B|47:223|47:223|5:261|17:323|64:349,1,160,2|2,0:0|0:0,0:0:0:0:
150,384,32388,1,2,1:2:0:0:
150,384,32475,1,0,0:0:0:0:
150,384,32561,1,2,0:0:0:0:
209,229,32733,1,2,1:2:0:0:
231,359,32906,1,2,0:0:0:0:
195,218,33078,1,2,1:2:0:0:
378,173,33251,1,2,0:0:0:0:
502,361,33423,6,0,P|457:334|396:311,1,110.000003356934,6|2,1:2|0:0,0:0:0:0:
363,325,33682,1,2,0:0:0:0:
363,325,33768,1,10,0:0:0:0:
282,117,33940,2,0,B|278:157|278:157|296:247|296:247|278:273|265:311,1,200,2|2,0:0|0:0,0:0:0:0:
217,381,34457,1,10,0:0:0:0:
178,221,34630,1,2,0:0:0:0:
178,221,34716,1,0,3:0:0:0:
178,221,34802,5,2,1:2:0:0:
280,98,34975,1,2,0:0:0:0:
165,232,35147,1,10,0:0:0:0:
224,18,35320,2,0,B|65:1|65:1|27:54,1,200,2|2,0:0|0:0,0:0:0:0:
42,222,35837,2,0,P|29:165|23:111,1,100,10|0,0:0|0:0,0:0:0:0:
96,304,36182,6,0,P|133:260|170:228,1,100,2|2,1:2|0:0,0:0:0:0:
207,226,36440,1,2,0:0:0:0:
207,226,36526,1,10,0:0:0:0:
287,163,36699,2,0,L|346:173,1,50,2|0,0:0|3:0,0:0:0:0:
140,139,36871,1,2,1:2:0:0:
213,322,37044,1,2,0:0:0:0:
401,284,37216,2,0,L|300:266,1,100,10|2,0:0|0:0,0:0:0:0:
483,98,37561,5,2,1:2:0:0:
494,257,37733,1,2,0:0:0:0:
467,88,37906,1,10,0:0:0:0:
273,181,38078,2,0,P|313:145|359:127,1,100,2|0,0:0|1:0,0:0:0:0:
404,291,38423,1,2,0:0:0:0:
404,291,38509,1,10,0:0:0:0:
404,291,38595,1,2,1:2:0:0:
407,331,38682,1,8,0:0:0:0:
411,370,38768,2,0,L|477:361,1,50,8|4,3:0|3:0,0:0:0:0:
243,263,38940,5,6,1:2:0:0:
297,375,39113,2,0,P|269:348|249:300,1,89.9999972534181,2|8,0:0|0:0,0:0:0:0:
235,180,39457,1,2,0:0:0:0:
162,320,39630,1,2,1:2:0:0:
108,208,39803,2,0,P|136:235|156:283,1,89.9999972534181,2|8,0:0|0:0,0:0:0:0:
323,149,40147,6,0,L|336:50,1,89.9999972534181,2|0,0:0|1:0,0:0:0:0:
406,6,40492,1,2,0:0:0:0:
320,166,40664,2,0,P|277:161|230:145,1,89.9999972534181,10|2,0:0|0:0,0:0:0:0:
115,15,41009,1,2,1:2:0:0:
7,118,41182,1,2,0:0:0:0:
130,2,41354,1,10,0:0:0:0:
196,157,41526,2,0,L|188:213,1,44.999998626709,2|0,0:0|3:0,0:0:0:0:
41,313,41699,5,2,1:2:0:0:
157,297,41871,2,0,L|58:282,1,89.9999972534181,2|8,0:0|0:0,0:0:0:0:
186,377,42216,1,2,0:0:0:0:
221,238,42388,1,2,1:2:0:0:
337,254,42560,2,0,L|238:268,1,89.9999972534181,2|8,0:0|0:0,0:0:0:0:
439,378,42906,6,0,B|431:346|418:312|418:312|453:271|480:216,1,179.999994506836,2|2,0:0|0:0,0:0:0:0:
493,131,43423,1,10,0:0:0:0:
427,5,43595,1,2,0:0:0:0:
389,127,43768,2,0,P|411:82|423:26,1,89.9999972534181,0|0,1:0|0:0,0:0:0:0:
315,176,44113,1,8,0:0:0:0:
280,166,44199,1,8,0:0:0:0:
245,156,44285,1,4,3:0:0:0:
235,165,44371,1,4,3:0:0:0:
225,174,44457,5,6,1:2:0:0:
156,275,44630,2,0,P|197:242|231:199,1,89.9999972534181,2|8,0:0|0:0,0:0:0:0:
182,106,44975,1,2,0:0:0:0:
315,176,45147,1,2,1:2:0:0:
384,75,45320,2,0,P|343:108|309:151,1,89.9999972534181,2|8,0:0|0:0,0:0:0:0:
288,343,45664,6,0,L|378:359,1,89.9999972534181,2|0,0:0|1:0,0:0:0:0:
447,304,46009,1,2,0:0:0:0:
270,341,46182,2,0,P|228:370|182:377,1,89.9999972534181,10|2,0:0|0:0,0:0:0:0:
329,252,46526,1,2,1:2:0:0:
190,195,46699,1,2,0:0:0:0:
346,260,46871,1,10,0:0:0:0:
262,111,47044,2,0,L|269:155,1,44.999998626709,2|0,0:0|3:0,0:0:0:0:
44,169,47216,5,2,1:2:0:0:
86,50,47388,2,0,P|58:92|46:142,1,89.9999972534181,2|8,0:0|0:0,0:0:0:0:
52,251,47733,1,2,0:0:0:0:
150,116,47906,1,2,1:2:0:0:
192,235,48078,2,0,P|164:193|152:143,1,89.9999972534181,2|8,0:0|0:0,0:0:0:0:
292,14,48423,6,0,B|371:32|371:32|385:42|385:42|466:61,1,179.999994506836,2|2,0:0|0:0,0:0:0:0:
310,160,48940,2,0,P|358:153|409:136,1,89.9999972534181,10|2,0:0|0:0,0:0:0:0:
207,44,49285,1,10,0:0:0:0:
207,44,49371,2,0,B|235:87|235:87|227:139,1,100,8|8,0:0|3:0,0:0:0:0:
171,197,49630,1,10,0:0:0:0:
176,236,49716,1,8,0:0:0:0:
182,276,49802,1,8,0:0:0:0:
187,315,49888,1,8,0:0:0:0:
193,355,49974,5,6,1:2:0:0:
289,384,50147,2,0,L|293:328,1,55.0000016784668,2|2,0:0|0:0,0:0:0:0:
79,150,50320,1,2,1:2:0:0:
0,209,50492,2,0,P|27:210|50:225,1,55.0000016784668,2|2,0:0|0:0,0:0:0:0:
69,373,50664,1,2,1:2:0:0:
158,102,50837,1,2,1:2:0:0:
96,24,51009,1,2,0:0:0:0:
161,270,51182,6,0,B|204:266|204:266|239:252|239:252|269:258|269:258|293:246|321:250,1,165.000005035401,2|0,1:2|0:0,0:0:0:0:
358,273,51526,1,2,1:2:0:0:
422,211,51699,1,2,0:0:0:0:
226,59,51871,1,2,1:2:0:0:
511,198,52044,1,2,1:2:0:0:
196,227,52216,1,0,1:0:0:0:
392,379,52388,2,0,P|337:369|283:361,1,110.000003356934,2|2,1:2|0:0,0:0:0:0:
11,245,52733,5,2,1:2:0:0:
96,173,52906,2,0,L|89:227,1,55.0000016784668,2|2,0:0|0:0,0:0:0:0:
317,340,53078,1,2,1:2:0:0:
300,250,53251,1,2,0:0:0:0:
67,323,53423,1,2,1:2:0:0:
392,379,53595,2,0,B|429:370|437:332|437:332|428:285|421:238,1,165.000005035401,2|0,1:2|0:0,0:0:0:0:
398,199,53940,6,0,B|383:174|360:165|360:165|387:108|432:79,1,165.000005035401,2|0,1:2|0:0,0:0:0:0:
452,40,54285,1,2,1:2:0:0:
512,121,54457,1,2,0:0:0:0:
235,17,54630,1,2,1:2:0:0:
322,247,54802,1,0,1:0:0:0:
56,287,54975,1,0,1:0:0:0:
102,8,55147,1,2,1:2:0:0:
108,44,55233,1,8,3:0:0:0:
114,80,55319,1,4,3:0:0:0:
0,366,55492,6,0,P|36:325|89:317,1,110.000003356934,6|10,1:2|0:0,0:0:0:0:
134,337,55751,1,8,0:0:0:0:
134,337,55837,1,10,0:0:0:0:
284,191,56009,2,0,B|208:203|182:132|182:132|207:108,1,165.000005035401,6|0,1:2|0:0,0:0:0:0:
224,67,56354,1,8,3:0:0:0:
183,0,56526,1,4,3:0:0:0:
294,204,56699,6,0,B|284:258|273:323|273:323|253:332|236:345,1,165.000005035401,6|0,1:2|0:0,0:0:0:0:
207,378,57044,1,10,0:0:0:0:
207,378,57130,1,8,0:0:0:0:
207,378,57216,1,10,0:0:0:0:
26,153,57388,2,0,P|105:155|150:221,1,165.000005035401,6|0,1:2|0:0,0:0:0:0:
143,261,57733,1,8,3:0:0:0:
248,381,57906,1,8,3:0:0:0:
372,367,58078,1,4,3:0:0:0:
325,83,58251,5,14,0:0:0:0:
66,232,58423,1,0,1:0:0:0:
26,153,58595,5,10,0:0:0:0:
340,280,58767,1,2,1:2:0:0:
296,359,58940,5,8,0:0:0:0:
187,80,59113,2,0,P|183:107|178:134,1,55.0000016784668,0|0,1:0|1:0,0:0:0:0:
136,380,59285,5,10,0:0:0:0:
423,237,59457,1,0,1:0:0:0:
173,73,59630,6,0,P|235:54|298:38,1,129.999994049073,6|0,1:2|0:0,0:0:0:0:
154,158,59888,6,0,P|90:142|27:130,1,129.999994049073,6|0,1:2|0:0,0:0:0:0:
179,240,60147,6,0,P|186:276|194:313,1,75.0000028610231,6|0,1:2|0:0,0:0:0:0:
499,199,60664,6,0,P|502:177|506:155,1,44.999998626709,2|0,0:0|0:0,0:0:0:0:
510,212,61009,6,0,B|514:246|491:268|491:268|445:257|402:242|402:242|382:251|366:262,1,194.999991073609,6|0,1:2|0:0,0:0:0:0:
311,312,61354,1,10,0:0:0:0:
205,251,61526,2,0,P|234:249|258:232,1,59.9999981689454,2|0,1:2|3:0,0:0:0:0:
409,325,61699,2,0,P|413:354|416:384,1,59.9999981689454,2|0,0:0|3:0,0:0:0:0:
328,187,61871,1,2,1:2:0:0:
334,143,61957,1,2,0:0:0:0:
340,99,62044,1,10,0:0:0:0:
321,320,62216,1,2,1:2:0:0:
79,185,62388,5,2,1:2:0:0:
135,332,62561,1,2,1:2:0:0:
365,254,62733,2,0,B|393:242|423:245|423:245|435:273|464:288,1,119.999996337891,10|0,0:0|1:0,0:0:0:0:
499,220,62992,1,0,3:0:0:0:
499,220,63078,2,0,P|502:190|506:160,1,59.9999981689454,2|0,0:0|3:0,0:0:0:0:
342,281,63250,1,0,1:0:0:0:
184,89,63423,1,10,0:0:0:0:
235,0,63595,1,2,1:2:0:0:
125,345,63768,5,6,1:2:0:0:
69,198,63941,1,2,1:2:0:0:
325,356,64113,2,0,B|334:313|342:281|342:281|329:262|304:264,1,119.999996337891,10|0,0:0|1:0,0:0:0:0:
232,285,64371,1,0,3:0:0:0:
232,285,64457,2,0,P|200:283|174:265,1,64.9999970245363,6|0,0:0|3:0,0:0:0:0:
233,27,64630,1,2,1:2:0:0:
243,107,64716,1,2,0:0:0:0:
253,187,64802,1,10,0:0:0:0:
217,12,64975,1,2,1:2:0:0:
367,218,65147,5,6,1:2:0:0:
459,192,65320,1,2,1:2:0:0:
173,264,65492,1,10,0:0:0:0:
76,235,65664,2,0,P|106:237|130:254,1,59.9999981689454,2|0,1:2|3:0,0:0:0:0:
319,384,65837,2,0,P|325:352|332:320,1,64.9999970245363,6|0,0:0|3:0,0:0:0:0:
459,192,66009,1,0,1:0:0:0:
108,95,66182,1,10,0:0:0:0:
134,21,66268,1,8,0:0:0:0:
206,2,66355,1,8,3:0:0:0:
262,28,66441,1,4,3:0:0:0:
275,65,66526,6,0,B|269:116|269:116|251:157|251:157|258:193|258:193|243:222|247:253,1,194.999991073609,6|0,1:2|0:0,0:0:0:0:
228,329,66871,1,10,0:0:0:0:
99,215,67044,2,0,P|128:212|152:195,1,59.9999981689454,2|0,1:2|3:0,0:0:0:0:
387,261,67216,2,0,P|357:258|333:241,1,59.9999981689454,2|0,0:0|3:0,0:0:0:0:
447,104,67388,1,2,1:2:0:0:
453,148,67474,1,2,0:0:0:0:
459,192,67561,1,10,0:0:0:0:
405,0,67733,1,2,1:2:0:0:
197,89,67906,5,2,1:2:0:0:
342,161,68078,1,2,1:2:0:0:
95,245,68251,2,0,B|99:205|105:166|105:166|91:151|84:131,1,119.999996337891,10|0,0:0|1:0,0:0:0:0:
52,63,68509,1,0,3:0:0:0:
52,63,68595,2,0,P|57:33|62:4,1,59.9999981689454,2|0,0:0|3:0,0:0:0:0:
117,268,68768,1,0,1:0:0:0:
350,190,68940,1,10,0:0:0:0:
205,118,69112,1,2,1:2:0:0:
320,365,69285,6,0,P|344:344|376:338,1,64.9999970245363,6|0,1:2|0:0,0:0:0:0:
478,284,69457,2,0,P|447:280|423:258,1,64.9999970245363,2|0,0:0|0:0,0:0:0:0:
350,190,69630,2,0,P|344:160|338:131,3,59.9999981689454,2|8|8|8,1:2|0:0|0:0|0:0,0:0:0:0:
270,255,69975,5,10,1:2:0:0:
219,259,70061,1,8,0:0:0:0:
168,263,70147,1,10,0:0:0:0:
117,268,70233,1,10,0:0:0:0:
84,313,70320,5,10,1:2:0:0:
144,317,70406,1,8,0:0:0:0:
205,322,70492,1,10,0:0:0:0:
266,328,70578,1,8,0:0:0:0:
320,365,70664,6,0,P|342:346|371:339,1,59.9999981689454,2|0,1:2|0:0,0:0:0:0:
73,160,71009,6,0,P|78:189|71:218,1,59.9999981689454,2|0,1:2|0:0,0:0:0:0:
374,49,71354,6,0,P|346:39|325:18,1,59.9999981689454,2|0,1:2|0:0,0:0:0:0:
189,268,72044,6,0,P|212:275|230:292,1,50,2|0,1:2|0:0,0:0:0:0:
217,95,72388,6,0,P|200:113|177:120,1,50,2|0,1:2|0:0,0:0:0:0:
353,206,72734,6,0,P|348:182|353:158,1,50,2|0,1:2|0:0,0:0:0:0:
153,28,73423,6,0,P|147:83|141:137,1,110.000003356934,6|2,1:2|0:0,0:0:0:0:
137,180,73682,1,2,0:0:0:0:
137,180,73768,1,10,0:0:0:0:
44,317,73940,2,0,B|34:278|-1:257|-1:257|41:255|61:287,1,150,2|0,0:0|0:0,0:0:0:0:
90,321,74285,1,2,0:0:0:0:
39,121,74457,1,10,0:0:0:0:
137,180,74630,2,0,P|160:171|178:154,1,50,2|0,0:0|3:0,0:0:0:0:
351,100,74802,6,0,P|301:97|264:65,1,100,2|2,1:2|0:0,0:0:0:0:
363,127,75147,1,10,0:0:0:0:
162,23,75320,2,0,B|172:73|180:127|180:127|189:139|189:139|185:168,1,150,2|0,0:0|0:0,0:0:0:0:
176,211,75664,1,2,0:0:0:0:
381,237,75837,2,0,P|331:240|294:272,1,100,10|0,0:0|0:0,0:0:0:0:
209,383,76182,6,0,P|201:333|193:284,1,100,2|2,1:2|0:0,0:0:0:0:
165,252,76440,1,2,0:0:0:0:
165,252,76526,1,10,0:0:0:0:
255,197,76699,2,0,P|259:172|264:148,1,50,2|0,0:0|3:0,0:0:0:0:
364,313,76871,1,2,1:2:0:0:
512,145,77044,1,2,0:0:0:0:
272,117,77216,1,10,0:0:0:0:
230,328,77389,1,2,0:0:0:0:
381,237,77561,6,0,P|378:187|346:150,1,100,2|2,1:2|0:0,0:0:0:0:
407,258,77906,1,10,0:0:0:0:
203,362,78078,2,0,B|185:337|185:337|207:274|276:272,1,150,2|0,0:0|0:0,0:0:0:0:
321,280,78423,1,2,0:0:0:0:
155,222,78595,1,10,0:0:0:0:
125,241,78682,1,8,3:0:0:0:
108,271,78768,2,0,P|122:251|127:227,1,50,4|0,3:0|0:0,0:0:0:0:
3,23,78940,6,0,P|28:70|78:89,1,110.000003356934,6|2,1:2|0:0,0:0:0:0:
127,82,79199,1,2,0:0:0:0:
127,82,79285,1,10,0:0:0:0:
15,212,79457,2,0,P|31:285|47:358,1,150,2|0,0:0|0:0,0:0:0:0:
85,384,79802,1,2,0:0:0:0:
259,289,79975,1,10,0:0:0:0:
210,225,80147,2,0,P|214:200|219:175,1,50,2|0,0:0|3:0,0:0:0:0:
371,309,80320,6,0,P|326:329|305:374,1,100,2|2,1:2|0:0,0:0:0:0:
386,282,80664,1,10,0:0:0:0:
219,175,80837,2,0,B|229:106|294:92|294:92|319:110,1,150,2|0,0:0|0:0,0:0:0:0:
355,140,81182,1,2,0:0:0:0:
252,274,81354,2,0,P|203:263|153:254,1,100,10|0,0:0|0:0,0:0:0:0:
3,148,81699,6,0,P|52:148|89:115,1,100,2|2,1:2|0:0,0:0:0:0:
97,71,81957,1,2,0:0:0:0:
97,71,82044,1,10,0:0:0:0:
183,3,82216,2,0,P|206:9|224:27,1,50,2|0,0:0|3:0,0:0:0:0:
280,151,82388,1,2,1:2:0:0:
81,260,82561,1,2,0:0:0:0:
309,297,82733,1,10,0:0:0:0:
194,115,82906,1,2,0:0:0:0:
11,180,83078,5,2,1:2:0:0:
105,331,83251,1,2,0:0:0:0:
326,269,83423,1,10,0:0:0:0:
302,226,83509,1,8,0:0:0:0:
257,205,83595,1,10,0:0:0:0:
208,205,83682,1,8,0:0:0:0:
165,231,83768,6,0,P|169:258|174:285,1,55.0000016784668,6|0,1:2|0:0,0:0:0:0:
374,123,84026,6,0,P|370:150|366:177,1,55.0000016784668,6|0,1:2|0:0,0:0:0:0:
182,2,84285,6,0,P|187:29|192:56,1,55.0000016784668,6|0,1:2|0:0,0:0:0:0:
77,227,84457,5,6,1:2:0:0:
17,172,84630,2,0,P|56:170|85:195,1,80,2|0,0:0|1:0,0:0:0:0:
55,322,84974,1,2,0:0:0:0:
224,303,85147,1,2,1:2:0:0:
164,358,85320,2,0,P|203:360|232:335,1,80,2|0,0:0|1:0,0:0:0:0:
359,231,85664,6,0,B|302:223|249:214|249:214|238:186|253:167,1,160,2|2,0:0|0:0,0:0:0:0:
310,105,86182,1,2,1:2:0:0:
310,105,86268,1,0,0:0:0:0:
310,105,86354,1,2,0:0:0:0:
465,85,86526,1,2,1:2:0:0:
393,142,86699,1,2,0:0:0:0:
291,92,86871,1,2,1:2:0:0:
146,22,87044,1,2,0:0:0:0:
0,173,87216,5,2,1:2:0:0:
104,142,87388,2,0,P|64:147|24:153,1,80,2|0,0:0|1:0,0:0:0:0:
149,226,87733,1,2,0:0:0:0:
204,76,87906,1,2,1:2:0:0:
100,45,88078,2,0,P|139:50|179:56,1,80,2|0,0:0|1:0,0:0:0:0:
309,235,88423,6,0,B|293:257|264:253|264:253|243:206|243:206|261:152,1,160,2|2,0:0|0:0,0:0:0:0:
334,100,88940,1,2,1:2:0:0:
334,100,89026,1,0,0:0:0:0:
334,100,89113,1,2,0:0:0:0:
458,203,89285,2,0,P|420:214|394:244,2,80,2|0|0,1:2|0:0|1:0,0:0:0:0:
512,137,89802,1,2,0:0:0:0:
415,339,89975,5,2,1:2:0:0:
512,384,90147,2,0,P|486:354|448:342,1,80,2|0,0:0|1:0,0:0:0:0:
296,375,90492,1,2,0:0:0:0:
186,339,90664,1,2,1:2:0:0:
266,268,90836,2,0,P|228:279|201:309,1,80,2|0,0:0|1:0,0:0:0:0:
407,307,91182,6,0,B|416:248|429:188|429:188|415:176|407:156,1,160,2|2,0:0|0:0,0:0:0:0:
395,77,91699,1,2,1:2:0:0:
395,77,91785,1,0,0:0:0:0:
395,77,91871,1,2,0:0:0:0:
506,167,92044,1,2,1:2:0:0:
407,156,92216,1,2,0:0:0:0:
304,201,92388,1,2,1:2:0:0:
417,319,92561,1,2,0:0:0:0:
215,376,92733,5,2,1:2:0:0:
182,269,92906,2,0,P|195:306|206:345,1,80,2|0,0:0|1:0,0:0:0:0:
94,238,93251,1,2,0:0:0:0:
260,218,93423,1,2,1:2:0:0:
293,111,93596,2,0,P|279:148|268:187,1,80,2|0,0:0|1:0,0:0:0:0:
158,19,93940,6,0,B|188:32|225:33|225:33|229:39|229:39|263:7|306:17,1,160,2|2,0:0|0:0,0:0:0:0:
399,62,94457,1,2,1:2:0:0:
399,62,94544,1,0,0:0:0:0:
399,62,94630,1,2,0:0:0:0:
488,41,94802,1,2,1:2:0:0:
415,279,94975,1,8,3:0:0:0:
360,162,95147,1,4,3:0:0:0:
399,62,95320,1,4,3:0:0:0:
85,129,95492,5,6,1:2:0:0:
34,242,95664,2,0,P|19:216|23:185,1,55.0000016784668,2|2,0:0|0:0,0:0:0:0:
192,185,95837,1,2,0:0:0:0:
243,298,96009,2,0,P|258:272|254:241,1,55.0000016784668,2|2,1:2|1:2,0:0:0:0:
276,139,96182,2,0,B|223:80|256:3|256:3|269:43|306:80,1,220.000006713867,10|2,0:0|0:0,0:0:0:0:
28,103,96699,6,0,B|48:98|65:82|65:82|133:177|133:177|177:176|221:196,1,220.000006713867,2|2,1:2|1:2,0:0:0:0:
264,247,97216,1,2,0:0:0:0:
280,334,97388,1,2,1:2:0:0:
490,303,97561,2,0,B|461:265|406:273|406:273|398:310|398:310|385:321|377:335,1,165.000005035401,10|0,0:0|0:0,0:0:0:0:
363,380,97906,1,2,1:2:0:0:
363,380,98078,1,2,0:0:0:0:
402,159,98251,5,2,1:2:0:0:
495,195,98423,1,2,0:0:0:0:
495,195,98509,1,2,0:0:0:0:
495,195,98595,1,2,0:0:0:0:
440,265,98768,2,0,P|410:259|376:232,1,55.0000016784668,2|0,1:2|1:0,0:0:0:0:
403,8,98940,1,10,0:0:0:0:
496,44,99113,2,0,B|484:70|484:70|476:72|476:72|452:105|396:108,1,110.000003356934,2|0,0:0|1:0,0:0:0:0:
226,168,99457,6,0,B|212:192|188:203|188:203|237:299|237:299|243:270|263:245,1,220.000006713867,2|2,1:2|1:2,0:0:0:0:
235,384,99975,1,2,0:0:0:0:
339,167,100147,1,2,1:2:0:0:
339,167,100233,1,0,1:0:0:0:
339,167,100320,2,0,P|316:109|254:72,1,110.000003356934,8|0,0:0|1:0,0:0:0:0:
61,178,100664,1,10,0:0:0:0:
41,144,100750,1,8,0:0:0:0:
32,107,100836,1,10,0:0:0:0:
33,69,100922,1,8,0:0:0:0:
44,32,101008,5,6,1:2:0:0:
119,240,101182,1,10,0:0:0:0:
84,220,101268,1,8,0:0:0:0:
58,193,101354,1,10,0:0:0:0:
250,343,101526,2,0,B|303:386|381:375|381:375|361:368|343:351,1,179.999994506836,6|0,1:2|0:0,0:0:0:0:
341,312,101871,1,8,3:0:0:0:
432,281,102044,1,4,3:0:0:0:
159,374,102216,6,0,B|52:349|52:349|41:351|41:351|10:328|13:285,1,194.999991073609,6|0,1:2|0:0,0:0:0:0:
20,249,102561,1,10,0:0:0:0:
20,249,102647,1,8,0:0:0:0:
20,249,102733,1,10,0:0:0:0:
270,103,102906,2,0,B|304:51|255:16|255:16|248:5|248:5|189:43|189:43|192:57|191:70,1,209.999993591309,6|0,1:2|0:0,0:0:0:0:
190,111,103251,1,8,3:0:0:0:
341,187,103423,1,4,3:0:0:0:
472,80,103595,1,4,3:0:0:0:
299,178,103768,5,14,0:0:0:0:
110,362,103940,1,0,1:0:0:0:
149,282,104113,5,10,0:0:0:0:
31,19,104285,1,2,1:2:0:0:
118,1,104457,5,8,0:0:0:0:
33,318,104630,2,0,P|23:288|19:257,1,55.0000016784668,0|0,1:0|1:0,0:0:0:0:
170,72,104802,5,10,0:0:0:0:
485,8,104975,1,0,1:0:0:0:
165,87,105147,6,0,B|144:133|144:133|223:187,1,129.999994049073,6|0,1:2|0:0,0:0:0:0:
31,282,105406,6,0,B|10:236|10:236|89:182,1,129.999994049073,6|0,1:2|0:0,0:0:0:0:
219,265,105664,6,0,L|201:348,1,75.0000028610231,6|0,1:2|0:0,0:0:0:0:
508,382,106526,6,0,L|491:387,2,15,2|2|2,0:0|0:0|0:0,0:0:0:0:
442,59,107561,6,0,L|486:72,1,44.999998626709,2|0,0:0|0:0,0:0:0:0:
433,42,107906,6,0,B|394:0|331:17|331:17|329:26|329:26|321:31|321:31|332:61|340:102,1,194.999991073609,6|0,1:2|0:0,0:0:0:0:
317,167,108251,1,10,0:0:0:0:
263,343,108423,1,2,1:2:0:0:
193,304,108595,2,0,P|181:273|176:240,1,64.9999970245363,2|0,0:0|3:0,0:0:0:0:
380,213,108768,1,2,1:2:0:0:
428,207,108854,1,2,0:0:0:0:
476,201,108940,1,10,0:0:0:0:
254,121,109113,1,2,1:2:0:0:
33,237,109285,5,2,1:2:0:0:
166,377,109457,1,2,1:2:0:0:
32,219,109630,1,10,0:0:0:0:
54,261,109716,1,0,3:0:0:0:
76,303,109802,2,0,P|88:339|84:378,1,64.9999970245363,0|0,1:0|3:0,0:0:0:0:
17,141,109975,2,0,P|65:98|134:124,1,129.999994049073,2|0,0:0|1:0,0:0:0:0:
16,123,110320,1,10,0:0:0:0:
162,183,110492,1,2,1:2:0:0:
491,122,110664,5,6,1:2:0:0:
320,50,110837,1,2,1:2:0:0:
380,0,111009,2,0,B|415:11|422:39|422:39|426:43|426:43|433:77|408:102,1,129.999994049073,10|0,0:0|1:0,0:0:0:0:
245,179,111268,1,0,3:0:0:0:
245,179,111354,2,0,B|297:157|297:157|313:180|313:180|337:188|355:203,1,129.999994049073,6|2,0:0|1:2,0:0:0:0:
500,312,111613,1,2,0:0:0:0:
500,312,111699,2,0,B|465:220|465:220|483:211|502:190,1,129.999994049073,10|2,0:0|1:2,0:0:0:0:
241,259,112044,5,6,1:2:0:0:
408,377,112216,1,2,1:2:0:0:
221,277,112388,1,10,0:0:0:0:
179,56,112561,1,2,1:2:0:0:
135,36,112647,1,0,3:0:0:0:
87,32,112733,2,0,P|154:19|221:65,1,129.999994049073,6|0,0:0|1:0,0:0:0:0:
153,239,113078,1,10,0:0:0:0:
80,267,113164,1,8,0:0:0:0:
19,227,113251,1,8,3:0:0:0:
7,169,113337,1,4,3:0:0:0:
19,132,113423,6,0,B|76:120|103:177|103:177|95:184|95:184|105:234|105:234|93:260,1,194.999991073609,6|0,1:2|0:0,0:0:0:0:
40,315,113768,1,10,0:0:0:0:
224,269,113940,1,2,1:2:0:0:
258,199,114113,2,0,P|224:183|191:173,1,64.9999970245363,2|0,0:0|3:0,0:0:0:0:
419,220,114285,1,2,1:2:0:0:
371,231,114371,1,2,0:0:0:0:
324,242,114457,1,10,0:0:0:0:
132,292,114630,1,2,1:2:0:0:
359,355,114802,5,2,1:2:0:0:
498,232,114975,1,2,1:2:0:0:
460,28,115147,1,10,0:0:0:0:
468,75,115233,1,0,3:0:0:0:
477,122,115320,2,0,P|453:84|422:69,1,64.9999970245363,0|0,1:0|3:0,0:0:0:0:
255,94,115492,2,0,B|250:49|279:9|279:9|285:27|300:51,1,129.999994049073,2|0,0:0|1:0,0:0:0:0:
432,187,115837,1,10,0:0:0:0:
373,25,116009,1,2,1:2:0:0:
216,222,116182,6,0,B|194:247|194:247|208:253|222:268,1,64.9999970245363,6|0,1:2|0:0,0:0:0:0:
387,324,116354,2,0,B|398:311|412:305|412:305|390:280,1,64.9999970245363,2|0,0:0|0:0,0:0:0:0:
297,316,116526,2,0,B|291:345|291:345|292:350|292:350|287:381,3,64.9999970245363,2|8|8|8,1:2|0:0|0:0|0:0,0:0:0:0:
110,273,116871,5,10,1:2:0:0:
88,233,116957,1,8,0:0:0:0:
79,188,117043,1,10,0:0:0:0:
86,143,117129,1,10,0:0:0:0:
36,120,117216,5,10,1:2:0:0:
67,68,117302,1,8,0:0:0:0:
113,30,117388,1,10,0:0:0:0:
168,6,117474,1,8,0:0:0:0:
234,0,117561,6,0,B|246:21|246:21|234:64,1,59.9999981689454,2|0,1:2|0:0,0:0:0:0:
486,269,117906,6,0,B|474:248|474:248|486:205,1,59.9999981689454,2|0,1:2|0:0,0:0:0:0:
183,344,118251,6,0,B|170:364|170:364|127:376,1,59.9999981689454,2|0,1:2|0:0,0:0:0:0:
455,139,118940,5,6,1:2:0:0:
413,54,119113,1,2,1:2:0:0:
325,20,119285,1,10,0:0:0:0:
189,116,119457,1,8,3:0:0:0:
189,116,119544,1,4,3:0:0:0:
189,116,119630,2,0,B|231:108|231:108|242:83|241:52,1,89.9999972534181,0|2,1:0|1:2,0:0:0:0:
325,20,119975,1,10,0:0:0:0:
309,181,120147,1,8,3:0:0:0:
309,181,120234,1,4,3:0:0:0:
309,181,120320,6,0,B|351:189|351:189|362:214|361:245,1,89.9999972534181,0|2,1:0|1:2,0:0:0:0:
445,277,120665,1,10,0:0:0:0:
269,326,120837,1,8,3:0:0:0:
294,334,120923,1,4,3:0:0:0:
319,342,121009,1,2,1:2:0:0:
415,372,121182,1,2,1:2:0:0:
210,238,121354,2,0,B|192:256|160:254|160:254|156:252|156:252|142:259|118:260,1,89.9999972534181,10|4,0:0|3:0,0:0:0:0:
236,220,121699,6,0,P|219:178|173:144,1,89.9999972534181,6|2,1:2|1:2,0:0:0:0:
16,91,122044,2,0,P|33:49|79:15,1,89.9999972534181,10|8,0:0|3:0,0:0:0:0:
102,8,122302,1,4,3:0:0:0:
102,8,122388,1,0,1:0:0:0:
184,56,122561,1,2,1:2:0:0:
90,247,122733,2,0,P|81:202|101:148,1,89.9999972534181,10|8,0:0|3:0,0:0:0:0:
116,130,122991,1,4,3:0:0:0:
116,130,123077,5,0,1:0:0:0:
210,144,123251,1,2,1:2:0:0:
272,349,123423,1,10,0:0:0:0:
271,244,123595,1,8,3:0:0:0:
271,244,123682,1,4,3:0:0:0:
271,244,123768,2,0,B|227:238|195:281|195:281|200:287|200:287|156:300|139:343,1,179.999994506836,2|8,1:2|0:0,0:0:0:0:
343,184,124285,2,0,P|363:202|390:210,1,44.999998626709,8|4,3:0|3:0,0:0:0:0:
53,379,124457,5,6,1:2:0:0:
14,293,124630,1,2,1:2:0:0:
39,202,124802,1,10,0:0:0:0:
180,89,124975,1,8,3:0:0:0:
180,89,125061,1,4,3:0:0:0:
180,89,125147,2,0,B|142:100|142:100|138:107|138:107|122:111|97:124,1,89.9999972534181,0|2,1:0|1:2,0:0:0:0:
39,202,125492,1,10,0:0:0:0:
244,172,125664,1,8,3:0:0:0:
244,172,125750,1,4,3:0:0:0:
244,172,125836,6,0,B|282:183|282:183|286:190|286:190|302:194|326:207,1,89.9999972534181,0|2,1:0|1:2,0:0:0:0:
385,285,126181,1,10,0:0:0:0:
507,146,126354,1,8,3:0:0:0:
482,154,126440,1,4,3:0:0:0:
457,162,126526,1,2,1:2:0:0:
361,192,126699,1,2,1:2:0:0:
245,364,126871,2,0,B|269:376|294:379|294:379|299:358|320:342,1,89.9999972534181,10|4,0:0|3:0,0:0:0:0:
215,374,127216,6,0,P|167:360|124:328,1,89.9999972534181,2|2,1:2|1:2,0:0:0:0:
14,176,127561,2,0,P|51:200|94:212,1,89.9999972534181,10|8,0:0|3:0,0:0:0:0:
134,219,127820,1,4,3:0:0:0:
134,219,127906,1,0,1:0:0:0:
195,147,128078,1,2,1:2:0:0:
409,84,128251,2,0,P|371:108|328:120,1,89.9999972534181,10|8,0:0|3:0,0:0:0:0:
289,127,128510,1,4,3:0:0:0:
289,127,128596,1,0,1:0:0:0:
476,16,128768,5,10,0:0:0:0:
293,217,128940,1,10,0:0:0:0:
52,88,129113,1,10,0:0:0:0:
101,14,129285,6,0,L|144:6,7,25,2|2|2|2|2|2|2|2,0:0|0:0|0:0|0:0|0:0|0:0|0:0|0:0,0:0:0:0:
339,7,129975,6,0,B|324:17|308:33|308:33|204:58|204:58|216:80|217:108,1,200,6|8,1:2|0:0,0:0:0:0:
340,252,130492,2,0,B|332:279|333:305|333:305|340:327|344:366,1,100,2|0,1:2|0:0,0:0:0:0:
374,382,130751,1,0,3:0:0:0:
374,382,130837,1,0,1:0:0:0:
146,196,131009,2,0,B|200:191|248:211|248:211|257:234|239:253,1,150,10|0,0:0|0:0,0:0:0:0:
122,171,131354,6,0,B|76:207|11:206|11:206|0:262|0:262|15:292,1,200,6|8,1:2|0:0,0:0:0:0:
182,100,131871,2,0,B|191:120|191:120|295:115|295:115|304:140,1,150,2|0,1:2|3:0,0:0:0:0:
336,160,132216,2,0,P|356:178|380:187,1,50,2|0,1:2|0:0,0:0:0:0:
492,27,132388,2,0,P|472:45|448:54,1,50,10|0,0:0|0:0,0:0:0:0:
349,179,132561,2,0,P|371:193|397:197,1,50,2|0,1:2|0:0,0:0:0:0:
230,297,132733,5,6,1:2:0:0:
156,348,132906,1,2,1:2:0:0:
92,285,133078,1,10,0:0:0:0:
148,356,133251,1,2,1:2:0:0:
235,383,133423,2,0,B|260:358|260:358|255:329|255:329|257:321|257:321|251:288|251:288|265:308|280:319,2,150,2|2|2,0:0|0:0|1:2,0:0:0:0:
32,144,134113,6,0,B|11:55|106:16|106:16|120:32|105:49,1,200,6|8,1:2|0:0,0:0:0:0:
154,224,134630,2,0,B|197:214|197:214|184:186|150:199,1,100,0|0,1:0|0:0,0:0:0:0:
118,185,134888,1,0,3:0:0:0:
118,185,134975,1,0,1:0:0:0:
330,246,135147,1,8,0:0:0:0:
367,258,135233,1,8,0:0:0:0:
405,270,135320,1,4,3:0:0:0:
398,288,135406,1,4,3:0:0:0:
391,306,135492,5,6,1:2:0:0:
276,366,135664,1,2,0:0:0:0:
486,202,135837,5,2,1:2:0:0:
371,142,136009,1,2,0:0:0:0:
187,307,136182,5,2,1:2:0:0:
153,16,136354,2,0,P|92:38|81:89,1,100,2|2,1:2|0:0,0:0:0:0:
95,376,136699,2,0,B|70:243|70:243|36:235|18:207,2,200,2|2|2,1:2|1:2|1:2,0:0:0:0:
186,108,137561,5,2,1:2:0:0:
471,17,137733,1,2,1:2:0:0:
248,209,137906,1,2,1:2:0:0:
352,281,138078,1,2,0:0:0:0:
237,9,138251,6,0,P|317:6|393:104,2,200,2|0|0,1:2|1:2|1:2,0:0:0:0:
489,239,139113,1,0,1:2:0:0:
420,177,139228,6,0,P|387:180|355:189,1,66.6666666666667,2|2,0:0|0:0,0:0:0:0:
106,64,139457,2,0,P|72:61|38:51,1,66.6666666666667,6|2,1:2|0:0,0:0:0:0:
187,307,139802,5,8,3:0:0:0:
190,321,140147,5,4,3:0:0:0:
96,367,140492,5,8,0:0:0:0:
193,336,140664,1,8,3:0:0:0:
290,305,140837,2,0,L|268:219,1,80,4|0,3:0|0:0,0:0:0:0:
96,7,146182,6,0,P|74:10|52:13,1,44.999998626709,2|0,0:0|0:0,0:0:0:0:
108,20,146526,6,0,B|98:53|89:93|89:93|53:133|53:133|71:161|66:196,1,194.999991073609,6|0,1:2|0:0,0:0:0:0:
42,267,146871,1,10,0:0:0:0:
153,211,147044,2,0,P|158:181|153:152,1,59.9999981689454,2|0,1:2|3:0,0:0:0:0:
59,354,147216,2,0,P|29:349|0:345,1,59.9999981689454,2|0,0:0|3:0,0:0:0:0:
171,287,147388,1,2,1:2:0:0:
215,293,147475,1,2,0:0:0:0:
259,299,147561,1,10,0:0:0:0:
51,366,147733,1,2,1:2:0:0:
89,91,147906,5,2,1:2:0:0:
274,180,148078,1,2,1:2:0:0:
163,384,148251,2,0,B|154:343|148:300|148:300|141:290|141:290|144:267,1,119.999996337891,10|0,0:0|1:0,0:0:0:0:
164,195,148509,1,0,3:0:0:0:
164,195,148595,2,0,P|149:170|122:157,1,59.9999981689454,2|0,0:0|3:0,0:0:0:0:
320,106,148768,1,0,1:0:0:0:
98,0,148940,1,10,0:0:0:0:
15,38,149113,1,2,1:2:0:0:
373,17,149285,5,6,1:2:0:0:
485,145,149457,1,2,1:2:0:0:
275,294,149630,2,0,B|242:283|236:257|236:257|232:254|232:254|225:222|249:199,1,119.999996337891,10|0,0:0|1:0,0:0:0:0:
325,185,149888,1,0,3:0:0:0:
324,185,149975,2,0,P|306:212|277:225,1,64.9999970245363,6|0,0:0|3:0,0:0:0:0:
51,114,150147,1,2,1:2:0:0:
131,104,150233,1,2,0:0:0:0:
211,94,150319,1,10,0:0:0:0:
36,130,150492,1,2,1:2:0:0:
190,302,150664,5,6,1:2:0:0:
142,384,150837,1,2,1:2:0:0:
365,280,151009,1,10,0:0:0:0:
317,197,151182,2,0,P|332:223|359:235,1,59.9999981689454,2|0,1:2|3:0,0:0:0:0:
498,58,151354,2,0,P|466:54|434:49,1,64.9999970245363,6|0,0:0|3:0,0:0:0:0:
274,7,151526,1,0,1:0:0:0:
460,294,151699,1,10,0:0:0:0:
473,224,151785,1,8,0:0:0:0:
486,159,151871,1,8,3:0:0:0:
499,106,151958,1,4,3:0:0:0:
508,72,152044,5,14,0:0:0:0:
174,209,152216,1,0,1:0:0:0:
146,116,152388,5,10,0:0:0:0:
483,238,152561,1,2,1:2:0:0:
339,362,152733,5,14,0:0:0:0:
387,203,152906,1,2,1:2:0:0:
380,155,152992,1,2,1:2:0:0:
371,108,153078,1,10,0:0:0:0:
499,344,153251,1,2,1:2:0:0:
169,374,153423,5,14,0:0:0:0:
260,109,153595,1,2,1:2:0:0:
198,34,153768,5,10,0:0:0:0:
478,195,153940,1,0,1:0:0:0:
141,289,154113,5,8,0:0:0:0:
123,299,154199,1,0,1:0:0:0:
494,110,154371,1,0,1:0:0:0:
512,120,154457,1,10,0:0:0:0:
415,15,154630,1,2,1:2:0:0:
339,362,154802,6,0,P|329:330|318:300,1,64.9999970245363,6|0,1:2|0:0,0:0:0:0:
246,184,154975,2,0,P|236:215|225:245,1,64.9999970245363,2|0,0:0|0:0,0:0:0:0:
133,322,155147,2,0,P|103:318|78:301,3,59.9999981689454,2|8|8|8,1:2|0:0|0:0|0:0,0:0:0:0:
231,384,155492,5,10,1:2:0:0:
235,333,155578,1,8,0:0:0:0:
222,284,155664,1,10,0:0:0:0:
193,242,155750,1,10,0:0:0:0:
133,242,155837,5,10,1:2:0:0:
83,209,155923,1,8,0:0:0:0:
54,158,156009,1,10,0:0:0:0:
53,98,156095,1,8,0:0:0:0:
100,57,156182,6,0,P|114:30|125:2,1,59.9999981689454,2|0,1:2|0:0,0:0:0:0:
275,218,156526,6,0,P|278:188|279:158,1,59.9999981689454,2|0,1:2|0:0,0:0:0:0:
471,306,156871,6,0,P|464:276|454:248,1,59.9999981689454,2|0,1:2|0:0,0:0:0:0:
347,111,157561,6,0,P|335:88|326:65,1,50,2|0,1:2|0:0,0:0:0:0:
244,207,157906,6,0,P|240:182|239:157,1,50,2|0,1:2|0:0,0:0:0:0:
127,259,158251,6,0,P|132:234|139:210,1,50,2|0,1:2|0:0,0:0:0:0:
508,366,158940,6,0,P|472:333|411:334,1,110.000003356934,6|2,1:2|0:0,0:0:0:0:
381,355,159199,1,2,0:0:0:0:
381,355,159285,1,10,0:0:0:0:
190,321,159457,2,0,B|244:309|293:301|293:301|305:279|325:271,1,150,2|0,0:0|0:0,0:0:0:0:
373,262,159802,1,2,0:0:0:0:
254,384,159975,1,10,0:0:0:0:
174,315,160147,2,0,P|196:304|211:284,1,50,2|0,0:0|3:0,0:0:0:0:
276,96,160320,6,0,P|286:144|296:193,1,100,2|2,1:2|0:0,0:0:0:0:
248,80,160665,1,10,0:0:0:0:
134,236,160837,2,0,P|62:233|29:169,1,150,2|0,0:0|0:0,0:0:0:0:
39,125,161182,1,2,0:0:0:0:
221,199,161354,2,0,P|210:248|200:297,1,100,10|0,0:0|0:0,0:0:0:0:
364,379,161699,6,0,P|411:372|443:335,1,100,2|2,1:2|0:0,0:0:0:0:
441,289,161957,1,2,0:0:0:0:
441,289,162044,1,10,0:0:0:0:
493,200,162216,2,0,P|506:220|510:245,1,50,2|0,0:0|3:0,0:0:0:0:
411,105,162388,1,2,1:2:0:0:
443,333,162561,1,2,0:0:0:0:
226,258,162733,1,10,0:0:0:0:
313,58,162906,1,2,0:0:0:0:
145,136,163078,6,0,P|176:98|224:90,1,100,2|2,1:2|0:0,0:0:0:0:
114,122,163423,1,10,0:0:0:0:
317,278,163595,2,0,B|321:249|321:249|312:237|312:237|304:183|294:133,1,150,2|0,0:0|0:0,0:0:0:0:
305,87,163940,1,2,0:0:0:0:
177,211,164113,1,10,0:0:0:0:
196,241,164200,1,8,3:0:0:0:
226,258,164286,2,0,P|206:244|182:239,1,50,4|0,3:0|0:0,0:0:0:0:
19,383,164457,6,0,P|32:329|44:275,1,110.000003356934,6|2,1:2|0:0,0:0:0:0:
32,233,164716,1,2,0:0:0:0:
32,233,164802,1,10,0:0:0:0:
145,117,164975,2,0,B|102:123|59:131|59:131|24:124|16:90,1,150,2|0,0:0|0:0,0:0:0:0:
33,46,165320,1,2,0:0:0:0:
213,0,165492,1,10,0:0:0:0:
266,69,165664,2,0,P|241:73|221:87,1,50,2|0,0:0|3:0,0:0:0:0:
150,258,165837,6,0,P|200:261|237:293,1,100,2|2,1:2|0:0,0:0:0:0:
129,232,166182,1,10,0:0:0:0:
280,152,166354,2,0,P|353:168|426:184,1,150,2|0,0:0|0:0,0:0:0:0:
443,228,166699,1,2,0:0:0:0:
372,360,166871,2,0,P|367:311|335:274,1,100,10|0,0:0|0:0,0:0:0:0:
306,53,167216,6,0,P|354:64|403:75,1,100,2|2,1:2|0:0,0:0:0:0:
452,60,167475,1,2,0:0:0:0:
452,60,167561,1,10,0:0:0:0:
494,163,167733,2,0,P|473:148|449:145,1,50,2|0,0:0|3:0,0:0:0:0:
272,188,167906,1,2,1:2:0:0:
459,317,168078,1,2,0:0:0:0:
343,116,168251,1,10,0:0:0:0:
136,166,168423,1,2,0:0:0:0:
256,372,168595,5,2,1:2:0:0:
369,213,168768,1,2,0:0:0:0:
158,60,168940,1,10,0:0:0:0:
107,48,169026,1,8,0:0:0:0:
62,66,169112,1,10,0:0:0:0:
29,104,169198,1,8,0:0:0:0:
19,152,169285,6,0,P|24:180|28:207,1,55.0000016784668,6|0,1:2|0:0,0:0:0:0:
269,42,169544,6,0,P|263:68|258:96,1,55.0000016784668,6|0,1:2|0:0,0:0:0:0:
212,360,169802,6,0,P|207:333|202:306,1,55.0000016784668,6|0,1:2|0:0,0:0:0:0:
494,78,169975,6,0,B|494:130|466:185|428:221|428:221|378:237|333:237|333:237|371:297|368:366|368:366|425:311|484:281|484:281|449:249|428:221|428:221|399:177|388:133,1,719.999978027344,6|8,1:2|3:0,0:0:0:0:
397,103,171095,1,8,3:0:0:0:
397,103,171182,1,4,3:0:0:0:
